#TITLE:VANISHING POINT;
#SUBTITLE:;
#ARTIST:DJ Chucky;
#TITLETRANSLIT:;
#SUBTITLETRANSLIT:;
#ARTISTTRANSLIT:;
#CREDIT:;
#BANNER:vanishingpointbanner.png;
#BACKGROUND:bgblack.PNG;
#LYRICSPATH:;
#CDTITLE:;
#MUSIC:VANISHING POINT.mp3;
#OFFSET:-5.640;
#SAMPLESTART:45.190;
#SAMPLELENGTH:12.000;
#SELECTABLE:YES;
#BPMS:0.000=170.000;
#STOPS:;
#BGCHANGES:;

//---------------dance-single - ----------------
#NOTES:
     dance-single:
     :
     Beginner:
     2:
     0.216,0.330,0.163,0.095,0.000:
1000
0000
1000
0000
,
0001
0000
0001
0000
,
0100
0000
0010
0000
,
0110
0000
0000
0000
,
2002
0000
0000
0000
,
0000
0000
0000
0000
,
0000
0000
0000
0000
,
3003
0000
0000
0000
,
1000
0000
0100
0000
,
0010
0000
0001
0000
,
0001
0000
0010
0000
,
0100
0000
1000
0000
,
1001
0000
1000
0000
,
0001
0000
1000
0000
,
0001
0000
0100
0000
,
0001
0000
0100
0000
,
0010
0000
1000
0000
,
0010
0000
1000
0000
,
0100
0000
0010
0000
,
0100
0000
0010
0000
,
0110
0000
0010
0000
,
0010
0000
0010
0000
,
0110
0000
0100
0000
,
0100
0000
0100
0000
,
1001
0000
1000
0000
,
0001
0000
0100
0000
,
0010
0000
1000
0000
,
2002
0000
3003
0000
,
1000
1000
1000
0000
,
0010
0010
0010
0000
,
0100
0100
0100
0000
,
0001
0001
0001
0000
,
0010
0010
0010
0000
,
0001
0001
0001
0000
,
0100
0100
0100
0000
,
2002
0000
3003
0000
,
0010
0010
0010
0000
,
1000
1000
1000
0000
,
0001
0001
0001
0000
,
0200
0000
0300
0000
,
1000
1000
1000
0000
,
0100
0100
0100
0000
,
0001
0001
0001
0000
,
0110
0110
0110
0000
,
1001
0000
0000
0000
;

//---------------dance-single - ----------------
#NOTES:
     dance-single:
     :
     Easy:
     5:
     0.366,0.420,0.368,0.163,0.109:
1100
0000
1100
0000
,
0011
0000
0011
0000
,
0110
0000
0110
0000
,
2002
0000
3003
0000
,
1002
0000
1000
0000
,
1000
0000
1000
0000
,
1000
0000
1000
0000
,
1000
0000
1003
0000
,
1000
0000
0001
0000
,
0100
0000
0010
0000
,
0010
0000
0100
0000
,
0001
0000
1000
0000
,
1010
1000
1000
1000
,
1100
0100
0100
0100
,
0101
0001
0001
0001
,
0011
0010
0010
0010
,
1010
0010
0010
0010
,
0011
0001
0001
0001
,
0101
0100
0100
0100
,
1100
1000
1000
1000
,
0010
1000
0010
0000
,
0100
0001
0100
0000
,
0010
1000
0100
0100
,
0010
0001
0100
0100
,
1001
0000
1100
0000
,
0011
0000
0101
0000
,
1010
0000
1100
0000
,
2002
0000
3003
0000
,
1000
0000
0000
0010
0000
0000
1000
0000
0010
1000
0000
0000
,
0001
0000
0000
0100
0000
0000
0001
0000
0100
0001
0000
0000
,
0010
0000
0000
0001
0000
0000
0010
0000
0001
0010
0000
0000
,
1000
0000
0000
0100
0000
0000
1000
0000
0100
1000
0000
0000
,
0010
0000
0000
0100
0000
0000
0010
0000
0100
0010
0000
0000
,
1000
0000
0000
0001
0000
0000
1000
0000
0001
1000
0000
0000
,
0010
0000
0000
0100
0000
0000
0001
0000
1000
0100
0000
0000
,
0220
0000
0330
0000
,
0010
0000
0000
0001
0000
0000
0100
0000
0100
0010
0000
0000
,
1000
0000
0000
0100
0000
0000
0010
0000
0010
0001
0000
0000
,
0100
0000
0000
0010
0000
0000
1000
0000
1000
0001
0000
0000
,
0220
0330
2002
3003
,
1000
0000
0000
0100
0000
0000
0010
0000
0001
0100
0000
0000
,
0010
0000
0000
1000
0000
0000
0001
0000
0010
0100
0000
0000
,
1000
0000
0000
0000
0001
0000
0100
0000
0010
1000
0000
0000
,
1000
0000
0001
0000
0100
0000
0020
0000
0000
0030
0000
0000
,
1001
0000
0000
0000
;

//---------------dance-single - ----------------
#NOTES:
     dance-single:
     :
     Medium:
     7:
     0.473,0.450,0.041,0.109,0.545:
1000
0000
0000
0001
0000
0100
0000
0010
0000
1000
0000
0000
,
0010
0000
0000
0100
0000
0001
0010
0000
0100
0010
0000
0000
,
0001
0000
1000
0100
0000
0010
0000
0001
0000
1000
0000
0000
,
0020
0000
0200
0330
,
1002
0000
1000
0000
,
1000
0000
1003
0000
,
2001
0000
0001
0000
,
0001
0000
3001
0000
,
0010
0100
0010
0100
,
0001
1000
0001
1000
,
0010
1000
0010
0100
,
0001
0100
0010
1000
,
0001
0000
0000
0100
0000
0010
0000
1000
0000
0100
0000
0000
,
1000
0000
0000
0001
0000
0010
0000
0100
0000
1000
0000
0000
,
0001
0000
0000
0010
0000
0001
0000
0100
0000
0010
0000
0000
,
1000
0000
0000
0100
0000
0000
0010
0000
0100
1000
0000
0000
,
0001
0000
0000
0100
0000
0010
0000
1000
0000
0010
0000
0000
,
0100
0000
0000
0001
0000
0000
0010
0000
0100
1000
0000
0000
,
0100
0000
0000
0010
0000
0001
0000
0100
0000
0010
0000
0000
,
1000
0000
0001
0000
0100
0000
0010
0000
0100
0000
0001
0000
,
1000
0000
0000
0100
0000
0010
0001
0000
0000
0100
0000
0000
,
0010
0000
0000
1000
0000
0100
1000
0000
0000
0001
0000
0010
,
0100
0000
0000
1000
0000
0100
0010
0000
0001
0010
0000
0010
,
0100
0000
0000
1000
0000
0100
0010
0000
0010
0001
0000
0100
,
0010
0000
1000
0010
0000
1000
0010
0000
0000
0100
0000
0000
,
0001
0000
0100
0001
0000
0100
0001
0000
0000
0010
0000
0000
,
0001
0000
1000
0100
0000
0010
0001
0000
0100
0010
0000
1000
,
0002
0000
0000
0003
,
0100
0000
0000
0010
0000
1000
0001
0000
0010
0100
0000
1000
,
0100
0010
0001
0100
,
0010
0000
0000
1000
0000
0100
0010
0000
0001
0100
0000
0010
,
1000
0000
0000
0001
0000
0000
0010
0000
0001
0100
0000
0100
,
0010
0000
0000
1000
0000
0100
1000
0000
1000
0010
0000
0010
,
0100
0000
0000
0001
0000
0000
0010
0000
0001
0100
0000
0010
,
1000
0000
0000
0001
0000
0010
0100
0000
1000
0100
0000
0010
,
0001
0000
0100
0010
0000
0000
0220
0000
0000
0330
0000
0000
,
1000
0000
0000
0010
0000
0100
0001
0000
0001
0100
0000
0010
,
1000
0000
0000
0001
0000
0010
0100
0000
1000
0100
0000
0010
,
0001
0000
0000
0100
0000
0010
1000
0000
0001
0010
0000
0100
,
2000
0001
0000
0001
0001
0000
3000
0000
,
0001
0000
0000
0100
0000
0010
1000
0000
0100
0010
0000
0100
,
1000
0000
0000
0001
0000
0100
0010
0000
1000
0001
0000
0010
,
0100
0000
0000
1000
0000
0001
0100
0000
0010
0000
1000
0000
,
0001
0000
0100
0000
0010
0000
1000
0000
0001
0010
0100
1000
,
0001
0000
0000
0000
;

//---------------dance-single - ----------------
#NOTES:
     dance-single:
     :
     Hard:
     9:
     0.666,0.629,0.232,0.095,1.000: // measure 1
1100
0000
0000
0011
0000
0001
0000
0100
0000
0010
0000
0000
,  // measure 2
1000
0000
0000
0100
0000
1000
0001
0100
0010
1000
0000
0001
,  // measure 3
0010
0000
0001
0100
0000
0010
0000
1000
0000
0001
0000
0000
,  // measure 4
1002
0000
2000
3003
,  // measure 5
2100
0000
0001
0000
,  // measure 6
0010
0000
3001
0000
,  // measure 7
0102
0000
1000
0000
,  // measure 8
0010
0000
1003
0000
,  // measure 9
1100
0000
0001
0100
0000
0010
1000
0000
0001
0010
0000
0100
,  // measure 10
1000
0000
0100
0000
0010
0000
0001
0000
0100
0000
0010
0000
,  // measure 11
1000
0000
0001
0010
0000
0001
0100
0000
0010
1000
0000
0001
,  // measure 12
0010
0000
0100
1000
0001
0010
0100
0000
1000
0010
0000
0100
,  // measure 13
0001
0010
0001
0000
0000
1001
0000
0000
0000
1100
0000
0100
,  // measure 14
1000
0000
1000
0010
0000
0010
0100
0000
0100
0001
0000
0001
,  // measure 15
0100
0010
0100
0000
0000
0110
0000
0000
0000
0011
0000
0001
,  // measure 16
0010
0000
0010
1000
0000
1000
0001
0000
0001
0100
0000
0100
,  // measure 17
1000
0010
1000
0000
0000
0011
0000
0000
0000
1001
0000
1000
,  // measure 18
0001
0000
0001
0100
0000
0100
1000
0000
1000
0010
0000
0010
,  // measure 19
1000
0001
1000
0000
0000
1100
0000
0000
0000
0110
0000
0010
,  // measure 20
0100
0000
0100
0001
0000
0001
0010
0000
0010
1000
0000
1000
,  // measure 21
0100
0000
0100
1000
0000
1000
0100
0000
0100
1000
0000
1000
,  // measure 22
0001
0000
0001
0100
0000
0100
0001
0000
0001
0100
0000
0100
,  // measure 23
0010
0000
0010
1000
0000
1000
0010
0000
0010
1000
0000
1000
,  // measure 24
0001
0000
0001
0010
0000
0010
0001
0000
0001
0010
0000
0010
,  // measure 25
0001
0100
0010
1000
0000
0001
0010
0100
1000
0100
0000
0010
,  // measure 26
0001
0100
0010
1000
0000
0001
0100
1000
0100
0001
0000
0010
,  // measure 27
0001
0100
0010
1000
0001
0010
0100
1000
0100
0010
0001
1000
,  // measure 28
0020
0000
0000
0030
,  // measure 29
0010
0000
1000
0100
0010
0001
0100
0000
0010
1000
0001
0010
,  // measure 30
0100
0000
0100
0010
1000
0001
0010
0000
0100
1000
0000
1000
,  // measure 31
0100
0000
0100
0010
0001
0100
0010
0000
1000
0001
0010
0001
,  // measure 32
0100
0000
0010
1000
0001
0100
0010
0000
0010
1000
0000
1000
,  // measure 33
0001
0000
0010
0001
0100
0010
1000
0000
0001
0010
0100
1000
,  // measure 34
0100
0000
0010
0001
0100
0010
1000
0000
0001
0100
0000
0100
,  // measure 35
0010
0000
1000
0001
0010
0100
1000
0000
0100
0010
0001
1000
,  // measure 36
0020
0000
0000
0030
,  // measure 37
1000
0000
0001
0010
0100
1000
0100
0000
0010
0001
1000
0010
,  // measure 38
0100
0000
0001
0100
0010
1000
0001
0000
0010
0001
0000
0100
,  // measure 39
0010
0000
1000
0001
0010
0100
1000
0000
0100
0010
0001
1000
,  // measure 40
0020
0100
0030
0100
0010
0000
1001
0000
,  // measure 41
1000
0000
0001
0100
0010
1000
0001
0000
0010
0100
1000
0100
,  // measure 42
0010
0000
0001
1000
0010
0100
0001
0000
0010
0001
0000
0100
,  // measure 43
0010
0000
0000
0000
1000
0000
0001
0000
0000
0010
0000
0000
0100
0000
0000
0000
1100
0000
0000
0000
1010
0000
0000
0000
,  // measure 44
0001
0000
0000
0100
0000
0000
0000
0000
0000
0100
0000
0000
0001
0000
0000
0000
0001
0000
0100
0000
0010
0000
1000
0000
,  // measure 45
0001
0000
0000
0000
;
