#TITLE:Tropical April;
#SUBTITLE:;
#ARTIST:Risk Junk;
#TITLETRANSLIT:;
#SUBTITLETRANSLIT:;
#ARTISTTRANSLIT:;
#CREDIT:;
#BANNER:;
#BACKGROUND:;
#LYRICSPATH:;
#CDTITLE:;
#MUSIC:Tropical April.mp3;
#OFFSET:-6.600;
#SAMPLESTART:6.650;
#SAMPLELENGTH:12.000;
#SELECTABLE:YES;
#BPMS:0.000=182.000;
#STOPS:;
#BGCHANGES:;

//---------------dance-single - ----------------
#NOTES:
     dance-single:
     :
     Beginner:
     1:
     0.106,0.128,0.000,0.010,0.000:
1000
0000
1000
0000
,
1000
0000
0000
0000
,
0010
0000
0010
0000
,
0010
0000
0000
0000
,
0100
0000
0100
0000
,
0100
0000
0000
0000
,
0001
0000
0001
0000
,
0001
0000
0000
0000
,
0010
0000
0010
0000
,
0010
0000
0000
0000
,
0001
0000
0001
0000
,
0001
0000
0000
0000
,
0100
0000
0100
0000
,
0100
0000
0000
0000
,
1000
0000
1000
0000
,
1000
0000
0000
0000
,
0010
0000
0000
0000
,
0010
0000
0000
0000
,
1000
0000
1000
0000
,
1000
0000
0000
0000
,
0100
0000
0000
0000
,
0100
0000
0000
0000
,
0001
0000
0000
0000
,
0000
0000
0000
0000
,
1000
0000
0001
0000
,
1000
0000
0000
0000
,
0010
0000
0100
0000
,
0010
0000
0000
0000
,
1000
0000
0100
0000
,
0010
0000
0000
0000
,
0001
0000
0000
0001
,
0000
0000
0000
0000
,
1000
0000
0000
0000
,
1000
0000
0000
0000
,
0100
0000
0000
0000
,
0100
0000
0000
0000
,
0010
0000
0000
0000
,
0010
0000
0000
0000
,
0001
0000
0000
0000
,
0001
0000
0000
0000
,
0010
0000
0000
0000
,
0001
0000
0000
0000
,
0010
0000
0000
0000
,
0001
0000
0000
0000
,
1000
0000
0000
0000
,
0100
0000
0000
0000
,
1000
0000
0000
0000
,
0000
0000
0000
0000
,
0010
0000
0000
0000
,
1000
0000
0000
0000
,
0100
0000
0000
0000
,
0010
0000
0000
0000
,
0001
0000
0000
0000
,
0100
0000
0000
0000
,
0010
0000
0000
0000
,
0000
0000
0000
0000
,
0010
0000
0000
0000
,
1000
0000
0000
0000
,
0100
0000
0000
0000
,
0001
0000
0000
0000
,
0100
0000
0000
0000
,
1000
0000
0000
0000
,
0010
0000
0000
0000
,
0000
0000
0000
0000
,
1000
0000
0100
0000
,
0020
0030
0000
0000
;

//---------------dance-single - ----------------
#NOTES:
     dance-single:
     :
     Easy:
     4:
     0.332,0.288,0.003,0.000,0.000:
1000
0000
0100
0000
,
0010
0001
0010
0000
,
0001
0000
0100
0000
,
0010
1000
0010
0000
,
1000
0000
0100
0000
,
0001
0100
1000
0000
,
0010
0000
0000
0010
,
0000
0000
0010
0000
,
1000
0100
1000
0000
,
0010
0100
0010
0000
,
0001
0100
0001
0000
,
0010
0001
0010
0000
,
0100
1000
0010
0000
,
0100
0001
0010
0000
,
0100
1000
0010
0000
,
0100
0000
0001
0000
,
1000
0100
1000
0100
,
0010
0001
0010
0001
,
0100
0001
0100
0001
,
1000
0100
1000
0100
,
1000
0010
0100
0001
,
0010
1000
0100
0001
,
0010
0000
0000
0001
,
0000
0000
0100
0000
,
0010
1000
0010
1000
,
0001
0100
0001
0100
,
0010
1000
0100
0001
,
0010
0001
0100
1000
,
0010
1000
0001
0100
,
0010
1000
0100
0001
,
0010
0000
0000
0100
,
0000
0000
0000
0000
,
1000
0100
1000
0000
,
0100
1000
0100
0000
,
0010
0001
0010
0000
,
0001
0010
0001
0000
,
0100
0010
1000
0000
,
0100
0010
0001
0000
,
0010
0001
1000
0000
,
0010
0100
0001
0000
,
1000
0000
0100
0000
,
0010
0001
0010
0000
,
0001
0100
0010
0000
,
1000
0100
0010
0000
,
0010
0000
0100
0000
,
1000
0001
0100
0000
,
0010
0000
0000
1000
,
0000
0001
0010
0100
,
1000
0100
1000
0000
,
0100
0010
0001
0100
,
0010
1000
0001
0000
,
0010
0001
0100
0010
,
1000
0100
0010
0000
,
0010
0100
1000
0001
,
0100
0000
0000
0010
,
0000
0000
1000
0000
,
0001
0010
0001
0100
,
0010
1000
0100
0000
,
1000
0010
0100
0001
,
0010
0100
1000
0000
,
0100
0010
0100
0010
,
0001
1000
0010
0100
,
0001
0000
0000
1000
,
0000
0000
0010
0000
,
0100
0000
0001
0100
,
0010
1001
0000
0000
;

//---------------dance-single - ----------------
#NOTES:
     dance-single:
     :
     Medium:
     7:
     0.482,0.456,0.010,0.000,0.000:
0010
1000
0100
1000
,
0010
0000
0100
0001
0100
0000
0001
0000
,
0010
0000
0001
0000
0100
0000
0010
1000
,
0000
1000
0010
0000
0100
0000
0001
0000
,
0010
0000
0100
1000
0000
1000
0010
0000
,
0100
0001
0010
0001
,
0100
0001
0000
0000
0010
0000
0100
1000
,
0000
0010
0100
0001
,
0010
0000
0001
0100
0010
0000
1000
0100
,
1000
0000
0010
0000
0100
0000
0001
0010
,
0001
0000
0000
0001
0010
0000
0100
0000
,
1000
0001
0100
0010
,
1000
0010
0100
0001
,
0010
0001
1000
0100
,
0010
0100
0010
0100
,
1000
0001
1000
0001
,
0100
0010
1000
0001
,
0100
0000
1000
0010
1000
0000
0010
0000
,
0100
0000
0001
0000
1000
0000
0100
0001
,
0000
0001
0100
0000
1000
0000
0100
0000
,
0001
0000
0010
0001
0000
0001
0100
0000
,
1000
0010
0100
0010
,
1000
0010
0000
0000
0100
0000
0001
1000
,
0000
0100
1000
0010
,
0100
0000
0010
1000
0100
0000
0010
0001
,
0010
0000
0100
0000
1000
0000
0010
0100
,
0010
0000
0000
0010
0100
0000
1000
0000
,
0001
0010
1000
0010
,
0001
0100
1000
0010
,
0100
0010
0001
0100
,
1000
1000
0000
0010
0010
0000
0100
0100
,
0000
0001
0001
0000
0000
0000
0000
0000
,
1000
0000
0100
1000
0000
1000
0100
0000
,
0010
0001
0100
0010
,
1000
0000
0001
0010
0000
0010
0001
0000
,
0100
0010
0000
1000
0100
0000
1000
0000
,
0001
0000
0100
0001
0000
0001
0100
0000
,
0010
1000
0100
0001
,
0010
0001
0100
1000
,
0010
1000
0100
0001
,
0010
0000
0001
0000
0100
0010
0100
0000
,
0010
0000
1000
0000
0100
1000
0100
0000
,
0010
0000
0001
0000
0100
0010
1000
0001
,
0010
0000
0100
0000
1000
0100
0010
0001
,
1000
0000
0010
0100
0000
0100
0010
0000
,
1000
0000
0001
0010
0000
0001
0100
0000
,
0010
0000
0000
1000
0000
0000
0100
0000
,
0000
0001
0100
0010
,
1000
0010
0001
0010
,
1000
0000
0001
0100
0001
0000
0100
0000
,
1000
0000
0100
0000
0001
0000
1000
0010
,
0000
0010
1000
0000
0001
0000
0100
0000
,
1000
0000
0001
0010
0000
0010
0001
0000
,
0010
0100
1000
0100
,
0001
0000
0000
0100
0000
0000
0010
0000
,
0000
1000
0010
0100
,
0001
0000
0100
0001
1000
0000
0100
0010
,
0001
0000
0010
0000
0001
0000
1000
0100
,
0010
0000
0000
0100
1000
0000
0001
0000
,
0010
0100
1000
0010
,
0100
0010
0001
0100
,
1000
0100
0010
0001
,
1000
1000
0000
0010
0010
0000
0100
0100
,
0000
0001
0001
0000
1001
0000
0000
0000
,
0001
0100
0010
0000
1000
0100
0010
0001
,
0010
0100
1000
0000
0000
0000
0000
0000
;

//---------------dance-single - ----------------
#NOTES:
     dance-single:
     :
     Hard:
     9:
     0.698,0.586,0.064,0.065,0.040: // measure 1
1100
0000
0010
0100
0000
0100
0001
0010
,  // measure 2
0001
0000
0100
0010
1000
0000
0001
0010
,  // measure 3
0001
0000
0100
0000
1000
0000
0010
0100
,  // measure 4
0000
0100
0001
1000
0001
0010
0100
1000
,  // measure 5
0100
0000
0010
0001
0010
0000
0001
0000
,  // measure 6
0100
0010
0000
0010
0100
0010
1000
0100
,  // measure 7
0010
0001
0000
0001
0100
0000
0100
0001
,  // measure 8
0000
0001
1000
0010
0100
0001
0010
0000
,  // measure 9
0010
0001
0100
1000
0100
0001
0010
0000
,  // measure 10
0001
0100
0010
1000
0001
0010
0100
1000
,  // measure 11
0100
0000
0010
0001
0010
0000
0001
1000
,  // measure 12
0000
1000
0010
0100
0001
0100
0010
1000
,  // measure 13
0001
0100
0000
0010
1000
0001
0010
0100
,  // measure 14
0000
1000
0100
0010
0001
1000
0010
0100
,  // measure 15
0001
0000
0100
0000
0010
1000
0010
0100
,  // measure 16
0000
0001
0010
0000
0100
0000
1000
0000
,  // measure 17
0011
0000
1000
0001
0000
0001
0100
1000
,  // measure 18
0100
0000
0010
0001
0010
0000
0100
1000
,  // measure 19
0100
0000
0001
0000
0010
0000
1000
0100
,  // measure 20
0000
1000
0100
0010
0100
1000
0001
0010
,  // measure 21
0001
0000
1000
0100
1000
0000
0100
0000
,  // measure 22
0001
0010
0000
0010
0001
1000
0010
0100
,  // measure 23
0001
0100
0000
0100
0010
0000
0010
1000
,  // measure 24
0000
1000
0010
1000
0100
0001
0100
0000
,  // measure 25
1000
0100
0001
0010
0001
0100
1000
0000
,  // measure 26
0100
0010
1000
0001
0010
0100
1000
0100
,  // measure 27
0010
0000
0001
0100
0001
0000
0100
0010
,  // measure 28
0000
0010
1000
0001
0100
0001
1000
0010
,  // measure 29
0100
0000
0001
0100
0001
0000
0010
0000
,  // measure 30
0100
1000
0000
1000
0100
0000
0010
0001
,  // measure 31
1000
0010
0000
0100
0001
0000
0010
0001
,  // measure 32
0000
1001
2002
0000
0000
0000
3003
0000
,  // measure 33
1000
0010
0100
0001
0000
0001
0100
0010
,  // measure 34
1000
0001
0010
0100
,  // measure 35
1000
0100
0010
0001
1000
0010
0100
0001
,  // measure 36
0100
0010
1000
0001
0010
0100
1000
0010
,  // measure 37
0100
0001
0100
0010
0000
1000
0010
0100
,  // measure 38
0001
0010
0100
1000
,  // measure 39
0001
0000
0000
0001
0100
0000
0000
0100
0010
0000
0000
0010
1000
0000
0000
1000
,  // measure 40
0100
0000
0000
0100
0010
0000
0000
0010
0001
0000
0000
0001
0100
0000
0000
0100
,  // measure 41
0010
1000
0100
1000
0010
0100
0001
0010
,  // measure 42
0001
1000
0100
0001
0100
1000
0010
0100
,  // measure 43
0001
0010
0001
1000
0010
0100
0001
0010
,  // measure 44
0100
1000
0100
0010
0001
0000
0010
0000
,  // measure 45
1000
0010
0001
1000
0010
0001
1000
0010
,  // measure 46
1000
0100
0001
1000
0100
0001
1000
0010
,  // measure 47
0100
0001
0000
0001
1000
0000
0010
0100
,  // measure 48
0000
0001
0010
0000
0100
0000
1000
0000
,  // measure 49
1001
0000
1000
0001
0000
0001
0100
0010
,  // measure 50
1000
0000
0010
1000
0010
0000
0100
0001
,  // measure 51
0100
0000
0001
0000
0010
0000
1000
0100
,  // measure 52
0000
1000
0100
0010
0100
1000
0001
0010
,  // measure 53
0001
0000
1000
0100
1000
0000
0100
0000
,  // measure 54
0001
0100
0000
0100
0001
1000
0010
0100
,  // measure 55
0001
0100
0000
0100
0001
0000
0001
0100
,  // measure 56
0000
0100
0010
1000
0001
0100
0010
0000
,  // measure 57
0010
1000
0001
0010
0100
1000
0100
0000
,  // measure 58
0010
0001
0100
0010
1000
0001
0010
0100
,  // measure 59
1000
0000
0001
0100
0001
0000
1000
0010
,  // measure 60
0000
0010
1000
0001
0010
0100
1000
0100
,  // measure 61
0010
0000
0001
0100
0001
0000
0100
0000
,  // measure 62
0010
0000
1000
0100
1000
0000
0010
0000
,  // measure 63
0100
0001
0000
1000
0100
0000
0010
0001
,  // measure 64
0000
0010
0100
0000
0220
0000
0330
0000
,  // measure 65
1000
0000
0010
0000
0100
0000
0001
0000
0100
0000
0010
0000
1000
0100
0010
0001
,  // measure 66
0010
0100
1001
0000
0000
0000
0000
0000
;
