#TITLE:This Day Aria vs. Smile Smile Smile!!;
#SUBTITLE:~Maximum DDR Mix~;
#ARTIST:KingSpartaX37;
#TITLETRANSLIT:;
#SUBTITLETRANSLIT:;
#ARTISTTRANSLIT:;
#CREDIT:;
#BANNER:;
#BACKGROUND:;
#LYRICSPATH:;
#CDTITLE:;
#MUSIC:This Day Aria vs. Smile Smile Smile ~Maximum DDR Mix~.mp3;
#OFFSET:0.000;
#SAMPLESTART:103.620;
#SAMPLELENGTH:12.000;
#SELECTABLE:YES;
#BPMS:0.000=55.000,24.000=220.001,88.000=160.000,194.000=320.000,195.000=160.000,207.000=320.000,336.000=160.000,338.000=320.000,340.000=639.995,344.000=100.000,376.000=110.000,406.000=222.000,408.000=220.000,504.000=110.000,512.000=150.000,516.000=300.000,588.000=150.000,620.000=300.000,684.000=280.000,700.000=140.000,732.000=280.000,818.000=140.000,822.000=280.000,912.000=140.000,944.000=280.000,1008.000=200.000,1040.000=399.998,1104.000=99.999,1108.000=399.998,1248.000=220.000,1312.000=439.997,1440.000=220.000,1472.000=220.000,1536.000=439.997,1600.000=109.999,1604.000=880.011,1636.000=54.999;
#STOPS:186.500=0.380
,187.500=0.380
,192.500=0.180
,193.000=0.180
,193.500=0.180
,195.000=0.360
,201.000=0.180
,202.000=0.180
,202.500=0.180
,205.000=0.180
,205.500=0.180
,206.000=0.180
,207.000=0.640
,399.750=0.560
,1244.000=0.140
,1245.000=0.140
,1246.000=0.140
,1247.000=0.160
;
#BGCHANGES:;

//---------------dance-single - ----------------
#NOTES:
     dance-single:
     :
     Challenge:
     13:
     0.979,1.000,0.513,0.057,0.350: // measure 1
0011
0001
0100
0010
1010
1000
1100
0101
,  // measure 2
0011
0010
0110
0100
1100
1000
1010
0010
,  // measure 3
0101
0001
0011
0010
0110
0100
1100
1010
,  // measure 4
0101
0001
0011
0010
0110
0100
1100
1000
,  // measure 5
1010
0010
0101
0001
0011
0010
1100
0011
,  // measure 6
0101
0001
0011
0010
0110
0100
1100
1000
,  // measure 7
1010
0010
0100
0001
,  // measure 8
0011
0010
0100
1000
,  // measure 9
1010
0010
0100
0001
,  // measure 10
0011
0010
0110
0100
,  // measure 11
1100
0100
1000
0010
0100
0001
0010
0001
,  // measure 12
0011
0001
0100
0010
1000
0100
0010
0001
,  // measure 13
1001
1000
0010
0100
0001
0010
0001
0100
,  // measure 14
0110
0010
1000
0100
0010
0001
1000
0010
,  // measure 15
0220
0000
0000
0000
,  // measure 16
0000
0000
0000
0000
,  // measure 17
0000
0000
0000
0000
,  // measure 18
0000
0000
0000
0000
,  // measure 19
0000
0000
0000
0000
,  // measure 20
0000
0000
0000
0000
,  // measure 21
0000
0000
0000
0000
,  // measure 22
0330
0000
0000
0000
,  // measure 23
1100
0100
1100
0100
,  // measure 24
0110
0010
0011
0101
,  // measure 25
1010
0100
1100
1000
,  // measure 26
1010
0010
0110
0100
,  // measure 27
0101
0001
0011
0010
,  // measure 28
0110
0000
0100
0000
1100
0000
1010
0010
,  // measure 29
0110
0011
0101
1010
,  // measure 30
1100
0000
0011
0000
0001
1000
0001
1000
,  // measure 31
0001
0000
0100
0001
0100
0000
0010
0000
1000
0000
0001
0000
0010
0000
0100
0000
,  // measure 32
1000
0000
1000
0010
0100
0000
0100
0001
,  // measure 33
0010
0000
0001
1000
0001
0000
0100
0000
0010
0000
1000
0000
0001
0000
0010
0000
,  // measure 34
0100
1000
0010
0100
0001
0010
0100
1000
,  // measure 35
0010
0000
0100
0001
0100
0000
0001
0000
0010
0000
0001
0000
0100
0000
0010
0000
,  // measure 36
1000
0000
0001
0010
0001
0000
0010
0000
0001
0000
0100
0000
0010
0000
1000
0000
,  // measure 37
0001
0000
0010
0000
0100
0000
1000
0010
1000
0000
0010
0000
0100
0000
0001
0000
,  // measure 38
0020
0000
0000
0000
,  // measure 39
0031
0000
0100
0000
0010
0000
1000
0100
1000
0000
0010
0000
0001
0000
0100
0000
,  // measure 40
0010
1000
0100
0010
0100
1000
0010
0100
,  // measure 41
0001
0000
0010
0001
0010
0000
0001
0000
0100
0000
0010
0000
1000
0000
0001
0000
,  // measure 42
0010
0100
1000
0100
0010
0001
1000
0010
,  // measure 43
0100
0000
0001
0010
0001
0000
1000
0000
0010
0000
0100
0000
0001
0000
0010
0000
,  // measure 44
0100
0000
1000
0001
1000
0000
0010
0000
0100
0000
0001
0000
0010
0000
0100
0000
,  // measure 45
1000
0000
0010
1000
0010
0000
0100
0000
0001
0000
0010
0001
0010
0000
0100
0000
,  // measure 46
2000
0000
0000
0000
,  // measure 47
3001
0100
0010
1000
0100
1100
1000
1010
,  // measure 48
0010
0110
0100
0001
0010
0100
1000
0100
,  // measure 49
0010
0000
0000
0000
0000
0000
0000
0000
0011
0000
0000
0000
0000
0000
0000
0000
0101
0000
0000
0000
0000
0000
0000
0000
1010
0000
0000
0000
0000
0000
0000
0000
1100
0000
0000
0000
0000
0000
0000
0000
0000
0000
0000
0000
0000
0000
0000
0000
1001
1000
0000
0000
0001
0000
0000
0000
0100
0000
0000
0000
0000
0000
0000
0000
,  // measure 50
0010
1000
0100
0001
0100
1000
0010
0100
,  // measure 51
0001
0010
0110
1000
1100
1010
0010
0100
,  // measure 52
0001
0010
0110
1100
0011
0101
1001
0000
,  // measure 53
1000
0010
0100
0001
,  // measure 54
0010
0100
1000
0100
,  // measure 55
0010
0001
1000
0010
,  // measure 56
0100
0000
0001
0000
0010
0100
0010
0000
,  // measure 57
0001
0100
0010
1000
,  // measure 58
0001
0010
0100
1000
,  // measure 59
0100
0010
0001
1000
,  // measure 60
0010
0000
0100
0000
0001
0100
0001
0000
,  // measure 61
0010
0100
1000
0010
,  // measure 62
0100
0001
0010
0001
,  // measure 63
0100
0010
1000
0001
,  // measure 64
0010
0000
0100
0000
1000
0010
1000
0000
,  // measure 65
0010
0000
1000
0100
0000
0100
1000
0010
,  // measure 66
0110
0000
0100
0001
0000
0001
0010
0100
,  // measure 67
1100
0000
1000
0010
0000
0010
1000
0100
,  // measure 68
0010
0001
0100
0010
1000
0100
0010
0001
,  // measure 69
1000
0000
0010
0000
0100
0001
0010
0001
,  // measure 70
0100
0000
0010
0000
1000
0001
0010
0100
,  // measure 71
1000
0000
0100
0000
0010
0001
0100
0010
,  // measure 72
1000
1100
0011
0101
,  // measure 73
0001
0000
0100
0000
1000
0100
0010
0100
,  // measure 74
1000
0000
0001
0000
0100
0010
1000
0001
,  // measure 75
0010
0000
0001
0000
0100
0010
1000
0001
,  // measure 76
0010
0100
1000
0100
,  // measure 77
0010
0000
0001
0000
1000
0010
0100
0001
,  // measure 78
0100
0000
0010
0000
1000
0001
0010
0100
,  // measure 79
1000
0000
0100
0000
0010
0001
1000
0010
,  // measure 80
0100
0010
1000
0001
,  // measure 81
0010
0000
0001
0100
0010
1000
0001
0000
,  // measure 82
0010
0000
0100
0010
0001
0100
0010
0000
,  // measure 83
0010
1000
0001
0010
0100
1000
0010
0100
,  // measure 84
0001
0010
0100
1000
0010
0100
0001
0010
,  // measure 85
2002
0000
0000
0000
,  // measure 86
0000
0000
0000
0003
,  // measure 87
3001
0000
0100
0000
0010
1000
0010
1000
0000
0010
0100
0000
0101
0000
0001
0000
,  // measure 88
0011
0000
1000
0000
0100
0010
0001
0100
0000
0010
1000
0000
0011
0000
0001
0000
,  // measure 89
0101
0000
0100
0000
0010
0000
1000
0000
0001
0010
0100
1000
0010
0000
0100
0000
,  // measure 90
0101
0000
0001
0000
0011
0000
0001
0010
0100
1000
0100
0010
0000
0000
0100
0000
,  // measure 91
1001
0001
0100
0010
1000
0001
0010
0001
0100
0010
1000
0100
0001
0100
1000
0010
,  // measure 92
0100
0001
0010
1000
0010
0001
0100
0010
1000
0001
0010
0100
1000
0100
0010
0001
,  // measure 93
1001
0010
0100
0010
1000
0001
0010
0001
0100
0010
1000
0001
0010
0100
1000
0010
,  // measure 94
0101
0001
0010
1000
0010
0001
0100
1000
0100
0001
0010
0100
1000
0010
0100
0001
,  // measure 95
1000
0100
0010
0100
1000
0010
0100
0001
0010
0001
0100
0010
1000
0100
0010
0000
,  // measure 96
0010
0100
1000
0001
0100
0010
1000
0001
0010
0100
1000
0100
0010
0000
0000
0010
,  // measure 97
0001
0100
0010
1000
0001
0010
0001
0100
1000
0100
0001
0010
0100
1000
0010
0000
,  // measure 98
0010
0100
0001
0010
0001
0100
0010
1000
0001
0010
0100
1000
0200
0000
0000
0000
,  // measure 99
0310
0001
0100
0010
1000
0001
0010
0100
1000
0010
0100
0010
1000
0000
0010
0000
,  // measure 100
0100
0001
0010
0100
1000
0100
0010
0001
1000
0010
0100
0001
0010
0100
1000
0010
,  // measure 101
0000
0010
0100
0001
0010
0100
1000
0100
0010
0001
1000
0010
0100
0010
1000
0001
,  // measure 102
0010
0100
1000
0100
0010
0001
1000
0010
0100
0000
0010
0000
0100
0000
0010
0000
,  // measure 103
1000
0100
0010
0100
1000
0001
0100
0010
,  // measure 104
1000
0001
0010
0001
0010
0100
1000
0001
,  // measure 105
0010
0100
1000
0100
0010
0001
1000
0010
,  // measure 106
0100
0000
0010
0000
1000
0000
0001
0000
0010
0001
0010
0000
0001
0000
0100
0000
,  // measure 107
0010
1000
0001
0010
0100
1000
0100
0010
,  // measure 108
0001
0000
1000
0000
0010
0000
0100
0000
0001
0010
0001
0000
0100
0000
1000
0000
,  // measure 109
0010
0001
0010
0100
1000
0100
0010
0001
,  // measure 110
0010
0000
0100
0000
1000
0000
0001
0000
0010
0100
0010
0000
0001
0000
0100
0000
,  // measure 111
0010
0000
1000
0000
0001
0000
0010
0000
0100
0000
1000
0000
0100
0010
0100
0000
,  // measure 112
1000
0000
0010
0000
0100
0000
0001
0000
0010
0000
0001
0100
0001
0000
0100
0000
,  // measure 113
0010
0000
1000
0000
0100
0000
0010
0000
0100
0000
1000
0010
1000
0000
0100
0000
,  // measure 114
0010
0000
0001
0000
0010
0000
0100
0000
1000
0000
0010
1000
0010
0000
0100
0000
,  // measure 115
0001
0000
0010
0000
0001
0000
0100
0000
0010
0000
1000
0000
0100
0010
0100
0000
,  // measure 116
0010
0000
0001
0000
0010
0000
0100
0000
1000
0000
0100
0000
0001
0010
0001
0000
,  // measure 117
0100
0010
1000
0001
0010
0100
1000
0010
,  // measure 118
0100
0001
1000
0010
0100
0001
1000
0000
,  // measure 119
1001
0000
1000
1010
0000
0101
0000
1001
,  // measure 120
0000
0001
0100
0010
0000
0010
1000
0100
,  // measure 121
0010
0000
0001
0001
0000
0100
0010
1000
,  // measure 122
0000
1000
0001
0010
0000
0010
0001
0000
,  // measure 123
0011
0000
0001
0101
0000
1001
0000
1010
,  // measure 124
0000
1000
0100
0010
0000
0010
0100
0000
,  // measure 125
1000
0000
0010
0000
0000
0001
0100
0001
,  // measure 126
0010
0100
0000
1000
0000
0010
0000
0100
,  // measure 127
0001
0000
0010
0000
0010
0001
0000
0001
0100
0000
0010
0000
1000
0100
0000
0100
,  // measure 128
1000
0000
0010
0000
0100
0001
0000
0001
0010
0000
0011
0000
1100
0000
1010
0000
,  // measure 129
0101
0000
0001
0000
0010
0001
0000
0001
0100
0000
0010
0000
1000
0100
0000
0100
,  // measure 130
1000
0001
1000
0000
0010
0100
0010
0000
,  // measure 131
1000
0100
0010
0001
1000
0010
0100
0001
,  // measure 132
0010
0000
0001
0000
0100
0010
1000
0010
,  // measure 133
0100
0000
0001
0000
0010
0100
1000
0100
,  // measure 134
0010
0000
0001
0000
0100
0010
1000
0010
,  // measure 135
0100
0000
0010
1000
0000
0001
0010
0000
,  // measure 136
0001
0000
0100
0000
0010
1000
0001
0010
,  // measure 137
0001
0000
0100
0000
0010
1000
0100
0010
,  // measure 138
0100
0000
1000
0000
0001
0010
0100
1000
,  // measure 139
0010
0000
0100
0001
0000
1000
0010
0000
,  // measure 140
1000
0100
0010
0001
1000
0010
0100
0001
,  // measure 141
1000
0001
0010
0100
1000
0010
0100
0001
,  // measure 142
0010
0001
0100
0010
1000
0100
0010
0001
,  // measure 143
0100
0010
1000
0001
0000
0001
0010
0100
,  // measure 144
1000
0100
0010
0001
1000
0010
0100
0000
,  // measure 145
0010
0001
0100
0010
1000
0100
0010
0000
,  // measure 146
0011
0000
0000
1100
0000
0000
1001
0000
,  // measure 147
0001
0010
0100
1000
0010
0100
0001
1000
,  // measure 148
0010
0000
1000
0100
0001
0000
0100
0000
,  // measure 149
0010
0000
1000
0000
0001
0000
0010
0001
,  // measure 150
0100
0010
1000
0001
0010
0000
0001
0100
,  // measure 151
0010
0000
0010
1000
0100
0000
0100
1000
,  // measure 152
0001
0100
0010
1000
0001
0010
0001
0000
,  // measure 153
0110
0000
0110
0000
0000
0001
0010
0001
,  // measure 154
0100
0010
1000
0100
0010
0000
0010
0100
,  // measure 155
1000
0001
1000
0000
0001
0100
0001
0000
1000
0010
1000
0010
0100
0001
0100
0001
,  // measure 156
1000
0000
0100
0000
1000
0000
0010
0100
,  // measure 157
0001
0000
0010
0000
0001
0000
0100
0001
,  // measure 158
0010
0000
0100
0000
1000
0100
0000
0010
,  // measure 159
0001
0000
1000
0000
0010
0100
0010
1000
,  // measure 160
0001
0000
0010
0000
0001
0100
0010
0000
,  // measure 161
1000
0000
0001
0000
0010
0001
0100
0000
,  // measure 162
0010
0000
1000
0000
0001
0010
0001
0000
,  // measure 163
0100
0000
0010
1000
0001
0010
0100
1000
,  // measure 164
0010
0000
1000
0100
0010
0000
0100
0000
,  // measure 165
1000
0000
0001
0100
0010
0000
1000
0000
,  // measure 166
0001
0010
0001
0000
0100
0000
0010
0000
,  // measure 167
1000
0000
0001
0010
0001
0000
0100
0000
,  // measure 168
0010
1000
0001
0010
0001
0100
0010
0000
,  // measure 169
1000
0100
0010
0100
1000
0001
0100
0000
,  // measure 170
0010
1000
0001
0010
0001
0100
0010
1000
,  // measure 171
0001
0010
0100
1000
0010
0100
0001
0010
,  // measure 172
2002
0000
0000
0000
,  // measure 173
0000
0000
0000
0000
,  // measure 174
0000
0000
0000
0000
,  // measure 175
3003
0000
0000
0000
,  // measure 176
1000
0100
1000
0000
0100
0000
0010
0001
0010
0000
0001
0100
0000
0100
0001
0000
,  // measure 177
0010
0001
0010
0000
0100
0000
1000
0100
1000
0000
0010
0100
0000
0100
0010
0000
,  // measure 178
1000
0001
0010
0001
0100
0000
0010
1000
0001
0010
0001
0100
0000
0100
0001
0010
,  // measure 179
0100
0000
1000
0100
0010
0000
0001
0100
0010
1000
0001
0010
0001
0000
0001
0100
,  // measure 180
0010
1000
0001
0010
0100
1000
0100
0010
0001
1000
0001
0100
1000
0100
0001
0100
,  // measure 181
1000
0010
0100
0001
0010
0001
0100
0010
1000
0001
0010
0100
1000
0100
0010
0001
,  // measure 182
1000
0010
0100
0010
1000
0001
0010
0100
1000
0100
0010
0001
0100
1000
0100
0001
,  // measure 183
0010
0100
1000
0010
0100
0001
0010
0100
1000
0010
0100
0001
0010
0100
1000
0010
,  // measure 184
0100
0001
0010
0100
0000
0110
0000
0011
,  // measure 185
0000
0001
0100
0010
1000
0001
0010
0100
,  // measure 186
1000
0010
0100
0001
0000
0011
0000
1100
,  // measure 187
0000
1000
0010
0100
0001
0010
0001
0100
,  // measure 188
0010
1000
0100
0010
0000
0110
0000
1001
,  // measure 189
0000
0001
0010
0100
1000
0001
0010
0100
,  // measure 190
1000
0100
0010
0001
0000
0001
0100
0010
,  // measure 191
0000
0010
1000
0001
0010
0001
0100
0010
,  // measure 192
1000
0001
0010
0011
0000
1100
0000
1001
,  // measure 193
0000
0001
0100
0010
1000
0100
0010
0001
,  // measure 194
0100
0010
1000
1010
0000
0011
0000
0101
,  // measure 195
0000
0001
0100
0010
1000
0001
0010
0001
,  // measure 196
0010
0100
1000
1100
0000
0011
0000
0101
,  // measure 197
0000
0001
0010
0001
0100
0010
1000
0100
,  // measure 198
0010
0000
0100
1000
0001
0000
0100
0010
,  // measure 199
0000
1000
0001
0010
0001
1000
0010
0100
,  // measure 200
0001
0010
0001
0100
0010
0000
1000
0100
,  // measure 201
0010
0100
1000
0000
0001
0100
0010
1000
,  // measure 202
0001
0000
0010
0001
0100
0010
1000
0000
,  // measure 203
0100
0010
0100
1000
0001
0000
0100
0010
,  // measure 204
1000
0001
0010
0000
0001
0100
0010
1000
,  // measure 205
0001
0000
0010
0100
1000
0000
1010
0000
,  // measure 206
0101
0000
0011
0000
0010
0001
0100
0010
,  // measure 207
1000
0000
0010
1000
0001
0010
0100
0000
,  // measure 208
1000
0100
0001
0100
1000
0000
1000
0001
,  // measure 209
0010
0100
1000
0000
0010
0100
0001
0010
,  // measure 210
0100
0000
1000
0010
0100
0001
0010
0000
,  // measure 211
0010
0001
0100
0010
1000
0000
0010
0100
,  // measure 212
0001
1000
0100
0010
0001
1000
0010
0100
,  // measure 213
0001
0100
1000
0100
0001
0100
1000
0000
,  // measure 214
1100
0011
0101
1010
,  // measure 215
1000
0010
0001
0010
1000
0000
1100
0000
,  // measure 216
0011
0101
1010
1001
,  // measure 217
1000
0100
0010
0100
1000
0001
0100
0000
,  // measure 218
0110
0011
0101
1010
,  // measure 219
0100
1000
0010
0100
0001
0000
0011
0000
,  // measure 220
0202
0000
0000
0303
2001
0000
0000
0000
,  // measure 221
3001
0100
1000
0100
0001
0010
0100
0000
,  // measure 222
1010
0011
0101
1010
,  // measure 223
0010
0100
0001
0000
0011
0000
1100
0000
,  // measure 224
1010
0101
0011
1001
,  // measure 225
0010
1000
0100
1000
0010
0100
0001
0000
,  // measure 226
0110
0000
0010
1000
0100
0000
0101
0000
,  // measure 227
0010
0001
0100
0000
1000
0000
0100
0000
,  // measure 228
2200
0000
0000
0300
0002
0000
3000
0000
,  // measure 229
1003
0100
0010
0100
1000
0010
0100
0001
0010
0001
0100
0010
0000
0010
1000
0100
,  // measure 230
0010
0100
1000
0001
0100
0010
1000
0001
0010
0001
0100
0010
0000
1010
0000
0010
,  // measure 231
1000
0001
0010
0001
0100
0010
1000
0001
0010
0001
0100
0101
0000
0011
0000
0001
,  // measure 232
1000
0010
0100
0010
1000
0100
0010
0100
1000
0001
0100
0010
0000
1000
0000
0001
,  // measure 233
0010
0001
0100
0001
0010
0001
0100
0001
0010
0100
0010
0100
0010
0100
0010
0100
,  // measure 234
1000
0010
1000
0100
1000
0010
1000
0010
0100
0010
1000
0001
0010
0100
1000
0100
,  // measure 235
0010
0001
0100
0010
0100
0010
1000
0100
0001
0100
1000
0010
0100
0001
0010
0001
,  // measure 236
0100
0010
1000
0001
0010
0100
1000
0100
0010
0001
1000
0010
0100
0001
0010
0100
,  // measure 237
1000
0010
0100
0000
0001
0010
0100
0000
,  // measure 238
1000
0100
0010
0001
0000
0001
0011
0000
,  // measure 239
0010
1000
0100
0000
0010
0100
1000
0000
,  // measure 240
0001
0100
0010
1000
0100
1000
0010
1000
,  // measure 241
0100
0010
0001
0000
0100
0010
1000
0000
,  // measure 242
0001
0010
0001
0100
0000
0001
0101
0000
,  // measure 243
0010
1000
0100
0000
1000
0010
0100
0000
,  // measure 244
0001
0010
0001
0100
0010
1000
0001
0010
,  // measure 245
0001
0100
0010
0000
1000
0100
0010
0000
,  // measure 246
0100
1000
0001
0100
0000
0100
0110
0000
,  // measure 247
0010
1000
0100
0000
1000
0010
0100
0000
,  // measure 248
0010
0001
0100
0010
1000
0100
0010
0001
,  // measure 249
0010
0001
0100
0000
0010
1000
0100
0000
,  // measure 250
0010
0100
1000
0001
0000
1000
1010
0000
,  // measure 251
1001
0000
0010
0110
0000
1000
1100
0000
,  // measure 252
0010
0011
0000
0001
0100
0010
1000
0001
,  // measure 253
0010
0001
0100
1000
0100
0001
0010
0100
,  // measure 254
1000
0010
0001
0010
1000
0100
0010
0100
,  // measure 255
1000
0001
0100
0010
1000
0001
0010
0100
,  // measure 256
1000
0010
0001
0010
1000
0100
0001
0100
,  // measure 257
1000
0010
0100
0001
0010
0100
0010
0001
,  // measure 258
0100
0010
1000
0001
0010
0001
0100
0010
,  // measure 259
1000
0100
0010
0001
0100
0010
1000
0001
,  // measure 260
0010
0100
1000
0010
0100
0001
0010
0100
,  // measure 261
1000
0010
1000
0010
,  // measure 262
0100
0001
0100
0001
,  // measure 263
0010
0001
0100
0010
,  // measure 264
1000
0100
0000
1000
0001
0000
0100
0010
,  // measure 265
1000
0001
0010
0001
,  // measure 266
0100
0010
0100
0010
,  // measure 267
1000
0001
1000
0001
,  // measure 268
0010
0001
0000
0010
0001
0000
0010
0001
,  // measure 269
1000
0010
0100
0001
0010
0000
0010
0001
,  // measure 270
0100
0010
1000
0000
0010
0100
0001
0100
,  // measure 271
0010
0000
0001
1000
0010
0100
0001
0000
,  // measure 272
0001
0100
0010
1000
0001
0100
0010
1000
,  // measure 273
0100
1000
0010
0100
0001
0000
0010
0001
,  // measure 274
0100
0010
1000
0000
0010
0100
0001
0010
,  // measure 275
0100
0000
0010
0001
0100
0010
1000
0100
,  // measure 276
1000
0000
0010
0001
1000
0100
0010
0001
,  // measure 277
0021
0000
0000
0000
,  // measure 278
0031
0100
0010
1000
0100
0000
0010
0100
,  // measure 279
0001
1000
0000
0100
0010
0000
0110
0000
,  // measure 280
1000
0010
0100
0001
0000
0100
1000
0001
,  // measure 281
0100
0010
0000
0010
0100
0000
0101
0000
,  // measure 282
0001
0100
0010
1000
0000
1000
0010
0100
,  // measure 283
0001
0010
0000
0010
0001
0000
0101
0000
,  // measure 284
0100
0010
1000
0001
0000
0010
0100
1000
,  // measure 285
0001
0100
0000
0100
0010
0000
1001
0000
,  // measure 286
0001
0010
0001
0100
0010
0000
1000
0100
,  // measure 287
0010
0001
0010
0001
0101
0000
1010
0000
,  // measure 288
0010
1000
0001
0010
0100
0000
1000
0100
,  // measure 289
1000
0010
0100
0001
0101
0000
0011
0000
,  // measure 290
0010
0001
0100
0010
1000
0000
0100
0010
,  // measure 291
0100
1000
0001
0100
0110
0000
1001
0000
,  // measure 292
0010
1000
0001
0010
0100
0000
0100
0010
,  // measure 293
0001
1000
0010
0100
0110
0000
1001
0000
,  // measure 294
0010
1000
0100
0010
0100
1000
0001
0100
,  // measure 295
0010
1000
0000
1000
0010
0000
0110
0000
,  // measure 296
0001
0010
0001
0100
0010
1000
0001
0010
,  // measure 297
0001
0100
0000
0100
0101
0000
0110
0000
,  // measure 298
1000
0010
1000
0001
0010
0100
1000
0010
,  // measure 299
0100
0001
0000
1000
1100
0000
0110
0000
,  // measure 300
0100
1000
0001
0100
0010
1000
0001
0010
,  // measure 301
0001
0100
0000
0100
0101
0000
1100
0000
,  // measure 302
0100
1000
0100
0010
0001
1000
0010
0100
,  // measure 303
0001
0010
0000
0010
0011
0000
0101
0000
,  // measure 304
0001
0100
0010
1000
0001
0010
0001
0100
,  // measure 305
0010
1000
0000
1000
1010
0000
1001
0000
,  // measure 306
0001
0010
0100
1000
0001
0000
0100
0010
,  // measure 307
0000
0010
0100
0000
0001
0000
0010
0001
,  // measure 308
0100
0010
1000
0001
0010
0001
0100
0010
,  // measure 309
1000
0001
0010
0100
1000
0100
0010
0001
,  // measure 310
1000
0010
0100
0001
0010
0100
1000
0010
,  // measure 311
0100
0010
1000
0100
0010
0001
1000
0010
,  // measure 312
0110
0011
0101
1010
,  // measure 313
1000
0100
1000
0010
0100
0001
0010
0100
,  // measure 314
0010
0000
0001
0000
0100
0000
0010
1000
0010
0000
0100
0000
0001
0000
0010
0000
,  // measure 315
0100
1000
0100
0010
0001
0100
0010
1000
,  // measure 316
0001
0000
0010
0000
0001
0000
0010
0100
1000
0100
0010
0000
0001
0000
0100
0000
,  // measure 317
0010
1000
0001
0010
0100
1000
0010
0100
,  // measure 318
0001
0000
0010
0000
0001
0000
0100
0010
1000
0000
0010
0000
0100
0000
0000
0000
,  // measure 319
0010
0000
0001
0000
0100
0000
0010
1000
0100
0000
1000
0000
0100
0000
0010
0000
,  // measure 320
0001
0000
1000
0010
0100
0010
1000
0000
0001
0000
0010
0000
0001
0000
0100
0000
,  // measure 321
1000
0100
1000
0010
0100
0001
0010
0100
,  // measure 322
0010
0000
0001
0000
0100
0000
0010
1000
0010
0000
0100
0000
0001
0000
0010
0000
,  // measure 323
0100
1000
0100
0010
0001
0100
0010
1000
,  // measure 324
0001
0000
0010
0000
0001
0000
0010
0100
1000
0100
0010
0000
0001
0000
0100
0000
,  // measure 325
0010
1000
0001
0010
0100
1000
0010
0100
,  // measure 326
0001
0000
0010
0000
0001
0000
0100
0010
1000
0000
0010
0000
0100
0000
0000
0000
,  // measure 327
0010
0000
0001
0000
0100
0000
0010
1000
0100
0000
1000
0000
0100
0000
0010
0000
,  // measure 328
0001
0000
1000
0010
0100
0010
1000
0000
0001
0000
0010
0000
0001
0000
0100
0000
,  // measure 329
0001
0100
0010
1000
,  // measure 330
0100
1000
0010
0100
0001
0000
0010
0000
,  // measure 331
0100
1000
0010
0100
0001
0000
0010
0000
,  // measure 332
1000
0000
0010
0000
0100
0001
0010
0100
,  // measure 333
1000
0000
0010
0000
0100
0001
0010
0100
,  // measure 334
1000
0000
0010
0000
0100
0001
1000
0010
,  // measure 335
0110
0100
0101
0001
,  // measure 336
0011
0010
1010
1000
,  // measure 337
1100
0000
1000
0000
0010
0100
0001
0100
,  // measure 338
0010
0000
1000
0000
0001
0010
0001
0000
,  // measure 339
0100
0000
0010
0000
1000
0001
0010
0000
,  // measure 340
0100
0000
1000
0000
0100
0010
0001
1000
,  // measure 341
0010
0000
1000
0000
0100
0000
0010
0100
,  // measure 342
1000
0001
0100
0000
0010
1000
0001
0000
,  // measure 343
0010
0001
0100
0010
1000
0000
0001
0000
,  // measure 344
0010
0100
1000
0000
2010
0000
0001
0000
,  // measure 345
3001
0000
0100
0000
0010
0000
1000
0100
,  // measure 346
0010
0100
1000
0000
0001
0000
0100
0000
,  // measure 347
0010
1000
0001
0010
0100
0000
1000
0000
,  // measure 348
0100
0000
0010
0000
0001
1000
0100
0000
,  // measure 349
1100
0000
0000
0000
0011
0000
0000
0000
0101
0000
0000
0000
,  // measure 350
1010
0000
0000
0000
1001
0000
0000
0000
0110
0000
0000
0000
,  // measure 351
1000
0100
0010
0001
,  // measure 352
0100
0010
1000
0000
0001
0010
0100
1000
,  // measure 353
0010
0000
1000
0000
0100
0010
0100
1000
,  // measure 354
0001
0000
0100
0000
0010
1000
0001
0000
,  // measure 355
0010
0000
0100
0000
1000
0100
0010
0001
,  // measure 356
1000
0010
0000
0100
0001
0000
0010
0100
,  // measure 357
1100
0000
0101
0000
1010
0000
0010
0100
,  // measure 358
0001
0010
0100
1000
0100
0000
0010
0001
,  // measure 359
0100
0000
0010
0000
1000
0000
0001
0000
0100
0000
0010
0000
,  // measure 360
2002
0000
0000
3003
,  // measure 361
1000
0100
0001
0100
1000
0010
0001
0000
,  // measure 362
0101
1010
1100
0011
,  // measure 363
0001
0100
0010
0000
1000
0000
0100
0000
,  // measure 364
1100
0011
0101
1010
,  // measure 365
0010
1000
0100
0001
0100
1000
0010
0000
,  // measure 366
0110
1001
0011
1100
,  // measure 367
0001
0100
0010
1000
0001
0010
0100
0000
,  // measure 368
0002
2000
0000
0000
3000
0000
2000
0000
0000
3000
0000
0000
,  // measure 369
1003
0100
0010
0001
0100
0010
1000
0100
,  // measure 370
0010
0000
0100
0000
1000
0000
0001
0100
0001
0000
0010
0000
0001
0000
0010
0000
,  // measure 371
0001
0000
0100
0000
0010
0000
1000
0000
0100
0000
0010
0100
1000
0000
0001
0000
,  // measure 372
1000
0000
0010
0000
0100
0000
0001
0000
0010
0000
0100
1000
0100
0000
0010
0000
,  // measure 373
0100
0001
0100
0010
1000
0100
0010
0100
,  // measure 374
1000
0000
0001
0000
0100
0000
0010
1000
0010
0000
1000
0000
0001
0000
0010
0000
,  // measure 375
0100
0000
1000
0010
1000
0000
0010
0000
0100
0000
0001
0100
0001
0000
0010
0000
,  // measure 376
0001
0010
0100
1000
0010
0100
0001
0010
,  // measure 377
0001
0100
0010
1000
0100
0010
0100
1000
,  // measure 378
0001
0000
0100
0000
0010
0000
1000
0100
1000
0000
0010
0000
0100
0000
0001
0000
,  // measure 379
0010
0000
0100
0000
0010
0000
0001
0100
0001
0000
0100
0000
0010
0000
1000
0000
,  // measure 380
0100
0000
0010
0001
0010
0000
0100
0000
1000
0000
0001
0000
0100
0000
0010
0000
,  // measure 381
1000
0000
0001
0100
0001
0000
0010
0000
0100
1000
0100
0000
1000
0000
0010
0000
,  // measure 382
1000
0000
0001
0000
0010
0000
0100
0001
0100
0000
1000
0000
0010
0000
1000
0000
,  // measure 383
0100
0000
0001
0000
0010
0000
0100
1000
0100
0000
1000
0000
0010
0000
0100
0000
,  // measure 384
0001
0000
0010
0001
0010
0000
0001
0000
1000
0100
1000
0000
0001
0000
0000
0000
,  // measure 385
0010
1000
0100
0010
,  // measure 386
0001
0010
0001
0000
0100
0000
0010
0000
,  // measure 387
1000
0100
1000
0000
0001
0000
0010
0001
,  // measure 388
0100
1000
0010
0100
,  // measure 389
0001
0010
0100
0010
0001
0000
1000
0100
,  // measure 390
0010
0100
1000
0000
0001
0100
0010
1000
,  // measure 391
1010
0000
0000
0000
0101
0000
0000
0000
0011
0000
0000
0000
,  // measure 392
1001
0000
0000
0000
1010
0000
0000
0000
1100
0000
0000
0000
,  // measure 393
1000
0000
0010
0000
0100
0000
0001
0000
0010
0000
0001
0000
,  // measure 394
1000
0000
0100
0000
1000
0000
0001
0000
0010
0000
0001
0000
,  // measure 395
0100
0000
0010
0000
0100
0000
0001
0000
1000
0000
0001
0000
,  // measure 396
1000
0000
0100
0000
0010
0000
0001
0000
0100
0000
0010
0000
,  // measure 397
1000
0010
0100
0001
0010
0001
0100
0010
,  // measure 398
1000
0100
0010
0100
1000
0010
0100
0001
,  // measure 399
0010
0001
1000
0100
1000
0001
0010
0001
,  // measure 400
2000
0000
0000
0000
,  // measure 401
3001
0000
0000
0000
,  // measure 402
1000
0001
1000
0001
,  // measure 403
1000
0001
1000
0001
,  // measure 404
1000
0001
1000
0001
,  // measure 405
1000
0001
1000
0001
,  // measure 406
1000
0010
0100
0001
,  // measure 407
1000
0010
0100
0001
,  // measure 408
1000
0100
0010
0001
,  // measure 409
1000
0100
0010
0001
,  // measure 410
2002
0000
0000
0000
,  // measure 411
0000
0000
0000
0000
,  // measure 412
3003
0000
0000
0000
;
