#TITLE:Summertime;
#SUBTITLE:;
#ARTIST:DJ Jazzy Jeff & The Fresh Prince;
#TITLETRANSLIT:;
#SUBTITLETRANSLIT:;
#ARTISTTRANSLIT:;
#CREDIT:;
#BANNER:;
#BACKGROUND:;
#LYRICSPATH:;
#CDTITLE:;
#MUSIC:Summertime.mp3;
#OFFSET:-0.100;
#SAMPLESTART:50.510;
#SAMPLELENGTH:12.000;
#SELECTABLE:YES;
#BPMS:0.000=95.000;
#STOPS:;
#BGCHANGES:0.000=Movie.avi=1.000=1=0=0,
99999=-nosongbg-=1.000=0=0=0 // don't automatically add -songbackground-
;

//---------------dance-single - ----------------
#NOTES:
     dance-single:
     :
     Beginner:
     1:
     0.071,0.094,0.000,0.116,0.000:
0000
0000
0000
0000
,
0000
0000
0000
0000
,
0000
0000
0000
0000
,
0000
0000
0000
0000
,
1000
0000
0000
0000
,
0010
0000
0000
0000
,
0100
0000
0000
0000
,
0001
0000
0000
0000
,
0010
0000
0000
0000
,
0010
0000
0000
0000
,
1000
0000
0000
0000
,
1000
0000
0000
0000
,
0100
0000
0000
0000
,
0100
0000
0000
0000
,
0001
0000
0000
0000
,
0001
0000
0000
0000
,
2000
0000
3000
0000
,
0200
0000
0300
0000
,
0020
0000
0030
0000
,
0002
0000
0003
0000
,
1000
0000
0000
0000
,
0001
0000
0000
0000
,
0100
0000
0000
0000
,
0010
0000
0000
0000
,
0010
0000
0000
0000
,
0100
0000
0000
0000
,
0001
0000
0000
0000
,
1000
0000
0000
0000
,
1000
0000
0000
0000
,
0001
0000
0000
0000
,
0100
0000
0000
0000
,
0010
0000
0000
0000
,
1000
0000
0000
0000
,
0100
0000
0000
0000
,
0010
0000
0000
0000
,
0001
0000
0000
0000
,
2000
0000
3000
0000
,
0020
0000
0030
0000
,
0200
0000
0300
0000
,
0002
0000
0003
0000
,
0020
0000
0000
0030
,
0200
0000
0000
0300
,
2000
0000
0000
3000
,
0002
0000
0003
0000
,
1000
0000
0001
0000
,
2000
0000
3000
0000
,
0010
0000
0100
0000
,
0020
0000
0030
0000
,
1000
0000
0100
0000
,
0020
0000
0030
0000
,
0100
0000
0010
0000
,
0002
0000
0000
0003
;

//---------------dance-single - ----------------
#NOTES:
     dance-single:
     :
     Easy:
     3:
     0.127,0.154,0.000,0.094,0.000:
0000
0000
0000
0000
,
0000
0000
0000
0000
,
0000
0000
0000
0000
,
0000
0000
0000
0000
,
0010
0000
1000
0000
,
0010
0000
0100
0000
,
0001
0000
0010
0000
,
1000
0000
0100
0000
,
1000
0000
0001
0000
,
1000
0000
0001
0000
,
0100
0000
0010
0000
,
0100
0000
0010
0000
,
1000
0000
0100
0000
,
0010
0000
0001
0000
,
1000
0000
0100
0000
,
0001
0000
0010
0000
,
0002
0000
0000
0003
,
0002
0000
0000
0003
,
2000
0000
0000
3000
,
2000
0000
0000
3000
,
0010
1000
0010
1000
,
0010
0000
0100
0000
,
0001
0100
0001
0100
,
0010
0000
1000
0000
,
0100
0001
0010
1000
,
0100
1000
0010
0000
,
0010
1000
0100
0001
,
0010
0001
0100
0000
,
1000
0000
0100
0000
,
0010
0100
1000
0000
,
0001
0000
0100
0000
,
0010
0100
0001
0000
,
1000
0000
0001
0000
,
0010
0100
0010
0000
,
0100
0000
0010
0000
,
0001
1000
0001
0000
,
0200
0000
0000
0300
,
0200
0000
0000
0300
,
0020
0000
0000
0030
,
0020
0000
0000
0030
,
2000
0000
0000
3000
,
0002
0000
0000
0003
,
0200
0000
0000
0300
,
0020
0000
0000
0030
,
0001
0100
0001
0100
,
0001
0000
0010
0000
,
1000
0010
1000
0010
,
0001
0000
0100
0000
,
0010
1000
0001
0100
,
0010
0100
0001
0000
,
0001
0100
0010
1000
,
0001
1000
0010
0000
,
0200
0000
0000
0000
,
0300
0000
0000
0000
;

//---------------dance-single - ----------------
#NOTES:
     dance-single:
     :
     Medium:
     6:
     0.252,0.246,0.015,0.065,0.000:
0000
0000
0000
0000
,
0000
0000
0000
0000
,
0000
0000
0000
0000
,
0000
0000
0000
0000
,
1000
0000
0010
0000
0100
0000
0001
0100
,
0001
0000
0010
0000
0100
0000
1000
0100
,
1000
0000
0010
0000
0100
0000
0001
0010
,
0100
0000
1000
0000
0010
0000
0100
0001
,
1000
0000
0001
0000
0010
0000
0100
1000
,
0001
0000
0100
0000
0010
0000
1000
0100
,
0010
0000
0001
0000
0100
0000
0001
1000
,
0010
0000
0100
0000
0001
0000
0010
0100
,
1000
0000
0010
0000
0100
0000
0001
0100
,
1000
0000
0100
0000
0001
0000
0010
1000
,
0100
0000
1000
0000
0010
0000
0100
0001
,
1000
0100
0010
0001
,
2000
0010
0010
0010
,
3020
0100
0100
0100
,
0230
0001
0001
0001
,
0302
1000
1000
1000
,
1003
0000
0010
0000
0100
0001
1000
0000
,
0100
0000
0010
0000
0001
0100
1000
0000
,
0010
0000
1000
0000
0001
1000
0010
0000
,
0100
0000
0001
0000
0010
0100
1000
0000
,
0010
0000
0001
0000
1000
0100
1000
0000
,
0010
0000
0100
0000
0001
0010
0001
0000
,
1000
0000
0010
0000
0001
0100
0010
0000
,
1000
0000
0100
0000
0001
0010
1000
0000
,
1001
0000
1000
0000
0001
0000
0010
0100
,
1000
0000
0010
0000
0001
0000
0100
0010
,
0001
0000
1000
0000
0010
0000
1000
0100
,
0001
0000
0010
0000
1000
0000
0001
0010
,
0100
0000
0001
0000
0010
0000
1000
0010
,
0100
0000
0010
0000
1000
0000
0001
0100
,
0010
0000
0100
0000
0001
0000
0010
1000
,
0100
0010
0001
1000
,
0200
0001
0001
0001
,
0302
0010
0010
0010
,
0023
1000
1000
1000
,
2030
0100
0100
0100
,
3100
0000
1000
0000
0010
0100
0001
0100
,
0010
0000
1000
0000
0100
0010
0100
1000
,
0010
0000
0100
0000
0001
0010
1000
0100
,
1000
0001
0200
0000
,
0301
0000
0100
0000
1000
0010
0001
0000
,
1000
0000
0100
0000
0010
1000
0001
0000
,
0100
0000
0001
0000
0010
0001
0100
0000
,
1000
0000
0010
0000
0100
1000
0001
0000
,
0100
0000
0010
0000
0001
1000
0001
0000
,
0100
0000
1000
0000
0010
0100
0010
0000
,
0001
0000
0100
0000
0010
1000
0100
0000
,
0001
0000
1000
0000
0010
0100
0001
0000
,
0011
0000
0000
0000
;

//---------------dance-single - ----------------
#NOTES:
     dance-single:
     :
     Hard:
     8:
     0.293,0.270,0.065,0.080,0.185: // measure 1
0000
0000
0000
0000
,  // measure 2
0000
0000
0000
0000
,  // measure 3
0000
0000
0000
0000
,  // measure 4
0000
0000
0000
0000
,  // measure 5
1000
0000
0000
0000
0001
0000
0000
1000
0000
0001
0000
0010
0000
0001
0000
1000
,  // measure 6
0000
0000
0001
0000
1000
0100
1000
0000
,  // measure 7
0010
0000
0000
0000
0100
0000
0000
0001
0000
1000
0000
0100
0000
1000
0000
0001
,  // measure 8
0000
0000
0100
0000
0010
1000
0001
0000
,  // measure 9
0010
0000
1000
0000
0001
0010
0100
1000
,  // measure 10
0001
0000
0100
0000
0010
1000
0010
0100
,  // measure 11
0001
0000
0010
0000
0100
1000
0001
0100
,  // measure 12
0010
0000
1000
0000
0010
0100
0001
1000
,  // measure 13
0100
0000
0010
0000
0001
1000
0010
0100
,  // measure 14
0001
0000
0010
0000
0001
1000
0010
0100
,  // measure 15
0001
0000
0010
0000
0100
1000
0100
0010
,  // measure 16
0001
0000
0100
0000
0010
1000
0001
0000
,  // measure 17
2000
0000
0100
0000
0100
3000
1100
0000
,  // measure 18
0020
0000
0001
0000
0001
0030
0011
0000
,  // measure 19
0002
0000
0100
0000
0100
0003
0101
0000
,  // measure 20
0020
0000
1000
0000
1000
0030
1010
0000
,  // measure 21
1000
0000
0000
0000
0001
0000
0000
0100
0000
1000
0000
0100
0000
0001
0000
0010
,  // measure 22
0000
0010
0001
0000
1000
0100
0010
0000
,  // measure 23
0001
0000
0000
0000
1000
0000
0000
0010
0000
0100
0000
0001
0000
1000
0000
0100
,  // measure 24
0000
1000
0010
0000
0100
0000
0001
0000
,  // measure 25
1000
0000
0000
0000
0100
0000
0000
0010
0000
0001
0000
0100
0000
0010
0000
1000
,  // measure 26
0000
0001
0010
0000
0001
0100
0010
0000
,  // measure 27
1000
0000
0000
0000
0010
0000
0000
0100
0000
0001
0000
1000
0000
0010
0000
0100
,  // measure 28
0000
0001
0100
0000
1000
0100
0001
0100
,  // measure 29
1000
0000
0001
0000
0010
0100
1000
0001
,  // measure 30
0010
0000
1000
0000
0100
0001
0100
1000
,  // measure 31
0010
0000
0100
0000
1000
0001
0010
1000
,  // measure 32
0100
0000
0001
0000
0100
1000
0010
0001
,  // measure 33
1000
0000
0100
0000
0010
0001
0100
1000
,  // measure 34
0010
0000
0100
0000
0010
0001
0100
1000
,  // measure 35
0010
0000
0100
0000
1000
0001
1000
0100
,  // measure 36
0010
0000
1000
0000
0100
0001
0010
0000
,  // measure 37
0002
0000
1000
0000
1000
0003
1001
0000
,  // measure 38
0200
0000
0010
0000
0010
0300
0110
0000
,  // measure 39
0020
0000
1000
0000
1000
0030
1010
0000
,  // measure 40
0200
0000
0001
0000
0001
0300
0101
0000
,  // measure 41
1000
0001
0100
0010
,  // measure 42
1000
0000
0010
0000
0100
0001
1000
0010
,  // measure 43
0100
0010
1000
0001
,  // measure 44
0100
0000
0000
0000
0010
0000
0000
0220
0000
0000
0000
0000
0000
0330
0000
0000
,  // measure 45
0100
0000
0000
0000
1000
0000
0000
0010
0000
0100
0000
0010
0000
1000
0000
0001
,  // measure 46
0000
0001
1000
0000
0100
0010
0001
0000
,  // measure 47
1000
0000
0000
0000
0100
0000
0000
0001
0000
0010
0000
1000
0000
0100
0000
0010
,  // measure 48
0000
0100
0001
0000
0010
0000
1000
0000
,  // measure 49
0100
0000
0000
0000
0010
0000
0000
0001
0000
1000
0000
0010
0000
0001
0000
0100
,  // measure 50
0000
1000
0001
0000
1000
0010
0001
0000
,  // measure 51
0100
0000
0000
0000
0001
0000
0000
0010
0000
1000
0000
0100
0000
0001
0000
0010
,  // measure 52
0000
1000
0010
0000
0100
0010
1000
0001
,  // measure 53
0020
0000
0000
0000
,  // measure 54
0030
0000
0000
0000
;
