#TITLE:Sout En;
#SUBTITLE:(sta's Key-Kai mix);
#ARTIST:Meine Meinung;
#TITLETRANSLIT:;
#SUBTITLETRANSLIT:;
#ARTISTTRANSLIT:;
#GENRE:;
#CREDIT:;
#BANNER:banner.PNG;
#BACKGROUND:background.png;
#LYRICSPATH:;
#CDTITLE:;
#MUSIC:Sout En (sta's Key-Kai mix).mp3;
#OFFSET:-9.271;
#SAMPLESTART:10.420;
#SAMPLELENGTH:12.000;
#SELECTABLE:YES;
#BPMS:0.000=182.000
,236.000=91.000
,260.000=125.000
,262.000=182.000
,264.000=125.000
,266.000=182.000
,268.000=125.000
,270.000=182.000
,272.000=125.000
,274.000=182.000
,340.000=161.000
,340.250=140.000
,340.500=119.000
,340.750=98.000
,341.000=91.000
;
#STOPS:260.750=0.040,
264.750=0.020,
268.750=0.040,
274.000=0.020
;
#BGCHANGES:;
#KEYSOUNDS:;
#ATTACKS:;

//---------------dance-single - Blank----------------
#NOTES:
     dance-single:
     :
     Challenge:
     12:
     0.814,1.000,0.559,0.219,0.725,608.000,69.000,27.000,155.000,1.000,4.000,0.814,1.000,0.559,0.219,0.725,608.000,69.000,27.000,155.000,1.000,4.000: // measure 0
4004
0000
0000
0MM0
0000
0000
3003
0000
,  // measure 1
1100
0000
1000
1010
0000
0101
0000
0001
,  // measure 2
0010
0100
1000
0100
0000
0100
0010
0001
,  // measure 3
0100
1000
0100
0000
0010
1000
0000
0001
,  // measure 4
0000
0010
0100
1000
0100
0010
0001
1000
,  // measure 5
0010
0000
0100
0001
0100
0010
1000
0000
0000
0000
0001
0000
0010
0000
0100
0000
,  // measure 6
1000
0010
0100
0001
0000
0010
0100
1000
,  // measure 7
0010
0100
0001
1000
0010
0100
0001
1000
0100
0010
0001
1000
0040
0000
0M0M
0000
,  // measure 8
1030
0000
0000
0001
0100
0001
0010
0000
0000
0100
0000
0000
1000
0000
0000
0001
0000
0000
0010
0000
0000
M100
0000
0000
,  // measure 9
0001
0100
1000
0010
0000
0100
0001
M1M0
,  // measure 10
0000
0010
1000
0001
0000
0010
0100
10MM
,  // measure 11
0100
0010
0001
1000
0000
0000
0010
M100
,  // measure 12
0001
0100
0010
1000
0000
0001
0010
010M
,  // measure 13
1000
0000
0100
1000
0000
1000
0001
M1M0
,  // measure 14
0000
0010
0100
0000
0001
0010
0000
01MM
,  // measure 15
1000
0000
0000
0000
0000
0000
0000
0000
0000
0000
0000
0000
0010
0000
0000
0100
0000
0000
0001
0000
0000
0000
0000
0000
0000
0000
0000
0000
0000
0000
0001
0000
0000
0000
0100
0000
0010
0000
0000
0000
0000
0000
1000
0000
0000
0000
0000
0000
,  // measure 16
0001
0000
0010
0000
0100
0000
1000
0001
0100
0000
0010
0000
1000
0000
0M01
0000
,  // measure 17
0011
0000
0000
1100
0000
0000
2MM2
0000
,  // measure 18
3003
0000
0101
0000
0000
1010
0000
0000
,  // measure 19
M22M
0000
0330
0000
1010
0000
0000
1100
,  // measure 20
0000
M2M2
0303
0011
,  // measure 21
0000
1100
0000
0000
2M2M
0000
3030
0000
,  // measure 22
0110
0000
0000
0101
0000
0000
22MM
0000
,  // measure 23
3300
0000
0010
1001
0000
2MM2
0000
0000
,  // measure 24
3013
0000
1000
0100
11MM
0000
1000
0010
,  // measure 25
0100
0001
0100
0010
1000
0001
0010
0100
,  // measure 26
1000
0010
0100
0000
0001
0000
1000
0010
0100
0000
0001
0000
1000
0100
0010
0000
,  // measure 27
0001
0010
0100
0000
0001
0000
0100
0010
0001
0000
0100
0000
1000
0100
0001
0000
,  // measure 28
0010
0000
0100
1000
0000
1000
0001
0000
,  // measure 29
1000
0000
0000
0010
0000
0000
0100
0000
0000
0001
0000
0000
1000
0001
1000
0001
1000
0001
1000
0000
0010
0000
0100
0000
,  // measure 30
0001
0010
0100
1000
0000
1000
0010
0000
,  // measure 31
0100
0000
0001
0000
0100
0000
0001
0000
0000
0010
0000
0000
0100
0000
1000
0000
0100
0000
1000
0000
0000
0010
0000
0000
,  // measure 32
M200
0000
00M0
0000
000M
0000
M000
0000
00M0
0301
0000
0000
M010
0000
0M00
0001
00M0
0000
M001
0000
0000
0100
0000
0000
,  // measure 33
0010
0000
0010
0000
1000
0000
0100
00MM
0100
0000
1000
0000
0001
0000
0001
0000
,  // measure 34
0100
0010
1000
0001
0010
0100
1000
0010
,  // measure 35
0100
0001
0000
0001
0100
0010
0000
0010
1M00
0001
0000
0001
01M0
1000
0000
1000
,  // measure 36
010M
0010
1000
0000
0001
0010
M100
0000
0001
0100
10M0
0000
0001
0100
0010
0000
,  // measure 37
1000
0001
0010
0000
0100
1000
001M
0000
0100
0001
10M0
0000
0100
0010
0001
1000
,  // measure 38
0010
0100
0001
0000
1000
0100
0010
0000
M001
0010
0100
0000
10M0
0001
0100
0000
,  // measure 39
0010
1000
010M
0000
01M0
1000
0001
0000
0100
0010
1000
0000
0001
0010
0100
1000
,  // measure 40
001M
1000
0100
1000
0010
0100
M001
0100
0010
1000
0M01
1000
0010
0100
0001
10M0
,  // measure 41
0100
1000
001M
1000
0100
1000
00M1
1000
0100
100M
0010
0100
M001
0010
0100
100M
,  // measure 42
0010
0100
M001
0010
0100
100M
0100
0010
M001
0100
0010
100M
0100
0010
0100
1000
,  // measure 43
0001
0100
0010
1000
0001
0010
M100
0001
0100
M000
0010
0000
1M00
0001
00M0
0000
,  // measure 44
2MMM
0000
0000
0000
0000
0000
0000
0000
0000
0010
0000
0000
3010
0000
0000
0000
0000
0000
0100
0001
0100
0001
0100
0001
,  // measure 45
0100
0010
1000
0001
0010
0000
0100
0010
0001
1000
0010
0000
0100
0001
1000
0100
,  // measure 46
0010
0000
0100
1000
0001
0100
0010
0000
1000
0100
0010
0001
1000
0000
0010
0100
,  // measure 47
0001
0100
0010
0000
1000
0000
1001
0000
1001
0000
1000
0000
0010
0100
0000
0001
,  // measure 48
1000
0100
1000
0000
0010
0000
0100
0000
1000
0000
0100
0000
0001
0000
0010
0000
,  // measure 49
0100
1000
0100
0010
0001
1000
0010
0100
,  // measure 50
0001
0100
0010
1000
0000
0001
0010
0000
,  // measure 51
0100
1000
0001
0100
0010
1000
0001
0010
,  // measure 52
0100
1000
0100
0000
0010
0000
0001
0100
0001
0000
0010
0000
0100
1000
0100
0000
,  // measure 53
0010
0000
0001
0000
01M0
0000
100M
0000
0100
0000
0001
0010
0100
0000
1000
0001
,  // measure 54
0100
0110
0110
1010
1100
0011
0101
1001
,  // measure 55
1000
0000
0000
0010
0000
0000
0100
0000
0000
0001
0000
0000
1000
0000
0000
0100
0000
0000
0010
0000
0000
0001
0000
0000
0100
0000
0000
0010
0000
0000
1000
0000
0000
0001
0000
0000
0010
0000
0000
0100
0000
0000
1000
0000
0001
0000
1000
0000
,  // measure 56
000M
000M
000M
000M
000M
000M
000M
000M
0000
0M00
0M00
0M00
00M0
00M0
00M0
00M0
M000
M000
M000
M000
M000
0M00
0M00
0M00
,  // measure 57
0M00
M000
M000
M000
M000
M000
M000
M000
M000
M000
M000
M000
M000
0000
0000
0000
0000
0000
0000
0000
0000
0000
0000
0000
,  // measure 58
0000
0000
0000
0000
,  // measure 59
0002
0000
0000
0000
0000
0000
0203
0000
0320
0000
0000
2030
0000
0000
3200
0000
,  // measure 60
2300
0000
3000
0000
,  // measure 61
1000
0000
0000
0000
0000
0000
0000
0000
0000
0000
0000
0000
0001
0000
0000
0000
0100
0000
0000
0000
0000
0000
0010
0000
0000
0000
0000
0010
1000
0000
0100
0000
,  // measure 62
0001
0000
0000
0000
,  // measure 63
2000
0000
0000
0000
0MMM
0000
0000
0000
0000
0000
0000
0000
30M2
0000
0000
0000
0203
0000
0000
0000
M000
0000
0310
0000
000M
0000
0000
0010
1000
0000
0100
0000
,  // measure 64
0002
M0M0
0M00
M0M0
0203
M0M0
000M
00M0
,  // measure 65
1300
0000
0000
0000
0000
0000
0000
0000
1000
0000
0000
0000
0001
0000
0000
0000
0000
0000
0000
0000
0001
0000
0000
0000
0100
0000
0000
0000
0000
0000
0010
0000
0000
0000
0000
0000
1000
0000
0000
0100
0000
0000
0010
0000
0000
0100
0000
0000
,  // measure 66
1000
0000
0000
0000
0000
0000
0000
0000
1000
0000
0000
0000
0010
0000
0000
0000
0000
0000
0000
0000
0010
0000
0000
0000
0100
0000
0000
0000
0000
0000
0001
0000
0000
0000
0000
0000
0100
0000
0000
0010
0000
0000
1000
0000
0000
0001
0000
0000
,  // measure 67
0010
0000
0000
0000
0000
0000
0000
0000
0010
0000
0000
0000
0100
0000
0000
0000
0000
0000
0000
0000
0100
0000
0000
0000
1000
0000
0000
0000
0000
0000
0001
0000
0000
0000
0000
0000
0100
0000
0000
0010
0000
0000
1000
0000
0000
0001
0000
0000
,  // measure 68
0010
0000
0000
0000
0000
0000
0000
0100
0000
0000
0000
0000
0000
0000
0000
0000
0120
0000
0000
0000
0000
0000
0000
0000
0000
0000
0000
0000
0000
0000
0000
0000
1030
0000
0000
0000
0000
0000
0000
0000
0000
0000
0000
0000
0000
0000
0000
0000
0000
0000
0000
0000
0000
0000
0000
0000
0000
0000
0000
0000
0000
0000
0000
0000
,  // measure 69
11MM
0000
0000
1M1M
0000
0000
M1M1
0000
,  // measure 70
0000
1MM1
0000
1M1M
0000
0000
11MM
0000
,  // measure 71
M1M1
0000
0000
M1M1
0000
0000
11MM
0000
,  // measure 72
0000
0000
1M1M
0000
0000
0000
0001
0000
0100
0000
0010
1000
0M01
1000
0010
0000
,  // measure 73
M11M
0000
0000
1M1M
0000
0000
11MM
0000
,  // measure 74
0000
M1M1
0000
11MM
0000
0000
1M1M
0000
,  // measure 75
0101
0000
0000
1001
0000
0000
1100
0000
1000
0000
0010
0000
0100
0000
0001
0100
,  // measure 76
0010
0000
1000
0000
0100
0000
0001
0000
0100
0000
1000
0010
0100
0000
0001
0000
,  // measure 77
1MM1
0000
0000
11MM
0000
0000
1M1M
0000
,  // measure 78
0000
M1M1
0000
1MM1
0000
1000
11MM
1000
,  // measure 79
1M1M
0000
0000
1M1M
0000
0000
M1M1
0000
,  // measure 80
0000
0000
0000
MM11
0000
0000
0000
0000
0000
0002
0000
0000
0000
0000
0000
0103
0010
1000
0001
0000
0000
0010
0000
0000
,  // measure 81
MM11
0000
0000
M1M1
0000
0000
1M1M
0000
,  // measure 82
0000
11MM
0000
1MM1
0000
0001
1000
0010
,  // measure 83
0110
0000
0000
0101
0000
0000
1010
0000
1000
0000
0100
1000
0010
0000
0100
0000
,  // measure 84
0001
0000
0100
0010
0000
0000
0100
0001
0010
0000
0100
1000
0001
0000
0100
0000
,  // measure 85
0040
MM3M
0000
0000
;

//---------------dance-single - Blank----------------
#NOTES:
     dance-single:
     :
     Hard:
     9:
     0.507,0.552,0.421,0.283,0.077,351.000,52.000,35.000,60.000,0.000,2.000,0.507,0.552,0.421,0.283,0.077,351.000,52.000,35.000,60.000,0.000,2.000: // measure 0
2MM2
0000
0000
3003
,  // measure 1
0010
0000
1000
0100
0000
1000
0000
0000
,  // measure 2
0001
0100
0010
0100
0000
0001
0010
0100
,  // measure 3
1000
0001
0100
0000
0010
0100
0000
0001
,  // measure 4
0000
0010
0100
1000
0100
0000
0010
0100
,  // measure 5
1000
0000
0001
0100
0000
0010
0100
0001
,  // measure 6
0010
0000
0100
1000
0000
1000
0001
0100
,  // measure 7
M040
0000
0000
M000
0M00
0000
0000
0M00
000M
0000
0000
000M
0M30
0000
0000
0M00
,  // measure 8
0000
1000
0100
0001
0100
1000
0010
0100
,  // measure 9
0001
0000
0100
0010
0000
0100
0001
0000
,  // measure 10
0000
0010
0100
0000
1000
0001
0000
0100
,  // measure 11
0010
0000
0100
0001
0000
0000
0010
0100
,  // measure 12
1000
0001
0100
0010
0000
0010
0100
0001
,  // measure 13
0010
0000
0100
1000
0000
1000
0000
0001
,  // measure 14
0000
0100
0010
0000
0100
0001
0000
0010
,  // measure 15
0100
0000
1000
0010
0000
0100
0001
0100
,  // measure 16
0010
0000
1000
0100
0000
0100
1000
0000
,  // measure 17
2100
0000
3000
0201
0000
0300
2002
0MM0
,  // measure 18
3003
0000
0210
0000
0300
1020
0000
0030
,  // measure 19
0202
M0M0
0303
0000
0012
0000
0003
2100
,  // measure 20
0000
3000
0202
M0M0
0303
0000
0102
0000
,  // measure 21
0003
1020
0000
0030
2200
00MM
3300
0000
,  // measure 22
1020
0000
0030
2001
0000
3000
0102
0000
,  // measure 23
M0M3
0000
0000
1001
0MM0
1001
0000
0000
,  // measure 24
1000
0000
0010
0100
0001
0000
0100
0010
,  // measure 25
1000
0000
0001
0010
0100
0000
1000
0100
,  // measure 26
0010
0000
0001
0010
0000
0001
0010
0000
,  // measure 27
0100
0000
1000
0010
0000
1000
0010
0000
,  // measure 28
0100
0000
0000
0001
0000
0000
0010
0000
,  // measure 29
0100
0000
1000
0000
0100
0010
0100
0010
,  // measure 30
0100
0000
0000
1000
0000
0000
0001
0000
,  // measure 31
0100
0010
0100
0001
,  // measure 32
0010
0000
0000
0100
1000
0000
0100
0000
,  // measure 33
1000
0000
0010
0000
0100
0000
0001
0100
,  // measure 34
0010
0100
0001
0010
,  // measure 35
0100
0000
0000
0100
1000
0000
0000
1000
0010
0000
0000
0010
0100
0000
0000
0100
,  // measure 36
0001
0000
0100
0010
0000
0010
0100
0000
,  // measure 37
0001
0000
0010
0100
0000
0100
1000
0000
,  // measure 38
0001
0000
0100
0010
0000
0010
0100
0000
,  // measure 39
0001
0000
0010
0100
0000
1000
0001
0000
,  // measure 40
0100
0000
0010
0100
0000
0000
0001
0000
,  // measure 41
0010
0100
0000
0000
1000
0000
0001
0100
,  // measure 42
0000
0000
0010
0000
0100
0001
0000
0000
,  // measure 43
0010
0000
0100
1000
0000
0001
0100
0000
,  // measure 44
0010
0000
0100
0001
,  // measure 45
0010
0000
0000
0010
0000
0000
0100
1000
,  // measure 46
0001
0000
0000
0001
0000
0000
0100
0010
,  // measure 47
1000
0000
0001
0000
,  // measure 48
1000
0000
0000
0010
0000
0000
0100
0000
,  // measure 49
0001
0000
0100
0010
0000
0010
0100
0000
,  // measure 50
0001
0000
0010
0100
0000
0000
0100
1000
,  // measure 51
0010
0100
0001
0100
,  // measure 52
0010
0000
1000
0100
0000
0100
1000
0000
,  // measure 53
0010
0000
0100
0001
0000
0001
0100
0000
,  // measure 54
0010
0100
0010
0100
,  // measure 55
0010
1000
0100
0001
0100
1000
0010
0100
,  // measure 56
0004
0000
0000
0103
0040
000M
4030
0000
,  // measure 57
34M0
M000
4300
0000
,  // measure 58
3000
0000
0000
0000
,  // measure 59
0002
0000
0000
0103
0020
000M
2030
0000
,  // measure 60
32M0
0000
M000
0000
2300
0000
0000
3000
,  // measure 61
MMM4
0000
M000
0103
M040
000M
M430
0000
,  // measure 62
03M4
0M00
0MM3
0000
,  // measure 63
MMM2
0000
M000
0103
M020
000M
M230
0000
,  // measure 64
03M2
0M00
2MM3
0000
,  // measure 65
3010
0000
0010
1000
0000
1000
0002
0000
0000
MMM0
0000
0000
,  // measure 66
0013
0000
0010
0100
0000
0100
0020
0000
0000
MM0M
0000
0000
,  // measure 67
0031
0000
0001
0100
0000
0100
0020
0000
0000
MM0M
0000
0000
,  // measure 68
1030
0001
0000
1000
0000
0000
0010
0000
0000
MMMM
0000
0000
,  // measure 69
1010
0000
0000
1001
0000
0000
0101
0000
,  // measure 70
0000
0110
0000
1010
0000
0000
1001
0000
,  // measure 71
0011
0000
0000
1100
0000
0000
1001
0000
,  // measure 72
0000
0101
0000
0000
0100
M010
010M
M010
,  // measure 73
0110
0000
0000
0110
0000
0000
1001
0000
,  // measure 74
0000
1001
0000
0101
0000
0000
0101
0000
,  // measure 75
1000
0000
0000
0010
0000
0000
1010
0000
0000
0000
0100
0000
0001
0000
0100
0000
,  // measure 76
1000
0010
0001
0010
0100
0001
0010
0100
,  // measure 77
1100
0000
0000
1010
0000
0000
1001
0000
,  // measure 78
0000
0101
0000
0011
0000
0000
0011
0000
,  // measure 79
1100
0000
0000
1010
0000
0000
0101
0000
,  // measure 80
0000
0110
0000
0000
0010
100M
0M10
100M
,  // measure 81
1010
0000
0000
0101
0000
0000
0011
0000
,  // measure 82
0000
1100
0000
1001
0000
0000
0101
0000
,  // measure 83
0010
0000
0000
1000
0000
0000
1100
0000
0000
0000
1000
0000
0010
0000
0100
0000
,  // measure 84
0001
0100
0000
0010
0000
0000
2000
0000
0000
0000
3001
0000
0010
0000
010M
0000
,  // measure 85
40M0
0M00
30MM
0000
0000
0000
0000
0000
;

//---------------dance-single - Blank----------------
#NOTES:
     dance-single:
     :
     Medium:
     6:
     0.346,0.414,0.097,0.113,0.004,273.000,12.000,14.000,0.000,0.000,0.000,0.346,0.414,0.097,0.113,0.004,273.000,12.000,14.000,0.000,0.000,0.000: // measure 0
2002
0000
3003
0000
,  // measure 1
0010
0000
0000
1000
0000
1000
0000
0000
,  // measure 2
0001
0000
0010
0100
0000
0000
0010
0000
,  // measure 3
0001
0000
0100
0000
0010
0100
0000
0001
,  // measure 4
0000
0010
0100
0000
1000
0000
0010
0000
,  // measure 5
0100
0000
0001
0010
0000
0000
0100
0000
,  // measure 6
0001
0000
0100
1000
0000
0000
0010
0000
,  // measure 7
0200
0000
0000
0301
,  // measure 8
0001
0010
0100
1000
,  // measure 9
0010
0000
0000
0100
0000
0000
0010
0000
,  // measure 10
1000
0000
0100
0000
1000
0001
0100
0000
,  // measure 11
0010
0000
0000
0010
0000
0000
0100
0000
,  // measure 12
0001
0000
0010
0000
0100
0001
0100
0000
,  // measure 13
1000
0000
0001
0100
0000
0010
0000
0100
,  // measure 14
0000
0000
0001
0000
0010
0000
0000
0100
,  // measure 15
0000
0000
1000
0000
0000
0010
0000
0000
,  // measure 16
0100
0001
0100
0010
,  // measure 17
0100
0000
0000
0010
0000
0000
1001
0000
,  // measure 18
0000
0000
0001
0000
0000
1000
0000
0000
,  // measure 19
1100
0000
0000
0000
1000
0000
0000
0001
,  // measure 20
0000
0011
0000
0010
,  // measure 21
0000
0100
0000
0000
1100
0000
0000
0000
,  // measure 22
1000
0000
0000
0010
0000
0000
0101
0000
,  // measure 23
0000
0000
0000
1001
0000
1001
0000
0000
,  // measure 24
1000
0000
0010
0100
0001
0000
0100
0000
,  // measure 25
0010
0000
1000
0001
0010
0000
0100
0000
,  // measure 26
0001
0000
0000
0100
0000
0000
1000
0000
,  // measure 27
0010
0000
0000
0100
0000
0000
0001
0000
,  // measure 28
0100
0000
0000
0010
0000
0000
0010
0000
,  // measure 29
0100
0000
0001
0000
,  // measure 30
0010
0000
0000
0100
0000
0000
0010
0000
,  // measure 31
0001
0000
1000
0000
0010
0100
0001
0000
,  // measure 32
1000
0000
0000
0010
0000
0000
0010
0000
,  // measure 33
0100
0001
0100
0010
,  // measure 34
1000
0001
0010
0100
,  // measure 35
1000
0001
0100
0000
0010
1000
0001
0000
,  // measure 36
0010
0100
0001
0100
,  // measure 37
1000
0001
0100
0010
,  // measure 38
1000
0000
0001
0010
0000
0010
0100
0000
,  // measure 39
1000
0000
0001
0100
0000
0100
0010
0000
,  // measure 40
1000
0000
0000
1000
0000
0000
0100
0000
,  // measure 41
0000
0100
0000
0000
0001
0000
0000
0001
,  // measure 42
0000
0000
0100
0000
0000
0100
0000
0000
,  // measure 43
0010
0000
0000
0010
0000
0000
0000
0000
,  // measure 44
0001
0000
0100
0010
,  // measure 45
1000
0000
0000
1000
0000
0000
0001
0000
,  // measure 46
0010
0000
0000
0010
0000
0000
0100
0000
,  // measure 47
0020
0000
0031
0000
,  // measure 48
0001
0000
0000
0100
0000
0000
0010
0000
,  // measure 49
0100
0001
0010
0000
,  // measure 50
0100
0000
0000
1000
0000
0000
0001
0000
,  // measure 51
1000
0010
0100
0000
,  // measure 52
0010
0000
0000
1000
0000
0000
0100
0000
,  // measure 53
1000
0010
0100
0001
,  // measure 54
0010
0000
0001
0100
0010
0000
0100
0001
,  // measure 55
0010
0000
0100
0000
1000
0010
0100
0001
,  // measure 56
2000
0000
0000
0001
3002
0000
0203
0000
,  // measure 57
0320
0000
0030
0000
,  // measure 58
0000
0000
0000
0000
,  // measure 59
2000
0000
0000
0001
3002
0000
0203
0000
,  // measure 60
0320
0000
0030
0000
,  // measure 61
1002
0000
0000
0100
0203
0000
0320
0000
,  // measure 62
2030
0000
3001
0000
,  // measure 63
1002
0000
0000
0100
0203
0000
0320
0000
,  // measure 64
2030
0000
3001
0000
,  // measure 65
0010
0010
1001
0000
,  // measure 66
0100
0100
1001
0000
,  // measure 67
1000
0001
0110
0000
,  // measure 68
0100
0001
0000
1000
0000
0000
0020
0000
0000
0000
0000
0000
,  // measure 69
1030
0000
0000
0100
0000
0000
1000
0000
,  // measure 70
0000
0010
0000
0100
0000
0000
0001
0000
,  // measure 71
0100
0000
0000
0010
0000
0000
1000
0000
,  // measure 72
0000
0001
0000
0000
1000
0001
1000
0001
,  // measure 73
0010
0000
0000
0001
0000
0000
0100
0000
,  // measure 74
0000
0010
0000
0100
0000
0000
0001
0000
,  // measure 75
1000
0000
1000
0000
,  // measure 76
0010
0000
0100
0000
0001
0100
0010
0000
,  // measure 77
1000
0000
0000
0001
0000
0000
0010
0000
,  // measure 78
0000
0100
0000
0001
0000
0000
0100
0000
,  // measure 79
1000
0000
0000
0010
0000
0000
0100
0000
,  // measure 80
0000
0001
0000
0000
0000
0010
0001
0010
,  // measure 81
0001
0000
0000
0100
0000
0000
0010
0000
,  // measure 82
0000
0100
0000
0001
0000
0000
1000
0000
,  // measure 83
0100
0000
0100
0000
,  // measure 84
1000
0000
0010
0100
0001
0100
0010
0000
,  // measure 85
2000
3000
0000
0000
;
