#TITLE:Smile, Smile, Smile!!;
#SUBTITLE:(deltaMAX Remix);
#ARTIST:KingSpartaX37;
#TITLETRANSLIT:;
#SUBTITLETRANSLIT:;
#ARTISTTRANSLIT:;
#GENRE:;
#CREDIT:Dark Bahamut;
#BANNER:Smile, Smile, Smile!! (deltaMax Mix)-bn.png;
#BACKGROUND:Smile, Smile, Smile!! (deltaMax Mix)-bg.png;
#LYRICSPATH:;
#CDTITLE:dark.gif;
#MUSIC:Smile, Smile, Smile!! (deltaMax Mix).mp3;
#OFFSET:-9.692;
#SAMPLESTART:49.930;
#SAMPLELENGTH:11.900;
#SELECTABLE:YES;
#DISPLAYBPM:*;
#BPMS:0.000=100.000,0.000=101.000,1.000=102.000,2.000=103.000,4.000=105.000,6.000=107.000,8.000=109.000,10.000=111.000,12.000=113.000,14.000=115.000,16.000=117.000,18.000=119.000,20.000=121.000,22.000=123.000,24.000=125.000,26.000=127.000,28.000=131.000,30.000=132.500,32.000=134.000,34.000=135.000,36.000=137.000,38.000=139.000,40.000=141.000,42.000=143.000,44.000=145.000,46.000=147.000,48.000=152.000,50.000=154.500,52.000=153.000,54.000=155.000,56.000=157.000,58.000=159.000,60.000=161.000,62.000=163.000,64.000=165.000,66.000=167.000,68.000=169.000,70.000=171.000,72.000=172.500,74.000=175.000,76.000=177.000,78.000=179.000,80.000=181.000,82.000=183.000,84.000=185.000,86.000=187.000,88.000=189.000,90.000=191.000,91.000=192.500,92.000=193.000,94.000=195.000,96.000=197.000,98.000=199.000,100.000=201.000,102.000=204.000,104.000=205.000,106.000=207.000,108.000=209.000,110.000=211.000,112.000=213.000,114.000=216.000,116.000=219.000,118.000=221.000,120.000=223.000,122.000=225.000,124.000=227.000,126.000=230.000,129.000=232.000,131.000=233.000,133.000=235.000,135.000=236.300,137.000=239.000,139.000=239.500,141.000=241.000,143.000=245.000,145.000=246.000,149.000=247.000,150.000=248.000,151.000=250.000,153.000=252.000,155.000=253.000,157.000=255.000,159.000=260.000,160.000=263.000,162.000=265.000,164.000=267.000,166.000=269.000,169.000=270.000,171.000=272.000,173.000=274.000,175.000=275.000,176.000=277.000,178.000=278.000,180.000=279.000,182.000=281.000,184.000=283.000,185.000=283.500,186.000=285.000,188.000=287.000,190.000=289.000,191.000=291.000,192.000=293.000,194.000=295.000,196.000=299.500,198.000=300.000,200.000=301.000,202.000=303.000,204.000=305.000,206.000=307.000,208.000=309.000,210.000=311.000,212.000=313.000,214.000=315.000,216.000=317.000,218.000=319.000,220.000=321.000,222.000=323.000,224.000=325.000,226.000=327.000,228.000=329.000,230.000=331.000,232.000=333.000,234.000=335.000,236.000=337.000,238.000=339.000,240.000=341.000,242.000=342.000,243.000=343.000,244.000=344.000,246.000=347.000,248.000=351.000,250.000=353.000,252.000=355.000,254.000=357.000,256.000=360.000,258.000=361.000,260.000=363.000,262.000=365.000,264.000=367.000,266.000=369.000,268.000=371.000,270.000=373.000,272.000=373.500,274.000=374.000,277.000=375.000,278.000=376.000,280.000=383.000,282.000=385.000,284.000=387.000,286.000=389.000,288.000=391.000,290.000=393.000,292.000=394.000,294.000=397.000,296.000=399.000,298.000=401.000,300.000=403.000,302.000=405.000,304.000=407.000,306.000=409.000,308.000=411.000,310.000=413.000,312.000=415.000,314.000=417.000,316.000=419.000,318.000=421.000,321.000=422.000,324.000=423.000,326.000=427.000,328.000=429.000,330.000=431.000,332.000=433.000,334.000=435.000,336.000=437.000,338.000=439.000,340.000=439.500,342.000=440.000,343.000=441.000,344.000=441.500,346.000=443.000,348.000=445.000,350.000=447.000,352.000=449.000,354.000=451.000,356.000=453.000,358.000=459.000,360.000=461.000,362.000=463.000,363.000=466.000,364.000=465.000,366.000=467.000,368.000=469.000,370.000=471.000,372.000=473.000,374.000=475.000,376.000=477.000,378.000=479.000,380.000=481.000,382.000=483.000,384.000=484.500,386.000=486.500,388.000=488.000,390.000=491.000,392.000=493.000,394.000=495.000,396.000=497.000,398.000=499.000,400.000=501.000,402.000=502.000,404.000=503.000,406.000=506.500,408.000=507.000,410.000=508.000,412.000=511.000,414.000=512.000,416.000=513.000,418.000=515.000,420.000=520.500,422.000=523.000,424.000=525.000,426.000=527.000,430.000=531.000,432.000=533.000,434.000=534.000,436.000=536.000,438.000=539.000,440.000=541.000,442.000=543.000,444.000=545.000,446.000=547.000,448.000=549.000,450.000=552.000,452.000=553.000,454.000=556.000,456.000=557.000,458.000=559.000,460.000=561.000,462.000=563.000,464.000=565.000,466.000=567.000,468.000=569.000,470.000=571.000,472.000=573.000;
#STOPS:;
#BGCHANGES:;
#KEYSOUNDS:;

//---------------dance-single - Dreamland200----------------
#NOTES:
     dance-single:
     Dreamland200:
     Hard:
     10:
     0.651,0.935,0.456,0.224,0.132:
1010
0000
0000
1000
0000
0000
0001
0000
0010
0000
0100
0000
0010
0000
0001
0000
,
0101
0000
0000
1100
0000
0000
1000
0000
0010
0000
0000
0000
0100
0000
0000
0000
,
0110
0000
0000
1010
0000
0000
1000
0000
0001
0000
0100
0000
0010
0100
0001
0000
,
0011
0000
0000
1100
0000
0000
0000
0000
1100
0000
0000
0011
0000
0000
0000
0000
,
0001
0000
0000
0100
0000
0000
0010
0000
1000
0100
0000
0000
1000
0000
0010
0000
,
0101
0000
0000
1100
0000
0000
0000
0000
1010
0000
0000
0101
0000
0000
0000
0000
,
0010
0000
0000
2000
0000
0000
3000
0000
0001
0000
0000
0020
0000
0000
0030
0000
,
0100
0000
0000
1100
0000
0000
1000
0000
0000
1010
0000
0000
0010
0000
0100
0000
,
0001
0000
0000
0100
0000
0000
0010
0000
1000
0000
0100
0000
1000
0000
0010
0000
,
0100
0000
0000
0001
0000
0000
0100
0000
0010
0000
0000
0000
1010
0000
0000
0000
,
0001
0000
0000
0010
0000
0000
0100
0000
0010
0000
0001
0000
1000
0000
0010
0000
,
0100
0000
0000
0101
0000
0000
0000
0000
0010
0000
0000
1100
0000
0000
0000
0000
,
1000
0000
0000
0100
0000
0000
0100
0000
1000
0010
0000
0000
0100
0000
0001
0000
,
0100
0000
0000
0110
0000
0000
0000
0000
0010
0000
0000
1010
0000
0000
0000
0000
,
1000
0000
0000
0010
0100
0000
0000
0001
0100
0000
0000
0010
1000
0000
0000
0001
,
0010
0000
0000
0100
1000
0000
0000
0001
0100
0000
0000
0010
1000
0000
0000
0001
,
1000
1200
0000
1300
2010
0000
3010
0120
,
0000
0130
0001
0000
0011
0000
1100
0000
,
0000
0001
0100
0010
0200
0000
0301
0012
,
0000
0013
0110
0000
1100
0000
1001
0000
,
1000
0002
0000
0103
0020
0000
0130
0020
,
0000
1030
0001
0000
0010
0000
0100
0000
,
1000
0000
0010
0100
0000
0001
0010
0000
,
0100
0000
1000
0000
0000
0000
0001
0100
0001
0000
0000
0000
1001
0000
0000
0000
,
1000
0020
0000
0130
0002
0000
0103
0020
,
0000
1030
0001
0000
0010
0000
0100
0000
,
0000
1000
0001
0100
0020
0000
0130
0002
,
0000
0013
0100
0000
1100
0000
0101
0000
,
0010
2000
0000
3001
0020
0000
0130
2000
,
0000
3001
0100
0000
1010
0000
0101
0000
,
0011
0000
0001
1000
0000
0010
0100
0000
,
0001
0000
0100
0000
0000
0000
0010
1000
0010
0000
0000
0000
1001
0000
0000
0000
,
1000
0100
0001
0100
,
0010
0001
0100
1000
,
0100
0000
0010
1000
0001
0010
0100
1000
,
0100
0010
0001
1000
,
0010
0100
0001
0100
,
0000
0110
0000
1010
,
0000
0000
0001
0010
0100
1000
0100
0010
,
0001
0100
0010
0100
,
0001
0010
0100
1100
,
0000
0101
0000
1001
,
0001
0000
0010
0000
0100
1000
0001
0100
,
0010
1000
0100
0001
,
0100
0010
0001
1000
,
0000
1010
0000
0101
,
0000
0001
0010
0100
,
1000
0010
0000
0100
0001
0000
0010
0000
,
0100
1000
0010
1010
,
0000
0101
0000
1001
,
0000
0001
0010
0100
,
1000
0010
0100
0000
0001
0000
0010
0000
,
0100
1000
0100
0010
,
0001
0100
0000
0101
,
0000
0001
0100
0110
,
0000
1001
0000
0000
,
0001
0010
0100
1000
,
0000
0011
0000
1100
,
0000
0000
0001
0100
0010
1000
0001
0010
,
0100
1000
0001
0010
,
0200
0000
1300
0020
,
0000
0230
0000
0301
,
1000
0100
1000
0000
0001
0010
0001
0000
,
1000
0010
0100
0001
1000
0100
0010
0001
,
1000
0010
0100
0001
,
0000
0101
0000
1010
,
0000
1000
0100
0001
,
0100
0010
0001
0100
,
0010
1000
0001
0010
,
0100
1000
0000
1010
,
0000
1000
0001
0011
,
0000
2002
0000
3003
,
0010
1000
0100
0010
,
0001
0100
1000
0100
,
0010
0000
1000
0000
0100
0010
0001
1000
,
0010
0100
0001
0010
,
0200
0000
1300
0002
,
0000
0203
0000
0310
,
0100
0001
0100
0000
0010
1000
0010
0000
,
1000
0100
1000
0100
0010
0001
0010
0001
,
1000
0010
0100
0001
,
0000
0100
0000
0010
,
1000
0100
0001
0100
,
0000
0010
0001
0000
,
0100
0010
0100
0001
,
0000
0010
0000
0100
,
1000
0100
0010
0001
,
1000
0010
0100
0000
,
0001
0100
0010
1000
,
0000
0001
0000
0010
,
0100
1000
0100
0010
,
0000
0001
1000
0000
,
0010
0100
0001
0100
,
0000
0010
0000
1000
,
0001
0010
0100
1000
,
0100
0010
0001
0000
,
1000
0010
0100
0001
,
0000
0100
0000
0010
,
1000
0001
0010
0100
,
0000
1000
0100
0000
,
0010
0001
1000
0010
,
0000
0100
0000
0001
,
0010
0100
0001
0100
,
0010
0001
0100
0000
,
0010
1000
0001
0010
,
0000
0100
0000
1000
,
0100
0010
0001
1000
,
0000
0010
0100
0000
,
0001
0010
0100
1000
,
0000
0100
0000
0010
,
0001
1000
0010
0100
,
0001
0010
0100
0000
,
1000
0010
0100
0001
,
0100
0010
1000
0000
,
0001
0010
0100
1000
,
0100
0010
0001
0000
,
1000
0001
1000
0001
,
1000
0001
1000
0000
,
2002
0000
0000
0000
,
0000
0000
0000
0000
,
0000
0000
0000
0000
,
0000
0000
0000
0000
,
0000
0000
0000
0000
,
0000
0000
0000
0000
,
0000
0000
0000
0000
,
0000
0000
0000
0000
,
0000
0000
0000
0000
,
0000
0000
0000
0000
,
0000
0000
0000
0000
,
0000
0000
0000
0000
,
3003
0000
0000
0000
;

//---------------dance-single - Dreamland200----------------
#NOTES:
     dance-single:
     Dreamland200:
     Medium:
     7:
     0.379,0.624,0.024,0.016,0.096:
1000
0000
0000
0001
0000
0000
0000
0000
1000
0000
0010
0000
0100
0000
0001
0000
,
0100
0000
0000
0010
0000
0000
0100
0000
0001
0000
0000
0000
0010
0000
0000
0000
,
0100
0000
0000
1000
0000
0000
0000
0000
0001
0000
0000
0000
1000
0000
0001
0000
,
0100
0000
0000
0010
0000
0000
0000
0000
0010
0000
0000
0100
0000
0000
0000
0000
,
0001
0000
0000
0010
0000
0000
0100
0000
1000
0000
0000
0000
1000
0000
0001
0000
,
0100
0000
0000
0010
0000
0000
0000
0000
0010
0000
0000
0100
0000
0000
0000
0000
,
0001
0000
0000
0010
0000
0000
0000
0000
0100
0000
0000
1000
0000
0000
0000
0000
,
1000
0000
0000
1000
0000
0000
0001
0000
0000
0001
0000
0000
0100
0000
0010
0000
,
0100
0000
0000
0100
0000
0000
0000
0000
1000
0000
0000
0000
0100
0000
0001
0000
,
0010
0000
0000
0100
0000
0000
1000
0000
0100
0000
0000
0000
0010
0000
0001
0000
,
0100
0000
0000
0010
0000
0000
0000
0000
0100
0000
0000
0000
0001
0000
0000
0000
,
0010
0000
0000
0100
0000
0000
0000
0000
1000
0000
0000
0001
0000
0000
0000
0000
,
0100
0000
0000
0010
0000
0000
0000
0000
0100
0000
0000
0000
0001
0000
0000
0000
,
0010
0000
0000
0100
0000
0000
0000
0000
1000
0000
0000
0001
0000
0000
0000
0000
,
0100
0100
0010
0010
,
1000
0000
0000
0001
1000
0000
0000
0001
1000
0000
0000
0001
1000
0000
0000
0001
,
0000
1000
0000
0001
0100
0000
0010
1000
,
0000
0001
0010
0000
0100
0000
0001
0000
,
0000
0100
1000
0001
0100
0000
0010
0100
,
0000
0001
0010
0000
0100
0000
1000
0000
,
0000
0001
0000
0100
0010
0000
0100
0001
,
0000
0010
0100
0000
1000
0000
0001
0000
,
0100
0000
0000
0010
0000
0000
0100
0000
,
0001
0000
0000
0010
0000
0000
0100
0000
,
1000
0000
0001
0000
0100
0000
0010
0100
,
0000
0001
0010
0100
,
0000
0000
1000
0000
0001
0000
0100
0010
,
0000
0100
0001
0010
,
0100
0000
1000
0000
0001
0000
0100
0010
,
0000
0100
0001
0010
,
0100
0000
0000
1000
0000
0000
0001
0000
,
0100
0010
0000
0010
0100
0000
0001
0000
,
0010
0001
0100
0010
,
1000
0001
0010
0000
,
0100
1000
0010
0100
,
0001
0100
0010
1000
,
0001
0010
0100
1000
,
0010
0100
0010
0000
,
1000
0001
0010
0100
,
0001
0100
1000
0001
,
0100
0010
0100
0000
,
0001
0010
0100
1000
,
0100
0001
0100
0000
,
0010
0001
0100
0010
,
0100
0001
0010
0100
,
0000
1000
0000
0001
,
0000
0100
0010
1000
,
0001
0010
0100
1000
,
0010
0000
0100
0100
,
0000
1001
0000
1001
,
0000
0000
0000
0000
,
0001
0010
0100
1000
,
0000
0100
0010
0001
,
1000
0010
0000
0100
,
0000
0001
0100
0010
,
0000
1000
0000
0000
,
0001
0000
0010
0010
,
0000
0001
0000
0100
,
0000
0010
1000
0001
,
0010
0000
0100
1000
,
0100
0000
0010
0001
,
0000
1000
0000
0010
,
0000
0100
0001
0100
,
0000
0010
0000
0000
,
1000
0000
0010
0100
,
0000
0001
0000
0010
,
0000
0000
0100
0000
,
0001
0100
1000
0000
,
0001
0100
0010
0100
,
0001
0010
0000
0100
,
0000
1000
0001
0100
,
0000
0010
0000
0000
,
0100
0000
0001
0010
,
0000
0100
0000
1000
,
0000
0000
0001
0000
,
0100
0000
0010
0000
,
1000
0000
0001
0010
,
0000
0100
0000
1000
,
0000
0001
0001
0000
,
0100
0000
0010
0000
,
1000
0000
0000
0000
,
0100
0000
0000
0000
,
0010
0000
0000
0000
,
0001
0000
0000
0000
,
1000
0000
0000
0000
,
0010
0000
0000
0000
,
0100
0000
0001
0000
,
1000
0000
0001
0000
,
0010
0000
0000
0000
,
0100
0000
0000
0000
,
1000
0000
0000
0000
,
0010
0000
0000
0000
,
0100
0000
0000
0000
,
0001
0000
0000
0000
,
0100
0000
0010
0000
,
1000
0000
0001
0000
,
0010
0000
0000
0000
,
0100
0000
0000
0000
,
1000
0000
0000
0000
,
0001
0000
0000
0000
,
0100
0000
0000
0000
,
0010
0000
0000
0000
,
1000
0000
0100
0000
,
1000
0000
0010
0000
,
0100
0000
0000
0000
,
0001
0000
0000
0000
,
0100
0000
0000
0000
,
0010
0000
0000
0000
,
1000
0000
0000
0000
,
0100
0000
0000
0000
,
0010
0000
0001
0000
,
1000
0000
0010
0000
,
0100
0001
0000
0000
,
0100
0000
0000
0000
,
0010
0000
1000
0000
,
0010
0000
0000
0000
,
1000
0000
0001
0000
,
1000
0000
0000
0000
,
2002
0000
0000
0000
,
0000
0000
0000
0000
,
0000
0000
0000
0000
,
0000
0000
0000
0000
,
0000
0000
0000
0000
,
0000
0000
0000
0000
,
0000
0000
0000
0000
,
0000
0000
0000
0000
,
0000
0000
0000
0000
,
0000
0000
0000
0000
,
0000
0000
0000
0000
,
0000
0000
0000
0000
,
3003
0000
0000
0000
;

//---------------dance-single - Dreamland200----------------
#NOTES:
     dance-single:
     Dreamland200:
     Easy:
     3:
     0.139,0.189,0.008,0.000,0.000:
1000
0000
0010
0000
,
0100
0000
0001
0000
,
0010
0000
0100
0000
,
1000
0000
0001
0000
,
1000
0000
0010
0000
,
0100
0000
0001
0000
,
0010
0000
0100
0000
,
1000
0000
0001
0000
,
1000
0000
0010
0000
,
0100
0000
0001
0000
,
0010
0000
0100
0000
,
1000
0000
0000
0000
,
1000
0000
0100
0000
,
0001
0000
0100
0000
,
0010
0000
0001
0000
,
1000
0000
0010
0000
,
0100
0000
0000
0000
,
0001
0000
0000
0000
,
0010
0000
0000
0000
,
0100
0000
0000
0000
,
1000
0000
0000
0000
,
0010
0000
0000
0000
,
0100
0000
0000
0000
,
0001
0000
0000
0000
,
0010
0000
0010
0000
,
0010
0000
0000
0000
,
0100
0000
0100
0000
,
0100
0000
0000
0000
,
1000
0000
1000
0000
,
1000
0000
0000
0000
,
0001
0000
0001
0000
,
0001
0000
0000
0000
,
1000
0000
0000
0000
,
0010
0000
0000
0000
,
0100
0000
0000
0000
,
0010
0000
0000
0000
,
1000
0000
0000
0000
,
0001
0000
0000
0000
,
0100
0000
0000
0000
,
0001
0000
0000
0000
,
1000
0000
0000
0000
,
0100
0000
0000
0000
,
0001
0000
0000
0000
,
0100
0000
0000
0000
,
0010
0000
0000
0000
,
0001
0000
0000
0000
,
1000
0000
0000
0000
,
0010
0000
0000
0000
,
0100
0000
0000
0000
,
0001
0000
0000
0000
,
0010
0000
0000
0000
,
0000
0000
0000
0000
,
0100
0000
0000
0000
,
1000
0000
0000
0000
,
0001
0000
0000
0000
,
0000
0000
0000
0000
,
0100
0000
0000
0000
,
0010
0000
0000
0000
,
1000
0000
0000
0000
,
0000
0000
0000
0000
,
0001
0000
0000
0000
,
1000
0000
0000
0000
,
0001
0000
0000
0000
,
0000
0000
0000
0000
,
0010
0000
0000
0000
,
0100
0000
0000
0000
,
0001
0000
0000
0000
,
0000
0000
0000
0000
,
0100
0000
0000
0000
,
1000
0000
0000
0000
,
0010
0000
0000
0000
,
0000
0000
0000
0000
,
0100
0000
0000
0000
,
0001
0000
0000
0000
,
1000
0000
0000
0000
,
0000
0000
0000
0000
,
0100
0000
0000
0000
,
0010
0000
0000
0000
,
0001
0000
0000
0000
,
0000
0000
0000
0000
,
1000
0000
0000
0000
,
0010
0000
0000
0000
,
0100
0000
0000
0000
,
0000
0000
0000
0000
,
0001
0000
0000
0000
,
0010
0000
0000
0000
,
0100
0000
0000
0000
,
0000
0000
0000
0000
,
0010
0000
0000
0000
,
0001
0000
0000
0000
,
1000
0000
0000
0000
,
0000
0000
0000
0000
,
0010
0000
0000
0000
,
0100
0000
0000
0000
,
0001
0000
0000
0000
,
0000
0000
0000
0000
,
0010
0000
0000
0000
,
0100
0000
0000
0000
,
1000
0000
0000
0000
,
0001
0000
0000
0000
,
0100
0000
0000
0000
,
0010
0000
0000
0000
,
0100
0000
0000
0000
,
0000
0000
0000
0000
,
0001
0000
0000
0000
,
0010
0000
0000
0100
,
0000
0000
0000
0000
,
1000
0000
0000
0000
,
0001
0000
0000
0000
,
0100
0000
0000
0000
,
0010
0000
0000
0000
,
0000
0000
0000
0000
,
1000
0000
0000
0000
,
0000
0000
0000
0000
,
0100
0000
0000
0000
,
0000
0000
0000
0000
,
0010
0000
0000
0000
,
0000
0000
0000
0000
,
1001
0000
0000
0000
;

//---------------dance-single - Dreamland200----------------
#NOTES:
     dance-single:
     Dreamland200:
     Beginner:
     1:
     0.075,0.094,0.008,0.000,0.000:
1000
0000
0000
0000
,
0010
0000
0000
0000
,
0100
0000
0000
0000
,
0001
0000
0000
0000
,
0010
0000
0000
0000
,
0100
0000
0000
0000
,
1000
0000
0000
0000
,
0001
0000
0000
0000
,
0100
0000
0000
0000
,
0010
0000
0000
0000
,
1000
0000
0000
0000
,
0100
0000
0000
0000
,
0010
0000
0000
0000
,
0001
0000
0000
0000
,
0100
0000
0000
0000
,
0010
0000
0000
0000
,
0010
0000
0000
0000
,
0000
0000
0000
0000
,
1000
0000
0000
0000
,
0000
0000
0000
0000
,
0001
0000
0000
0000
,
0000
0000
0000
0000
,
0100
0000
0000
0000
,
0000
0000
0000
0000
,
0010
0000
0000
0000
,
0100
0000
0000
0000
,
0010
0000
0000
0000
,
0000
0000
0000
0000
,
1000
0000
0000
0000
,
0001
0000
0000
0000
,
1000
0000
0000
0000
,
0000
0000
0000
0000
,
0001
0000
0000
0000
,
0000
0000
0000
0000
,
0010
0000
0000
0000
,
0100
0000
0000
0000
,
1000
0000
0000
0000
,
0000
0000
0000
0000
,
0100
0000
0000
0000
,
0010
0000
0000
0000
,
0001
0000
0000
0000
,
0000
0000
0000
0000
,
0100
0000
0000
0000
,
0010
0000
0000
0000
,
0100
0000
0000
0000
,
0000
0000
0000
0000
,
0001
0000
0000
0000
,
1000
0000
0000
0000
,
0001
0000
0000
0000
,
0000
0000
0000
0000
,
0010
0000
0000
0000
,
0000
0000
0000
0000
,
0100
0000
0000
0000
,
0000
0000
0000
0000
,
1000
0000
0000
0000
,
0000
0000
0000
0000
,
0010
0000
0000
0000
,
0000
0000
0000
0000
,
0100
0000
0000
0000
,
0000
0000
0000
0000
,
0001
0000
0000
0000
,
0000
0000
0000
0000
,
0010
0000
0000
0000
,
0000
0000
0000
0000
,
0001
0000
0000
0000
,
0000
0000
0000
0000
,
0100
0000
0000
0000
,
0000
0000
0000
0000
,
0010
0000
0000
0000
,
0000
0000
0000
0000
,
1000
0000
0000
0000
,
0000
0000
0000
0000
,
0100
0000
0000
0000
,
0000
0000
0000
0000
,
0010
0000
0000
0000
,
0000
0000
0000
0000
,
0001
0000
0000
0000
,
0000
0000
0000
0000
,
1000
0000
0000
0000
,
0000
0000
0000
0000
,
0010
0000
0000
0000
,
0000
0000
0000
0000
,
0000
0000
0000
0000
,
0000
0000
0000
0000
,
0100
0000
0000
0000
,
0000
0000
0000
0000
,
0000
0000
0000
0000
,
0000
0000
0000
0000
,
0001
0000
0000
0000
,
0000
0000
0000
0000
,
0000
0000
0000
0000
,
0000
0000
0000
0000
,
1000
0000
0000
0000
,
0000
0000
0000
0000
,
0000
0000
0000
0000
,
0000
0000
0000
0000
,
0100
0000
0000
0000
,
0000
0000
0000
0000
,
0000
0000
0000
0000
,
0000
0000
0000
0000
,
0010
0000
0000
0000
,
0000
0000
0000
0000
,
0000
0000
0000
0000
,
0000
0000
0000
0000
,
0001
0000
0000
0000
,
0000
0000
0000
0000
,
0000
0000
0000
0000
,
0000
0000
0000
0000
,
1000
0000
0000
0000
,
0000
0000
0000
0000
,
0000
0000
0000
0000
,
0000
0000
0000
0000
,
0010
0000
0000
0000
,
0000
0000
0000
0000
,
0000
0000
0000
0000
,
0000
0000
0000
0000
,
0100
0000
0000
0000
,
0000
0000
0000
0000
,
1001
0000
0000
0000
;
