#TITLE:POWER;
#SUBTITLE:;
#ARTIST:BREEZY;
#TITLETRANSLIT:;
#SUBTITLETRANSLIT:;
#ARTISTTRANSLIT:;
#CREDIT:;
#BANNER:power_ponified_banner.png;
#BACKGROUND:bgblack.PNG;
#LYRICSPATH:;
#CDTITLE:;
#MUSIC:POWER.mp3;
#OFFSET:-4.980;
#SAMPLESTART:24.890;
#SAMPLELENGTH:12.000;
#SELECTABLE:YES;
#BPMS:0.000=193.001;
#STOPS:;
#BGCHANGES:;

//---------------dance-single - ----------------
#NOTES:
     dance-single:
     :
     Beginner:
     1:
     0.111,0.254,0.055,0.022,0.000:
1000
0000
0000
0000
,
0001
0000
0000
0000
,
1000
0000
0000
0000
,
0001
0000
0000
0000
,
0100
0000
0000
0000
,
0010
0000
0000
0000
,
0100
0000
0000
0000
,
0010
0000
0000
0000
,
0220
0000
0000
0000
,
0000
0000
0000
0000
,
0000
0000
0000
0000
,
0000
0000
0000
0000
,
0000
0000
0000
0000
,
0000
0000
0000
0000
,
0000
0000
0000
0000
,
0330
0000
0000
0000
,
0001
0000
0000
0000
,
0100
0000
0000
0000
,
0010
0000
0000
0000
,
1000
0000
0000
0000
,
1000
0000
0000
0000
,
0010
0000
0000
0000
,
0100
0000
0000
0000
,
0001
0000
0000
0000
,
1000
0000
0000
0000
,
0001
0000
0000
0000
,
1000
0000
0000
0000
,
1000
0000
0000
0000
,
0001
0000
0000
0000
,
1000
0000
0000
0000
,
0001
0000
0000
0000
,
0001
0000
0000
0000
,
1001
0000
0000
0000
,
0000
0000
0000
0000
,
0010
0000
0000
0000
,
0000
0000
0000
0000
,
0100
0000
0000
0000
,
0000
0000
0000
0000
,
1000
0000
0000
0000
,
0000
0000
0000
0000
,
0010
0000
0000
0000
,
0100
0000
0000
0000
,
0010
0000
0000
0000
,
0100
0000
0000
0000
,
0001
0000
0000
0000
,
1000
0000
0000
0000
,
0001
0000
0000
0000
,
1000
0000
0000
0000
,
0001
0001
0001
0000
,
0001
0001
0001
0000
,
0100
0100
0100
0000
,
0100
0100
0100
0000
,
0010
0010
0010
0000
,
0010
0010
0010
0000
,
1000
1000
1000
0000
,
1000
1000
1000
0000
,
1001
0000
0000
0000
,
0110
0000
0000
0000
,
1001
0000
0000
0000
;

//---------------dance-single - ----------------
#NOTES:
     dance-single:
     :
     Easy:
     4:
     0.301,0.318,0.077,0.143,0.000:
0010
1000
0010
1000
,
0001
0100
0001
0001
,
0010
0001
0010
0001
,
1000
0100
1000
1000
,
0010
1000
0100
0001
,
0010
0001
0100
0100
,
0010
1000
0100
0001
,
0010
1000
0010
0010
,
2001
0000
0001
0000
,
0001
0000
3001
0000
,
0210
0000
0010
0000
,
0010
0000
0310
0000
,
1000
0000
0000
0000
,
0001
0000
0000
0000
,
0100
0000
0000
0010
,
0000
0000
0100
0000
,
0010
0100
0010
0100
,
0001
1000
0001
1000
,
0001
0100
0010
1000
,
0001
0010
0100
0000
,
0100
1000
0100
1000
,
0001
0010
0001
0010
,
1000
0001
0100
0010
,
1000
0001
0010
0000
,
0001
0001
0100
0100
,
1000
1000
0010
0010
,
1000
0010
1000
0010
,
0100
0001
0100
0001
,
0010
0010
0001
0001
,
0100
0100
0010
0010
,
1000
0100
0010
0001
,
0100
1000
0010
0001
,
0200
0000
0310
0000
,
2000
0000
3001
0000
,
0002
0000
1003
0000
,
0020
0000
0130
0000
,
0020
0000
1030
0000
,
0200
0000
0301
0000
,
0020
0000
0031
0000
,
1001
0000
0110
0000
,
1000
0100
0010
0001
,
0010
0100
1000
0000
,
0001
0010
1000
0010
,
0001
0100
1000
0000
,
0001
0010
0100
1000
,
0100
0010
0001
0000
,
0001
0100
1000
0100
,
0001
0010
1000
0000
,
0001
0000
0001
0000
,
1000
0000
1000
0000
,
0010
0000
0010
0000
,
0100
0000
0100
0010
,
0100
0000
0100
0000
,
0001
0000
0001
0000
,
0010
0000
0010
0000
,
1000
0000
1000
0001
,
2002
0000
3003
0000
,
0220
0000
0330
0000
,
1001
0000
0000
0000
;

//---------------dance-single - ----------------
#NOTES:
     dance-single:
     :
     Medium:
     6:
     0.403,0.382,0.219,0.044,0.027:
0010
1000
0001
0100
,
0010
0000
1000
0000
0100
1000
0000
1000
,
0100
0010
0001
0100
,
0010
1000
0001
0010
,
0001
0100
0010
1000
,
0100
0000
0010
0000
0001
0100
0000
0100
,
0001
0010
0100
1000
,
0010
0100
0001
0010
,
0110
0000
0110
0000
,
1001
0000
1001
0000
,
1100
0000
1100
0000
,
0011
0000
0011
0000
,
0001
0000
0000
0100
0000
0000
0010
0000
1000
0000
0000
0000
0000
0000
0000
0000
,
0001
0000
0000
0010
0000
0000
0100
0000
1000
0000
0000
0000
0000
0000
0000
0000
,
0100
0000
0000
0010
0000
0000
0001
0000
0100
0000
0000
0000
0010
0000
0000
1000
,
0000
0000
0001
0000
0010
0000
0000
0000
0100
0000
0000
1000
0000
0000
0100
0000
,
0010
0001
0100
0010
,
1000
0000
0100
0000
1000
0010
0000
0100
,
0001
0010
0100
1000
,
0100
0010
1001
0110
,
1000
0100
0010
0001
,
0100
0000
0010
0000
1000
0100
0000
0001
,
0100
0010
1000
0001
,
0010
0100
1000
0100
,
0010
0001
0010
0001
,
0100
0000
0010
0000
1000
0000
0100
0001
,
0010
0001
0100
0010
,
1000
0000
0001
0000
0010
0100
1000
0100
,
0010
0001
1000
0010
,
0100
0000
0001
0000
0010
0000
0100
1000
,
0100
0000
0010
0000
0001
0000
0100
0001
,
0010
0000
0100
1000
0010
0000
0100
0001
,
1000
0100
1000
0100
,
0010
0010
0001
0001
,
0100
0010
0100
0010
,
1000
1000
0001
0001
,
1000
0000
0100
0000
,
0010
0001
0010
0000
,
0001
0000
0100
0000
,
0110
0000
1001
1001
,
1000
0100
0000
0010
0001
0000
0100
0000
,
0010
1000
0001
0010
,
0100
1000
0100
0010
,
0001
0100
0010
1000
,
0001
0010
0000
0001
0100
0000
0010
0000
,
1000
0100
0010
0100
,
1000
0000
0001
0100
0001
0000
0100
0000
,
0010
0000
1000
0100
1000
0000
0010
0000
,
0100
0001
0100
0010
,
1000
0000
0001
0000
0010
0100
0000
1000
,
0100
0010
0001
0100
,
0010
1000
1010
0101
,
0001
0010
0001
0100
,
0010
0000
1000
0000
0100
0010
0000
0001
,
0100
0010
0100
0001
,
0010
0100
1100
0011
,
0202
0000
0303
0000
,
2020
0000
3030
0000
,
1001
0000
0000
0000
;

//---------------dance-single - ----------------
#NOTES:
     dance-single:
     :
     Hard:
     8:
     0.547,0.541,0.384,0.088,0.302: // measure 1
1000
0000
0000
0001
0000
0000
0100
0000
0010
0000
0000
1000
0000
0000
0010
0000
,  // measure 2
0100
0000
0000
0001
0000
0000
0010
0000
0001
0000
0100
0000
0000
0000
0100
0000
,  // measure 3
0001
0000
0000
0010
0000
0000
0100
0000
1000
0000
0000
0100
0000
0000
0010
0000
,  // measure 4
0001
0000
0000
0100
0000
0000
0010
0000
1010
0000
0000
0000
1001
0000
0000
0000
,  // measure 5
0001
0000
0000
0010
0000
0000
0001
0000
0100
0000
0000
0010
0000
0000
1000
0000
,  // measure 6
0001
0000
0000
0010
0000
0000
0100
0000
1000
0000
0100
0000
0000
0000
0100
0000
,  // measure 7
1000
0000
0000
0010
0000
0000
0100
0000
0001
0000
0000
0010
0000
0000
0100
0000
,  // measure 8
1000
0000
0000
0100
0000
0000
0010
0000
0011
0000
0000
0000
0101
0000
0000
0000
,  // measure 9
2010
0000
3010
0000
,  // measure 10
0102
0000
0103
0000
,  // measure 11
0012
0000
0013
0000
,  // measure 12
2100
0000
3100
0001
,  // measure 13
0100
0000
0000
0010
0000
0000
0100
0000
0010
0000
0000
0000
0000
0000
0000
0000
,  // measure 14
1000
0000
0000
0001
0000
0000
1000
0000
0001
0000
0000
0000
0000
0000
0000
0000
,  // measure 15
0100
0000
0000
0001
0000
0000
0010
0000
0100
0000
0000
0000
1000
0000
0000
0100
,  // measure 16
0000
0000
0010
0000
0001
0000
0000
0000
0100
0000
0000
0010
0000
0000
1000
0000
,  // measure 17
0001
0000
0000
0100
0000
0000
0010
0000
1000
0000
0000
0010
0000
0000
0100
0000
,  // measure 18
0001
0000
0000
0010
0000
0000
0100
0000
1000
0000
0100
0000
0000
0000
0010
0000
,  // measure 19
0001
0000
0000
0100
0000
0000
0001
0000
0010
0000
0000
0100
0000
0000
1000
0000
,  // measure 20
0100
0000
0000
0010
0000
0000
0001
0000
1000
0000
0000
0000
1100
0000
0000
0000
,  // measure 21
0100
0001
0000
0010
0100
1000
0000
0100
,  // measure 22
0010
0000
0000
0001
0000
0000
0100
0000
0001
0000
0010
0000
0000
0000
0010
0000
,  // measure 23
0001
0000
0000
0100
0000
0000
0010
0000
1000
0000
0000
0001
0000
0000
0010
0000
,  // measure 24
0100
0000
0000
1000
0000
0000
0100
0000
0010
0000
0000
0000
0011
0000
0000
0000
,  // measure 25
0001
0000
0000
0001
0100
0000
0000
0100
0010
0000
0000
0010
1000
0000
0000
1000
,  // measure 26
0100
0000
0000
0100
0010
0000
0000
0010
0001
0000
0000
0001
0100
0000
0000
0100
,  // measure 27
0010
0000
0000
1000
0001
0000
0000
0010
0100
0000
0000
1000
0100
0000
0000
0010
,  // measure 28
0001
0000
0000
0100
0010
0000
0000
1000
0001
0000
0000
0010
0100
0000
0000
1000
,  // measure 29
0100
0010
0001
0100
0010
1000
0001
0010
,  // measure 30
0001
0100
1000
0100
0001
0010
0100
1000
,  // measure 31
0100
0010
0001
0100
0010
1000
0001
0010
,  // measure 32
0100
1000
0100
0010
0001
0100
0010
1000
,  // measure 33
0001
0000
0010
0000
0100
0000
1000
0100
,  // measure 34
0010
0001
0100
0010
,  // measure 35
1000
0000
0100
0000
0010
0000
0100
1000
,  // measure 36
0001
0000
0100
0000
0010
0000
1000
0010
,  // measure 37
0100
0000
0001
0000
0010
0000
0100
1000
,  // measure 38
0100
0001
0010
0100
,  // measure 39
1000
0000
0001
0000
0100
0000
0010
1000
,  // measure 40
0001
0010
0100
1000
,  // measure 41
0001
0100
0000
0100
0001
0000
0011
0000
,  // measure 42
1100
0011
0101
1010
,  // measure 43
0010
0000
1000
0100
0010
0000
0110
0000
,  // measure 44
0011
0101
1010
1100
,  // measure 45
0001
0100
0000
0100
0001
0000
0011
0000
,  // measure 46
1100
1010
0101
0011
,  // measure 47
0001
0000
1000
0010
0100
0000
0101
0000
,  // measure 48
1010
1100
0011
1001
,  // measure 49
1000
0000
0000
0100
0000
0000
1000
0000
0001
0000
0000
0100
0000
0000
0001
0000
,  // measure 50
1000
0000
0000
0010
0000
0000
1000
0000
0001
0000
0010
0000
0000
0000
0010
0000
,  // measure 51
0001
0000
0000
0100
0000
0000
0001
0000
0100
0000
0000
0010
0000
0000
0100
0000
,  // measure 52
0010
0000
0000
1000
0000
0000
0010
0000
1000
0000
0000
0000
1001
0000
0000
0000
,  // measure 53
0010
0000
0000
1000
0000
0000
0010
0000
0100
0000
0000
0001
0000
0000
0100
0000
,  // measure 54
0010
0000
0000
1000
0000
0000
0010
0000
0100
0000
0001
0000
0000
0000
0001
0000
,  // measure 55
0100
0000
0000
1000
0000
0000
0100
0000
0001
0000
0000
0010
0000
0000
0001
0000
,  // measure 56
1000
0000
0000
0010
0000
0000
1000
0000
0010
0000
0000
0000
0110
0000
0000
0000
,  // measure 57
2002
0000
0000
3003
,  // measure 58
2200
0000
0000
3300
,  // measure 59
0011
0000
0000
0000
;
