#TITLE:ORDINARY WORLD;
#SUBTITLE:(Above & Beyond Remix);
#ARTIST:AURORA ft. Naimee Coleman;
#TITLETRANSLIT:;
#SUBTITLETRANSLIT:;
#ARTISTTRANSLIT:;
#CREDIT:;
#BANNER:ordinaryworldbanner.png;
#BACKGROUND:bgblack.PNG;
#LYRICSPATH:;
#CDTITLE:;
#MUSIC:Ordinary World (Above & Beyond Remix).mp3;
#OFFSET:-13.700;
#SAMPLESTART:27.440;
#SAMPLELENGTH:12.000;
#SELECTABLE:YES;
#BPMS:0.000=140.000;
#STOPS:;
#BGCHANGES:;

//---------------dance-single - ----------------
#NOTES:
     dance-single:
     :
     Beginner:
     1:
     0.076,0.099,0.025,0.025,0.000:
1000
0000
0000
0000
,
0010
0000
0000
0000
,
0100
0000
0000
0000
,
0001
0000
0000
0000
,
0010
0000
0000
0000
,
0100
0000
0000
0000
,
2000
0000
0000
0000
,
0000
0000
3000
0000
,
0001
0000
0001
0000
,
0001
0000
0000
0000
,
0100
0000
0100
0000
,
0100
0000
0000
0000
,
0010
0000
0010
0000
,
0010
0000
0000
0000
,
1000
0000
1000
0000
,
1000
0000
0000
0000
,
0001
0000
1000
0000
,
0001
0000
0000
0000
,
0100
0000
0010
0000
,
0100
0000
0000
0000
,
0010
0000
1000
0000
,
0100
0000
0000
0000
,
0010
0000
0001
0000
,
0100
0000
0000
0000
,
1001
0000
0000
0000
,
0100
0000
0000
0000
,
0010
0000
0000
0000
,
0001
0000
0000
0000
,
0100
0000
0000
0000
,
0010
0000
0000
0000
,
2000
0000
0000
0000
,
0000
0000
3000
0000
,
1001
0000
0000
0000
;

//---------------dance-single - ----------------
#NOTES:
     dance-single:
     :
     Easy:
     1:
     0.130,0.138,0.049,0.037,0.000:
1001
0000
1000
0000
,
0100
0000
0010
0000
,
0001
0000
0001
0000
,
0010
0000
0100
0000
,
1000
0000
0010
0000
,
0100
0000
0001
0000
,
2002
0000
0000
0000
,
0000
0000
3003
0000
,
0001
0000
0100
0000
,
0010
1000
0010
0000
,
1000
0000
0100
0000
,
0010
0001
0010
0000
,
0001
0000
0100
0000
,
1000
0100
0001
0000
,
0010
0000
1000
0000
,
0010
0001
0010
0000
,
1000
0000
0100
0000
,
0010
0001
0010
0000
,
0100
0000
1000
0000
,
0001
0100
0010
0000
,
1000
0000
0010
0000
,
0001
0100
1000
0000
,
0010
0000
1000
0000
,
0100
0001
0010
0000
,
1001
0000
0100
0000
,
0010
0000
0001
0000
,
0001
0000
0010
0000
,
0100
0000
1000
0000
,
0010
0000
1000
0000
,
0100
0000
0001
0000
,
0020
0000
0000
0000
,
0000
0000
0030
0000
,
1001
0000
0000
0000
;

//---------------dance-single - ----------------
#NOTES:
     dance-single:
     :
     Medium:
     3:
     0.206,0.217,0.049,0.025,0.000:
1100
0000
1000
0000
,
0010
0100
0001
0100
,
0010
0000
1000
0000
,
0100
0001
0100
0010
,
1000
0000
0010
0001
,
0100
0000
0010
1000
,
0100
0000
0010
0000
,
2002
0000
3003
0000
,
1000
0100
1000
0010
,
0100
0001
0010
0001
,
0100
0010
1000
0100
,
0001
0010
0001
0100
,
0010
1000
0100
0010
,
0100
1000
0001
0100
,
0010
1000
0100
1000
,
0010
0001
0100
0001
,
0010
0001
0010
0001
,
1000
0100
1000
0100
,
0010
0001
0100
0010
,
1000
0000
0100
0000
0010
0000
0001
0001
,
0001
0100
0010
1000
,
0100
0000
0010
0000
0100
0000
1000
1000
,
1000
0010
0100
0001
,
0010
0000
0100
0000
0010
0010
0010
0000
,
0110
0000
0010
0000
,
0001
0100
1000
0000
,
0010
0000
1000
0000
,
0100
0001
0010
0000
,
0100
0000
1000
0000
,
0010
0100
0001
0100
,
0010
0000
1000
0000
,
0100
0001
0010
0100
,
1001
0000
0000
0000
;

//---------------dance-single - ----------------
#NOTES:
     dance-single:
     :
     Hard:
     6:
     0.293,0.296,0.025,0.037,0.000: // measure 1
1100
0000
0100
0010
0001
0001
0000
0010
,  // measure 2
0100
0000
1000
0001
0000
0100
0000
0010
,  // measure 3
1000
0000
0010
0000
0100
0000
0001
0010
,  // measure 4
0000
0000
0001
0100
0000
0010
0000
1000
,  // measure 5
0010
0000
0100
0000
0001
0010
0000
0001
,  // measure 6
0000
1000
0000
0000
0100
0000
0010
0200
,  // measure 7
0000
0000
0000
0000
,  // measure 8
0020
0000
0000
0330
,  // measure 9
0010
0000
0001
0000
0100
0010
1000
0000
,  // measure 10
0100
0000
0010
0000
0100
1000
0001
0000
,  // measure 11
0100
0000
0010
0000
1000
0100
0001
0000
,  // measure 12
0010
0000
0001
0000
0100
0010
1000
0000
,  // measure 13
0010
0000
0100
0000
0001
0010
0001
0000
,  // measure 14
0100
0000
0010
0000
1000
0100
0001
0000
,  // measure 15
0001
0100
1000
0000
1000
0010
0001
0000
,  // measure 16
0010
0000
0001
1000
0010
0100
0001
0000
,  // measure 17
0010
0001
0010
0100
1000
0100
0010
0000
,  // measure 18
0001
0100
1000
0100
0001
0010
1000
0000
,  // measure 19
0010
1000
0001
0010
0100
1000
0100
0000
,  // measure 20
1000
0100
0010
0001
0100
0010
1000
0000
,  // measure 21
0010
0100
0001
0010
0100
1000
0010
0000
,  // measure 22
1000
0001
0010
0100
1000
0100
0010
0000
,  // measure 23
0001
0100
0010
0000
1000
0100
0010
0000
,  // measure 24
0100
1000
0001
0100
0010
1000
0001
0010
,  // measure 25
0100
0000
0000
1000
0100
1000
0000
0000
,  // measure 26
0010
0000
0100
0001
0000
0100
0000
0000
,  // measure 27
0001
0000
0000
0000
0010
0000
0100
1000
,  // measure 28
0000
0000
0001
0100
0000
0010
0000
1000
,  // measure 29
0000
0000
0000
0010
0100
0001
0000
0010
,  // measure 30
0000
0000
0100
1000
0100
0000
0010
0002
,  // measure 31
0000
1000
1000
0100
,  // measure 32
0100
0010
0010
0103
,  // measure 33
1001
0000
0000
0000
;
