#TITLE:My will;
#SUBTITLE:;
#ARTIST:Dream;
#TITLETRANSLIT:;
#SUBTITLETRANSLIT:;
#ARTISTTRANSLIT:;
#CREDIT:;
#BANNER:banner.png;
#BACKGROUND:bgblack.PNG;
#LYRICSPATH:;
#CDTITLE:;
#MUSIC:My Will.mp3;
#OFFSET:-7.900;
#SAMPLESTART:53.290;
#SAMPLELENGTH:12.000;
#SELECTABLE:YES;
#BPMS:0.000=127.000;
#STOPS:;
#BGCHANGES:;

//---------------dance-single - ----------------
#NOTES:
     dance-single:
     :
     Easy:
     3:
     0.179,0.173,0.000,0.011,0.000: // measure 1
1000
0000
0100
0000
,  // measure 2
0010
0001
0010
0000
,  // measure 3
0001
0000
0100
0000
,  // measure 4
0010
1000
0010
0000
,  // measure 5
0100
0000
0001
0000
,  // measure 6
0010
0100
0010
0000
,  // measure 7
0001
0000
0100
0000
,  // measure 8
0010
1000
0010
0000
,  // measure 9
1000
0100
0001
0100
,  // measure 10
1000
0000
0010
0000
,  // measure 11
0001
0010
1000
0000
,  // measure 12
0010
0000
0001
0000
,  // measure 13
0100
0010
1000
0000
,  // measure 14
0001
0010
0100
0000
,  // measure 15
1000
0000
0100
0000
,  // measure 16
0010
0001
0010
0000
,  // measure 17
0001
0000
0100
0000
,  // measure 18
0010
1000
0001
0000
,  // measure 19
0010
0000
0100
0000
,  // measure 20
0010
0001
1000
0000
,  // measure 21
0010
0000
0100
0000
,  // measure 22
0010
0100
0001
0000
,  // measure 23
0010
0000
0100
0000
,  // measure 24
1000
0000
0001
0000
,  // measure 25
1000
0001
1000
0001
,  // measure 26
1000
1000
0001
0000
,  // measure 27
0100
0001
0100
0100
,  // measure 28
0001
0100
0001
0000
,  // measure 29
0010
0001
0010
0010
,  // measure 30
0001
0010
0001
0000
,  // measure 31
1000
0010
1000
1000
,  // measure 32
0010
1000
0010
0000
,  // measure 33
1000
0100
0010
0001
,  // measure 34
0001
0010
0100
0000
,  // measure 35
1000
0001
0100
0010
,  // measure 36
0010
0100
0001
0000
,  // measure 37
0010
0100
1000
0001
,  // measure 38
0001
0100
0010
0000
,  // measure 39
0010
0100
0001
0010
,  // measure 40
0010
0100
1000
0000
,  // measure 41
0002
0000
0000
0000
,  // measure 42
0003
0000
0000
0000
;

//---------------dance-single - ----------------
#NOTES:
     dance-single:
     :
     Medium:
     4:
     0.280,0.238,0.011,0.021,0.000: // measure 1
1000
0000
0010
0000
0100
0001
0100
0000
,  // measure 2
0001
0000
0010
0000
0001
0010
0001
0000
,  // measure 3
1000
0000
0100
0000
1000
0100
1000
0000
,  // measure 4
0010
0100
0001
0000
,  // measure 5
0010
0000
0001
0000
0100
0010
0100
0000
,  // measure 6
0010
0000
1000
0000
0001
1000
0001
0000
,  // measure 7
0010
0000
0100
0000
1000
0100
1000
0000
,  // measure 8
0010
0100
0001
0000
,  // measure 9
0010
0000
0001
0000
0100
0000
0001
0010
,  // measure 10
0001
0000
0010
0000
0100
0000
1000
0010
,  // measure 11
1000
0000
0010
0000
0100
0000
0001
0010
,  // measure 12
0001
0010
0100
0000
,  // measure 13
1000
0000
0001
0000
0100
0000
0010
0100
,  // measure 14
0010
0000
1000
0000
0001
0000
0010
0100
,  // measure 15
0010
0000
0001
0000
0100
0000
0010
1000
,  // measure 16
0010
0100
0001
0000
,  // measure 17
0010
0000
0001
0000
0010
0001
0000
0010
,  // measure 18
0000
0100
1000
0010
,  // measure 19
0100
0000
0001
0000
0010
0000
0001
0010
,  // measure 20
0001
0100
0010
1000
,  // measure 21
0100
0000
1000
0010
0000
0010
1000
0000
,  // measure 22
0100
0000
0001
0100
0000
0100
0001
0000
,  // measure 23
0010
0100
1000
0001
,  // measure 24
0100
0000
0000
0010
0010
0000
0000
0000
,  // measure 25
1000
0000
0100
0000
0001
0010
0001
0000
,  // measure 26
0100
0000
1000
0000
0010
0001
0010
0000
,  // measure 27
1000
0000
0100
0000
0010
0001
0100
0000
,  // measure 28
0010
0000
1000
0000
0100
1000
0010
0000
,  // measure 29
0100
0000
0001
0000
0010
0100
0010
0000
,  // measure 30
0001
0000
1000
0000
0010
0100
0001
0000
,  // measure 31
0010
0000
0100
0000
1000
0010
0100
0000
,  // measure 32
0001
0000
0000
0010
0010
0000
0000
0000
,  // measure 33
0001
0000
0100
0000
0010
1000
0100
0000
,  // measure 34
1000
0000
0010
0000
0100
0001
0010
0000
,  // measure 35
0100
0000
0010
0000
0001
1000
0010
0000
,  // measure 36
0100
0000
0001
0000
0100
0010
1000
0000
,  // measure 37
0001
0000
0010
0000
1000
0010
0100
0000
,  // measure 38
0001
0000
0100
0000
0010
1000
0001
0000
,  // measure 39
0010
0000
0100
1000
0000
1000
0001
0000
,  // measure 40
0100
0000
0000
0010
0010
0000
0000
0000
,  // measure 41
0220
0000
0000
0000
,  // measure 42
0330
0000
0000
0000
;

//---------------dance-single - ----------------
#NOTES:
     dance-single:
     :
     Hard:
     6:
     0.374,0.346,0.042,0.042,0.011: // measure 1
1000
0100
0010
0001
0000
0010
0100
1000
,  // measure 2
0000
0001
0100
0010
0000
0100
0001
0010
,  // measure 3
0100
1000
0100
0010
0000
0001
0100
0010
,  // measure 4
0000
1000
0010
0100
0001
0010
0100
1000
,  // measure 5
0100
0000
0010
0001
0000
0100
0010
1000
,  // measure 6
0000
0001
0010
0001
0100
0010
1000
0001
,  // measure 7
0010
0000
0100
1000
0000
0001
0100
0010
,  // measure 8
1000
0001
0010
0100
0000
0100
0010
0001
,  // measure 9
0100
0000
0010
1000
0000
1000
0010
0100
,  // measure 10
0001
0000
0010
0100
0000
0100
0010
0000
,  // measure 11
0001
0000
1000
0010
0000
0010
1000
0000
,  // measure 12
0001
0010
0100
0000
0010
0001
0100
0010
,  // measure 13
1000
0000
0010
0100
0000
0100
0010
0000
,  // measure 14
1000
0001
0010
0100
0000
0010
0001
0000
,  // measure 15
0100
0000
0010
1000
0000
1000
0010
0100
,  // measure 16
0001
0000
0010
0001
0000
0001
0010
0000
,  // measure 17
0100
0000
1000
0001
0100
0010
1000
0010
,  // measure 18
0000
0100
0000
0001
0000
0010
0100
1000
,  // measure 19
0100
0000
0000
0000
0010
0000
0001
0000
0100
0000
0000
0010
0000
0000
1000
0000
,  // measure 20
0100
0000
1000
0010
0000
0010
1000
0100
,  // measure 21
0000
0011
0000
0101
0000
0001
0100
0010
,  // measure 22
0000
1010
0000
1100
0000
0001
0100
0010
,  // measure 23
2000
0000
0000
0010
3010
0000
0100
0000
,  // measure 24
0002
0000
0000
0010
0013
0000
0100
0000
,  // measure 25
1000
0100
0010
0001
0000
0001
0010
0100
,  // measure 26
1000
0010
0100
0001
0000
0001
0100
0010
,  // measure 27
1000
0000
0001
0010
0000
0010
0001
0000
,  // measure 28
0100
0000
0010
1000
0000
1000
0010
0000
,  // measure 29
0100
0001
0010
0100
1000
0100
0010
0001
,  // measure 30
0000
0001
0100
0010
1000
0010
0100
0001
,  // measure 31
0010
0000
0001
0100
0000
0010
1000
0001
,  // measure 32
0010
0000
0000
0100
0200
0000
0300
0000
,  // measure 33
1000
0010
0100
0001
0000
0010
0100
0010
,  // measure 34
0001
0100
0010
1000
0000
1000
0001
0010
,  // measure 35
0100
0000
1000
0010
0000
0010
1000
0000
,  // measure 36
0001
0000
0100
0001
0000
0001
0010
0001
,  // measure 37
0100
0010
1000
0100
0000
0100
1000
0001
,  // measure 38
0100
0000
0000
0000
0010
0000
1000
0000
0010
0000
0000
0000
0100
0000
0001
0100
,  // measure 39
0001
0010
0100
1000
0000
1000
0010
0100
,  // measure 40
0001
0000
0001
0010
0100
0000
1000
0000
,  // measure 41
0020
0000
0000
0000
,  // measure 42
0030
0000
0000
0000
;
