#TITLE:HYENA;
#SUBTITLE:;
#ARTIST:Hommarju;
#TITLETRANSLIT:;
#SUBTITLETRANSLIT:;
#ARTISTTRANSLIT:;
#GENRE:;
#CREDIT:;
#BANNER:hyena-bn.png;
#BACKGROUND:hyena-bg.png;
#LYRICSPATH:;
#CDTITLE:;
#MUSIC:HYENA.ogg;
#OFFSET:0.000000;
#SAMPLESTART:95.730331;
#SAMPLELENGTH:16.179779;
#SELECTABLE:YES;
#DISPLAYBPM:178.000000;
#BPMS:0.000000=178.000000
,68.000000=356.000000
,84.000000=178.000000
,148.000000=356.000000
,164.000000=178.000000
,292.000000=356.000000
,308.000000=178.000000
,338.000000=356.000000
,342.000000=178.000000
,356.000000=356.000000
,360.000000=178.000000
,374.000000=356.000000
,378.000000=178.000000
,380.000000=712.000000
,388.000000=178.000000
;
#STOPS:
;
#BGCHANGES:;
#KEYSOUNDS:;
#ATTACKS:;

//---------------dance-single - ----------------
#NOTES:
     dance-single:
     :
     Challenge:
     11:
     0.957143,1.000000,0.966667,0.350000,0.729167,644.000000,116.000000,42.000000,71.000000,4.000000,0.000000,0.957143,1.000000,0.966667,0.350000,0.729167,644.000000,116.000000,42.000000,71.000000,4.000000,0.000000:
// measure 0
0000
0000
0000
0000
,  // measure 1
1001
0000
0000
1100
0000
1000
0001
0000
0100
0000
0000
0000
,  // measure 2
0000
0000
0100
0010
0000
0010
1000
0000
0000
0000
0000
0000
,  // measure 3
1001
0000
0000
0011
0000
0001
1000
0000
0010
0000
0000
0000
,  // measure 4
0000
0000
1000
0010
0000
0010
0100
0000
0000
0000
0000
0000
,  // measure 5
1001
0000
0000
0101
0000
0001
1000
0000
0100
0000
0000
0000
,  // measure 6
0000
0000
0100
1000
0000
1000
0001
0000
0000
0000
0000
0000
,  // measure 7
1001
0000
0000
1010
0000
1000
0001
0000
0010
0000
0000
0000
,  // measure 8
0000
0000
0010
0100
0000
0100
1000
0000
0000
0000
0000
0000
,  // measure 9
1000
0000
0001
0000
0100
0000
0010
1000
0010
0100
0001
0000
1001
0000
1001
0000
,  // measure 10
1001
0000
1001
0000
1001
0000
1001
0000
1001
0000
0100
0010
0001
0000
0000
0000
,  // measure 11
0100
0000
0010
0000
0100
0000
0001
1000
0100
1000
0001
0000
0011
0000
0011
0000
,  // measure 12
0011
0000
0011
0000
0011
0000
0011
0000
0011
0000
0100
1000
0010
0000
0000
0000
,  // measure 13
0100
0000
0001
0000
0100
0000
0010
1000
0100
1000
0001
0000
0101
0000
0101
0000
,  // measure 14
0101
0000
0101
0000
0101
0000
0101
0000
0101
0000
0010
1000
0001
0000
0000
0000
,  // measure 15
0010
0000
0001
0000
0100
0000
0010
1000
0001
0010
0100
0000
1100
0000
1100
0000
,  // measure 16
1100
0000
1100
0000
1100
0000
1100
0000
1100
0000
0100
0010
0001
0000
0000
0000
,  // measure 17
2002
0000
0000
0000
,  // measure 18
0000
0000
0000
0000
,  // measure 19
0000
0000
0000
0000
,  // measure 20
3003
0000
0000
0000
,  // measure 21
1000
0000
0001
0000
0100
0000
0010
1000
0010
0100
0001
0000
0011
0000
0011
0000
,  // measure 22
0011
0000
0011
0000
0011
0000
0011
0000
0011
0000
0001
0100
1000
0000
0000
0000
,  // measure 23
0100
0000
0010
0000
1000
0000
0001
0010
0100
1000
0010
0000
1010
0000
1010
0000
,  // measure 24
1010
0000
1010
0000
1010
0000
1010
0000
1010
0000
1000
0100
0001
0000
0000
0000
,  // measure 25
1000
0000
0010
0000
0001
0000
0100
0010
0100
0001
1000
0000
1100
0000
1100
0000
,  // measure 26
1100
0000
1100
0000
1100
0000
1100
0000
1100
0000
1000
0010
0001
0000
0000
0000
,  // measure 27
0010
0000
0100
0000
0001
0000
1000
0100
1000
0010
0100
0000
0101
0000
0101
0000
,  // measure 28
0101
0000
0101
0000
0101
0000
0101
0000
0101
0000
0001
0010
1000
0000
0000
0000
,  // measure 29
0001
0000
0100
0010
0100
0000
0100
1000
0100
1000
0100
1000
0001
0100
0001
0100
,  // measure 30
0010
1000
0010
1000
0001
0010
0001
0010
0001
0000
0011
0000
0100
0000
1100
0000
,  // measure 31
0001
0000
0100
0010
0100
0000
0001
0010
0001
0010
0001
0010
0100
1000
0100
1000
,  // measure 32
0010
0100
0010
0100
0001
1000
0001
1000
0010
0000
1001
0000
0100
0000
0110
0000
,  // measure 33
0010
0000
0001
0010
0001
0000
0010
0001
1000
0100
1000
0000
0001
0100
0001
0000
,  // measure 34
1000
0100
1000
0000
0001
0100
0001
0000
1000
0010
1000
0000
0001
0010
0001
0000
,  // measure 35
0100
0010
0100
0010
1000
0001
1000
0001
0010
0100
0010
0100
1000
0100
1000
0100
,  // measure 36
0010
0001
0010
0001
0100
0010
0100
0010
1000
0000
0110
0000
0001
0000
1001
0000
,  // measure 37
0220
0000
0000
0000
,  // measure 38
0000
0000
0000
0000
,  // measure 39
0000
0000
0000
0000
,  // measure 40
0330
0000
0000
0000
,  // measure 41
1000
0000
0001
1000
0001
0000
1000
0000
0001
1000
0001
0000
1000
0001
1000
0000
,  // measure 42
0001
1000
0001
0000
1000
0001
1000
0000
0001
0000
1001
0000
1000
0000
1001
0000
,  // measure 43
0100
0000
0010
0100
0010
0000
0100
0000
0010
0100
0010
0000
0100
0010
0100
0000
,  // measure 44
0010
0100
0010
0000
0100
0010
0100
0000
0010
0000
0110
0000
0100
0000
0110
0000
,  // measure 45
0010
0000
0001
0010
0001
0000
0010
0000
0001
0010
0001
0000
0010
0001
0010
0000
,  // measure 46
0001
1000
0001
0000
1000
0001
1000
0000
0001
1000
0001
0000
1000
0001
1000
0000
,  // measure 47
0100
1000
0100
0000
1000
0100
1000
0000
0100
1000
0100
0000
1000
0100
1000
0000
,  // measure 48
0010
0100
0010
0000
0100
0010
0100
0000
0010
0000
0110
0000
0001
0000
1001
0000
,  // measure 49
1100
0000
0001
0000
0011
0000
0100
1000
,  // measure 50
0001
0010
0100
0000
M22M
0000
0330
0000
,  // measure 51
0011
0000
0100
1000
1100
0000
0001
0000
,  // measure 52
0101
0110
2M1M
3001
,  // measure 53
0011
0000
0100
0000
1000
0001
0000
0001
,  // measure 54
1001
0000
0110
0000
2002
0000
3003
MMMM
,  // measure 55
0022
0000
0033
MMMM
2200
0000
3300
MMMM
,  // measure 56
2002
0000
3003
MMMM
0220
0000
0330
MMMM
,  // measure 57
2000
0000
0000
0000
,  // measure 58
3200
0000
0000
0000
,  // measure 59
0320
0000
0000
0000
,  // measure 60
0032
0000
0000
0000
,  // measure 61
0023
0000
0000
0000
,  // measure 62
2030
0000
0000
0000
,  // measure 63
3200
0000
0000
0000
,  // measure 64
0302
0000
0000
0000
,  // measure 65
1M03
0001
0010
0001
1M00
0010
1000
0001
0M10
0001
1000
0010
1M00
0001
0010
0001
,  // measure 66
1M00
0010
1000
0001
0M10
0001
1000
0010
1M00
0000
0001
0000
0M10
0000
0001
0000
,  // measure 67
10M0
0100
1000
0001
01M0
0001
1000
0100
10M0
0001
0100
0001
10M0
0100
1000
0001
,  // measure 68
01M0
0001
1000
0100
10M0
0001
0100
0001
10M0
0000
0100
0000
10M0
0000
0001
0000
,  // measure 69
M100
0010
0100
0001
M100
0010
0100
0001
M010
0100
0010
0001
M100
0010
0100
0001
,  // measure 70
M010
0100
0010
0001
M100
0010
0100
0001
M010
0000
0001
0000
M100
0000
0010
0000
,  // measure 71
100M
0100
0010
0100
100M
0010
0100
0010
100M
0100
0010
0100
100M
0010
0100
0010
,  // measure 72
100M
0100
0010
0100
100M
0010
0100
0010
100M
0000
0100
0010
0001
0000
MMMM
0000
,  // measure 73
2002
0000
0000
0000
,  // measure 74
0000
0000
0000
0000
,  // measure 75
0000
0000
0000
0000
,  // measure 76
0000
0000
3003
MMMM
,  // measure 77
1100
0000
0000
0000
0001
0010
0001
0000
0100
0000
0010
0000
0100
0000
0101
0000
,  // measure 78
0000
1010
0000
0010
0220
0000
1330
0000
,  // measure 79
0010
0000
0100
0010
0100
0001
1000
1100
,  // measure 80
0000
0011
0000
0100
2000
0000
3001
0000
,  // measure 81
0100
0000
0010
0100
0001
1000
0100
0110
,  // measure 82
0000
1001
0000
0002
0020
0000
0133
0000
,  // measure 83
0001
1000
0001
1000
0100
0010
0100
0010
,  // measure 84
0001
0010
0001
0010
0100
1000
0100
1000
2002
0000
0000
0000
0000
0000
0000
0000
,  // measure 85
0000
0000
0000
0000
3003
0000
0MM0
0000
0011
0000
0000
0000
0100
1000
0100
0000
,  // measure 86
0010
0001
0100
0110
0000
1010
0000
0001
,  // measure 87
0202
0000
0000
0000
0313
0000
0000
0000
0001
0000
0000
0000
0100
0010
0100
0000
,  // measure 88
0010
0000
1000
0000
0100
1000
0100
0000
0000
1000
0001
0000
0100
0010
0100
0000
,  // measure 89
0001
0MM0
2002
0000
0000
0000
3003
0000
,  // measure 90
1001
0000
0000
0000
0100
0010
0100
0000
1000
0000
0010
0000
0101
0000
1010
0000
,  // measure 91
0000
0110
0000
1001
0110
0100
1000
0001
,  // measure 92
1000
0100
0010
0001
1000
0100
0010
0001
1000
0010
0100
0001
1000
0010
0100
0001
,  // measure 93
1000
0100
0010
0001
0010
0100
1000
0001
0200
0000
0000
0000
0020
0000
0000
0000
,  // measure 94
0330
0000
2112
0000
,  // measure 95
0000
0000
0000
0000
,  // measure 96
0000
0000
0000
3003
,  // measure 97
MMMM
0000
0000
0000
;

//---------------dance-single - ----------------
#NOTES:
     dance-single:
     :
     Edit:
     11:
     0.947619,1.000000,0.500000,0.350000,0.929167,692.000000,60.000000,42.000000,71.000000,4.000000,0.000000,0.947619,1.000000,0.500000,0.350000,0.929167,692.000000,60.000000,42.000000,71.000000,4.000000,0.000000:
0000
0000
0000
0000
,
1001
0000
0000
1100
0000
1000
0001
0000
0100
0000
0000
0000
,
0000
0000
0100
0010
0000
0010
1000
0000
0000
0000
0000
0000
,
1001
0000
0000
0011
0000
0001
1000
0000
0010
0000
0000
0000
,
0000
0000
1000
0010
0000
0010
0100
0000
0000
0000
0000
0000
,
1001
0000
0000
0101
0000
0001
1000
0000
0100
0000
0000
0000
,
0000
0000
0100
1000
0000
1000
0001
0000
0000
0000
0000
0000
,
1001
0000
0000
1010
0000
1000
0001
0000
0010
0000
0000
0000
,
0000
0000
0010
0100
0000
0100
1000
0000
0000
0000
0000
0000
,
1000
0000
0001
0000
0100
0000
0010
1000
0010
0100
0001
0000
1000
0001
1000
0001
,
1000
0001
1000
0001
1000
0001
1000
0001
1000
0000
0100
0010
0001
0000
0000
0000
,
0100
0000
0010
0000
0100
0000
0001
1000
0100
1000
0001
0000
0010
0001
0010
0001
,
0010
0001
0010
0001
0010
0001
0010
0001
0010
0000
0100
1000
0010
0000
0000
0000
,
0100
0000
0001
0000
0100
0000
0010
1000
0100
1000
0001
0000
0100
0001
0100
0001
,
0100
0001
0100
0001
0100
0001
0100
0001
0100
0000
0010
1000
0001
0000
0000
0000
,
0010
0000
0001
0000
0100
0000
0010
1000
0001
0010
0100
0000
1000
0100
1000
0100
,
1000
0100
1000
0100
1000
0100
1000
0100
1000
0000
0100
0010
0001
0000
0000
0000
,
2002
0000
0000
0000
,
0000
0000
0000
0000
,
0000
0000
0000
0000
,
3003
0000
0000
0000
,
1000
0000
0001
0000
0100
0000
0010
1000
0010
0100
0001
0000
0010
0001
0010
0001
,
0010
0001
0010
0001
0010
0001
0010
0001
0010
0000
0001
0100
1000
0000
0000
0000
,
0100
0000
0010
0000
1000
0000
0001
0010
0100
1000
0010
0000
1000
0010
1000
0010
,
1000
0010
1000
0010
1000
0010
1000
0010
1000
0000
1000
0100
0001
0000
0000
0000
,
1000
0000
0010
0000
0001
0000
0100
0010
0100
0001
1000
0000
0100
1000
0100
1000
,
0100
1000
0100
1000
0100
1000
0100
1000
0100
0000
1000
0010
0001
0000
0000
0000
,
0010
0000
0100
0000
0001
0000
1000
0100
1000
0010
0100
0000
0001
0100
0001
0100
,
0001
0100
0001
0100
0001
0100
0001
0100
0001
0000
0001
0010
1000
0000
0000
0000
,
0001
0000
0100
0010
0100
0000
0100
1000
0100
1000
0100
1000
0001
0100
0001
0100
,
0010
1000
0010
1000
0001
0010
0001
0010
0001
0000
0011
0000
0100
0000
1100
0000
,
0001
0000
0100
0010
0100
0000
0001
0010
0001
0010
0001
0010
0100
1000
0100
1000
,
0010
0100
0010
0100
0001
1000
0001
1000
0010
0000
1001
0000
0100
0000
0110
0000
,
0010
0000
0001
0010
0001
0000
0010
0001
1000
0100
1000
0000
0001
0100
0001
0000
,
1000
0100
1000
0000
0001
0100
0001
0000
1000
0010
1000
0000
0001
0010
0001
0000
,
0100
0010
0100
0010
1000
0001
1000
0001
0010
0100
0010
0100
1000
0100
1000
0100
,
0010
0001
0010
0001
0100
0010
0100
0010
1000
0000
0110
0000
0001
0000
1001
0000
,
0220
0000
0000
0000
,
0000
0000
0000
0000
,
0000
0000
0000
0000
,
0330
0000
0000
0000
,
1000
0000
0001
1000
0001
0000
1000
0000
0001
1000
0001
0000
1000
0001
1000
0000
,
0001
1000
0001
0000
1000
0001
1000
0000
0001
0000
1001
0000
1000
0000
1001
0000
,
0100
0000
0010
0100
0010
0000
0100
0000
0010
0100
0010
0000
0100
0010
0100
0000
,
0010
0100
0010
0000
0100
0010
0100
0000
0010
0000
0110
0000
0100
0000
0110
0000
,
0010
0000
0001
0010
0001
0000
0010
0000
0001
0010
0001
0000
0010
0001
0010
0000
,
0001
1000
0001
0000
1000
0001
1000
0000
0001
1000
0001
0000
1000
0001
1000
0000
,
0100
1000
0100
0000
1000
0100
1000
0000
0100
1000
0100
0000
1000
0100
1000
0000
,
0010
0100
0010
0000
0100
0010
0100
0000
0010
0000
0110
0000
0001
0000
1001
0000
,
1100
0000
0001
0000
0011
0000
0100
1000
,
0001
0010
0100
0000
M22M
0000
0330
0000
,
0011
0000
0100
1000
1100
0000
0001
0000
,
0101
0110
2M1M
3001
,
0011
0000
0100
0000
1000
0001
0000
0001
,
1001
0000
0110
0000
2002
0000
3003
MMMM
,
0022
0000
0033
MMMM
2200
0000
3300
MMMM
,
2002
0000
3003
MMMM
0220
0000
0330
MMMM
,
2000
0000
0000
0000
,
3200
0000
0000
0000
,
0320
0000
0000
0000
,
0032
0000
0000
0000
,
0023
0000
0000
0000
,
2030
0000
0000
0000
,
3200
0000
0000
0000
,
0302
0000
0000
0000
,
1M03
0001
0010
0001
1M00
0010
1000
0001
0M10
0001
1000
0010
1M00
0001
0010
0001
,
1M00
0010
1000
0001
0M10
0001
1000
0010
1M00
0000
0001
0000
0M10
0000
0001
0000
,
10M0
0100
1000
0001
01M0
0001
1000
0100
10M0
0001
0100
0001
10M0
0100
1000
0001
,
01M0
0001
1000
0100
10M0
0001
0100
0001
10M0
0000
0100
0000
10M0
0000
0001
0000
,
M100
0010
0100
0001
M100
0010
0100
0001
M010
0100
0010
0001
M100
0010
0100
0001
,
M010
0100
0010
0001
M100
0010
0100
0001
M010
0000
0001
0000
M100
0000
0010
0000
,
100M
0100
0010
0100
100M
0010
0100
0010
100M
0100
0010
0100
100M
0010
0100
0010
,
100M
0100
0010
0100
100M
0010
0100
0010
100M
0000
0100
0010
0001
0000
MMMM
0000
,
2002
0000
0000
0000
,
0000
0000
0000
0000
,
0000
0000
0000
0000
,
0000
0000
3003
MMMM
,
1100
0000
0000
0000
0001
0010
0001
0000
0100
0000
0010
0000
0100
0000
0101
0000
,
0000
1010
0000
0010
0220
0000
1330
0000
,
0010
0000
0100
0010
0100
0001
1000
1100
,
0000
0011
0000
0100
2000
0000
3001
0000
,
0100
0000
0010
0100
0001
1000
0100
0110
,
0000
1001
0000
0002
0020
0000
0133
0000
,
0001
1000
0001
1000
0100
0010
0100
0010
,
0001
0010
0001
0010
0100
1000
0100
1000
2002
0000
0000
0000
0000
0000
0000
0000
,
0000
0000
0000
0000
3003
0000
0MM0
0000
0011
0000
0000
0000
0100
1000
0100
0000
,
0010
0001
0100
0110
0000
1010
0000
0001
,
0202
0000
0000
0000
0313
0000
0000
0000
0001
0000
0000
0000
0100
0010
0100
0000
,
0010
0000
1000
0000
0100
1000
0100
0000
0000
1000
0001
0000
0100
0010
0100
0000
,
0001
0MM0
2002
0000
0000
0000
3003
0000
,
1001
0000
0000
0000
0100
0010
0100
0000
1000
0000
0010
0000
0101
0000
1010
0000
,
0000
0110
0000
1001
0110
0100
1000
0001
,
1000
0100
0010
0001
1000
0100
0010
0001
1000
0010
0100
0001
1000
0010
0100
0001
,
1000
0100
0010
0001
0010
0100
1000
0001
0200
0000
0000
0000
0020
0000
0000
0000
,
0330
0000
2112
0000
,
0000
0000
0000
0000
,
0000
0000
0000
3003
,
MMMM
0000
0000
0000
;
