#TITLE:Golden Cupcakes;
#SUBTITLE:;
#ARTIST:Dirty Androids VS Pony Punk;
#TITLETRANSLIT:;
#SUBTITLETRANSLIT:;
#ARTISTTRANSLIT:;
#CREDIT:;
#BANNER:GoldenCupcakesbn.png;
#BACKGROUND:GoldenCupcakesbg.png;
#LYRICSPATH:;
#CDTITLE:;
#MUSIC:Golden Cupcakes -IIDX Edition-.mp3;
#OFFSET:0.000;
#SAMPLESTART:14.770;
#SAMPLELENGTH:14.700;
#SELECTABLE:YES;
#BPMS:0.000=130.000;
#STOPS:;
#BGCHANGES:;

//---------------dance-single - ----------------
#NOTES:
     dance-single:
     :
     Beginner:
     1:
     0.090,0.105,0.000,0.008,0.000:
0000
0000
0000
0000
,
0000
0000
0000
0000
,
0000
0000
0000
0000
,
0000
0000
0000
0000
,
1000
0000
0000
0000
,
0010
0000
0000
0000
,
0100
0000
0000
0000
,
0001
0000
0000
0000
,
0001
0000
0000
0000
,
0010
0000
0000
0000
,
0001
0000
0000
0000
,
0010
0000
0000
0000
,
1000
0000
0000
0000
,
0100
0000
0000
0000
,
1000
0000
0000
0000
,
0100
0000
0000
0000
,
1000
0000
1000
0000
,
1000
0000
0000
0000
,
0010
0000
0010
0000
,
0010
0000
0000
0000
,
0100
0000
0100
0000
,
0100
0000
0000
0000
,
0001
0000
0001
0000
,
0001
0000
0000
0000
,
1000
0000
0001
0000
,
1000
0000
0000
0000
,
0001
0000
1000
0000
,
0001
0000
0000
0000
,
0100
0000
0010
0000
,
0100
0000
0000
0000
,
0010
0000
0100
0000
,
0010
0000
0000
0000
,
1000
0000
0000
0000
,
0100
0000
0000
0000
,
0010
0000
0000
0000
,
0001
0000
0000
0000
,
0001
0000
0000
0000
,
0010
0000
0000
0000
,
0100
0000
0000
0000
,
1000
0000
0000
0000
,
0010
0000
0010
0000
,
0010
0000
0000
0000
,
1000
0000
1000
0000
,
1000
0000
0000
0000
,
0100
0000
0100
0000
,
0100
0000
0000
0000
,
0001
0000
0001
0000
,
0001
0000
0000
0000
,
0010
0000
0000
0000
,
0001
0000
0000
0000
,
0010
0000
0000
0000
,
1000
0000
0000
0000
,
0100
0000
0000
0000
,
1000
0000
0000
0000
,
0100
0000
0000
0000
,
0001
0000
0000
0000
,
0100
0000
0100
0000
,
0100
0000
0000
0000
,
0010
0000
0010
0000
,
0010
0000
0000
0000
,
1000
0000
1000
0000
,
1000
0000
0000
0000
,
0001
0000
0001
0000
,
0002
0000
0000
0003
;

//---------------dance-single - ----------------
#NOTES:
     dance-single:
     :
     Easy:
     3:
     0.209,0.235,0.000,0.205,0.000:
0000
0000
0000
0000
,
0000
0000
0000
0000
,
0000
0000
0000
0000
,
0000
0000
0000
0000
,
1000
0000
0001
0000
,
1000
0000
0001
0000
,
0100
0000
0010
0000
,
0200
0000
0000
0300
,
0001
0000
0100
0000
,
0001
0100
0010
0000
,
0100
0000
0010
0000
,
0100
0010
1000
0000
,
0100
0000
1000
0000
,
0100
0001
0100
0000
,
0001
0000
0100
0000
,
0001
1000
0010
0000
,
0100
0000
0001
0000
,
0100
0001
1000
0000
,
0001
0000
1000
0000
,
0001
1000
0010
0000
,
0001
0000
0010
0000
,
0001
0100
0001
0000
,
0100
0000
0001
0000
,
0100
0010
1000
0000
,
0010
0000
1000
0000
,
0010
1000
0100
0000
,
1000
0000
0100
0000
,
1000
0100
0001
0000
,
1000
0000
0001
0000
,
1000
0010
1000
0000
,
0010
0000
1000
0000
,
0010
0001
0100
0000
,
0020
0030
0020
0030
,
2000
3000
2000
3000
,
0001
0100
0001
0000
,
0100
0001
0100
0000
,
0000
0002
0003
0002
,
0003
0200
0300
0200
,
0310
1000
0100
0000
,
1000
0001
0100
0000
,
0020
0030
2000
3000
,
0001
0100
0001
0000
,
0020
0030
0002
0003
,
0100
0010
1000
0000
,
0200
0300
2000
3000
,
0010
1000
0001
0000
,
0020
0030
0200
0300
,
1000
0001
0100
0000
,
0010
1000
0100
0000
,
0100
1000
0010
0000
,
0010
0001
0100
0000
,
0100
0001
0010
0000
,
0001
1000
0100
0000
,
0100
1000
0001
0000
,
0010
0001
1000
0000
,
1000
0001
0010
0000
,
2000
0000
3100
0010
,
0002
0000
0103
0010
,
2000
0000
3010
0100
,
0002
0000
0013
0100
,
0020
0000
0031
1000
,
0200
0000
0301
1000
,
0020
0000
1030
0001
,
0200
0000
0000
0300
;

//---------------dance-single - ----------------
#NOTES:
     dance-single:
     :
     Medium:
     6:
     0.355,0.392,0.082,0.189,0.004:
0000
0000
0000
0000
,
0000
0000
0000
0000
,
0000
0000
0000
0000
,
0000
0000
0000
0000
,
1000
0010
0100
0000
,
0001
0100
0010
0000
,
1000
0001
0010
0100
,
2000
0000
0000
0000
,
3001
0100
0010
1000
,
0001
0000
0010
0100
0020
0000
0000
0000
,
0031
0100
0010
1000
,
0010
0000
0100
0001
2000
0000
0000
0000
,
3001
0010
0100
1000
,
0010
0100
0001
0000
0020
0000
0000
0000
,
0031
1000
0010
0100
,
0001
0000
0010
1000
0200
0000
0300
0000
,
0100
0001
1000
0010
,
0100
0000
1000
0001
2000
0001
0000
0000
,
3100
0001
1000
0010
,
1000
0000
0001
0100
0020
1000
0000
0000
,
0130
1000
0001
0010
,
1000
0001
0100
0000
2000
0010
0000
0000
,
3100
0010
1000
0001
,
0010
0000
0001
0100
0002
0010
0003
0000
,
0001
0000
0010
0000
0100
1000
0100
0000
,
0010
0001
0202
0303
,
0010
0000
1000
0000
0100
0010
0100
0000
,
1000
0000
0001
0000
0100
0020
0000
0030
,
0100
0000
0001
0000
0010
0100
1000
0000
,
0001
0100
0220
0330
,
0010
0000
1000
0000
0001
0010
0100
0000
,
1000
0000
0010
0000
0100
0002
0000
0003
,
0100
0200
0000
0000
0310
0020
0000
0000
,
1030
2000
0000
0000
3001
0002
0000
0000
,
0103
0000
0010
0000
1000
0001
1000
0000
,
0010
0000
0100
0000
0001
0010
0100
0000
,
0000
0000
1000
2000
0000
3000
0010
0020
,
0000
0030
0100
0200
0000
0300
0001
1000
,
0001
0000
0100
0000
0010
1000
0001
0000
,
0100
0000
0010
0000
0100
0001
1000
0000
,
0010
0000
1000
0000
0001
0100
0010
0000
,
0100
0000
0001
0000
1000
0100
0010
0000
,
0001
0000
1000
0000
0010
0100
0001
0000
,
1000
0000
0001
0000
0010
0100
1000
0000
,
0001
0000
0100
0000
1000
0100
0001
0000
,
0010
0000
0001
0000
0100
1000
0100
0000
,
0010
0000
0100
0000
1000
0010
0001
0000
,
0100
0000
0010
0000
0100
0001
1000
0010
,
0100
1001
0010
1001
,
0010
1000
0001
0100
0010
0100
0001
1000
,
0010
1001
0100
1001
,
1000
0000
0000
0010
0000
0000
0100
0000
0001
0000
1000
0000
0001
0000
0000
0000
,
0001
0110
1000
0110
,
0001
0100
1000
0100
0001
0000
0010
0000
,
1000
0101
0001
1010
,
1000
0010
0100
0001
0100
0000
0010
0000
,
1000
0001
0000
0001
1000
0000
0010
0000
,
0100
0001
0000
0001
0100
0000
0010
0000
,
1000
0100
0000
0100
1000
0000
0010
0000
,
0100
0001
0000
0010
0100
1000
0001
0000
,
0100
0010
0000
1000
0010
0000
0100
0000
,
0001
0010
0000
0001
0100
0000
0010
0000
,
1000
0100
0000
1000
0001
0000
0100
0000
,
0010
0200
0000
0000
0000
0000
0300
0000
;

//---------------dance-single - ----------------
#NOTES:
     dance-single:
     :
     Hard:
     8:
     0.476,0.498,0.148,0.115,0.045: // measure 1
0000
0000
0000
0000
,  // measure 2
0000
0000
0000
0000
,  // measure 3
0000
0000
0000
0000
,  // measure 4
0000
0000
0000
0000
,  // measure 5
0010
0000
0000
1000
0100
0000
0000
0100
1000
0000
0010
0000
0100
0000
0001
0000
,  // measure 6
0010
0000
0000
0010
0001
0000
0000
0001
0100
0000
0010
0000
1000
0000
0100
0000
,  // measure 7
0010
0000
0000
0001
1000
0000
0000
0010
0100
0000
0001
0000
0010
0000
0100
0000
,  // measure 8
1000
0000
0001
0100
0010
1000
0010
0100
,  // measure 9
0001
0000
0100
0000
0010
1000
0100
0001
,  // measure 10
0100
1000
0010
0000
0110
0000
0101
0000
,  // measure 11
0001
0000
0010
0000
0100
1000
0010
0100
,  // measure 12
0001
0100
0010
0000
0110
0000
1010
0000
,  // measure 13
1000
0000
0010
0000
0100
0001
0010
0001
,  // measure 14
0100
0010
1000
0000
1010
0000
0011
0000
,  // measure 15
0001
0000
0010
0000
0100
1000
0001
0100
,  // measure 16
0010
1000
0010
0000
0101
0000
1010
0000
,  // measure 17
0010
0010
1000
0001
0100
0010
0100
0000
,  // measure 18
0001
0010
0100
1000
0001
0100
0000
0100
,  // measure 19
0001
0010
0100
1000
0001
0100
0010
0000
,  // measure 20
0010
1000
0001
0010
0100
1000
0000
1000
,  // measure 21
0001
0100
0010
0100
0001
1000
0100
0000
,  // measure 22
0010
0001
1000
0010
0100
0001
0000
0010
,  // measure 23
0100
0001
1000
0010
0100
0001
0010
0100
,  // measure 24
1000
0001
0100
0010
1000
0002
0000
0000
,  // measure 25
0103
0000
0001
0000
1000
0010
0001
0100
,  // measure 26
0001
0010
1000
0000
1001
0000
0101
0000
,  // measure 27
0001
0100
0010
0000
1000
0010
0100
0001
,  // measure 28
0010
0100
1000
0000
0001
0100
0000
0100
,  // measure 29
0001
0000
0010
0000
0100
1000
0010
0100
,  // measure 30
0001
0010
0100
0000
1100
0000
0011
0000
,  // measure 31
0001
0100
1000
0000
0010
1000
0010
0100
,  // measure 32
0001
0010
0100
1000
0001
0200
0000
0000
,  // measure 33
0310
0020
0000
0030
1000
2000
0000
3000
,  // measure 34
0100
0200
0000
0300
0001
0002
0000
0000
,  // measure 35
0013
1000
0000
1000
0010
0100
0001
0010
,  // measure 36
0100
1000
0000
1000
0001
0100
0010
2000
,  // measure 37
0000
3000
1000
0200
0000
0300
0100
0002
,  // measure 38
0000
0003
0001
0020
0000
0030
0010
0100
,  // measure 39
0001
1000
0000
1000
0001
0100
0010
1000
,  // measure 40
0100
0010
0000
0010
0100
1000
0001
0100
,  // measure 41
0010
1000
0100
0000
0010
0001
0100
0000
,  // measure 42
0010
1000
0100
0000
0010
0001
0100
0000
,  // measure 43
0100
0001
1000
0000
1000
0001
0100
0000
,  // measure 44
0001
1000
0100
0000
0100
1000
0001
0000
,  // measure 45
0010
0001
1000
0000
1000
0001
0010
0000
,  // measure 46
0010
1000
0001
0000
0001
1000
0010
0000
,  // measure 47
0010
1000
0001
0100
0010
1000
0001
0100
,  // measure 48
0010
1000
0100
0010
0001
0100
0010
1000
,  // measure 49
0001
1100
0010
0101
,  // measure 50
0001
0000
0010
0000
0100
1000
0001
0100
,  // measure 51
0010
0101
0100
1010
,  // measure 52
0010
0000
1000
0100
0000
1000
0100
0000
0010
0000
0001
0000
0100
0000
0010
0000
,  // measure 53
1000
0000
1100
0000
1000
0010
0001
0010
,  // measure 54
1000
0020
0000
0230
0000
0302
0000
1003
,  // measure 55
0100
1100
0000
1000
0010
0010
0100
0100
,  // measure 56
0001
0000
0100
0000
0010
1000
0010
1000
0000
0001
0010
0000
0100
0000
1000
0000
,  // measure 57
0001
0010
0000
0001
0100
0010
1000
0100
,  // measure 58
0010
0100
0000
1000
0001
0100
0010
0000
,  // measure 59
0100
0001
0000
0010
0100
1000
0001
0100
,  // measure 60
0010
1000
0000
1000
0010
0100
0001
0000
,  // measure 61
0100
1000
0000
0100
0001
1000
0010
0001
,  // measure 62
1000
0001
0000
0010
0100
0001
1000
0000
,  // measure 63
0001
0100
0000
0100
0001
0010
0100
1000
,  // measure 64
0100
0020
0000
0000
0000
0000
0000
0030
;
