#TITLE:Feldschlacht III;
#SUBTITLE:;
#ARTIST:Masashi Hamauzu;
#TITLETRANSLIT:;
#SUBTITLETRANSLIT:;
#ARTISTTRANSLIT:;
#GENRE:;
#CREDIT:;
#BANNER:bn.png;
#BACKGROUND:bg.png;
#LYRICSPATH:;
#CDTITLE:Kil.png;
#MUSIC:FeldschlachtIII.mp3;
#OFFSET:-0.440;
#SAMPLESTART:12.700;
#SAMPLELENGTH:16.680;
#SELECTABLE:YES;
#BPMS:0.000=154.000
;
#STOPS:
;
#BGCHANGES:;
#KEYSOUNDS:;
#ATTACKS:;

//---------------pump-double - ----------------
#NOTES:
     pump-double:
     :
     Easy:
     1:
     0.000,0.000,0.000,0.000,0.000,0.000,0.000,0.000,0.000,0.000,0.000,0.000,0.000,0.000,0.000,0.000,0.000,0.000,0.000,0.000,0.000,0.000:
0000000000
0000000000
0000000000
0000000000
;

//---------------dance-single - ANOTHER----------------
#NOTES:
     dance-single:
     :
     Challenge:
     10:
     0.829,0.917,0.352,0.312,0.568,511.000,35.000,31.000,76.000,0.000,3.000,0.829,0.917,0.352,0.312,0.568,511.000,35.000,31.000,76.000,0.000,3.000: // measure 0
1000
0000
0010
0100
0001
0000
0100
0010
1000
0000
0001
0010
0100
0000
1000
0100
,  // measure 1
0010
0000
0001
1000
0010
0000
0100
0001
0100
0000
0010
1000
0001
0000
0010
0100
,  // measure 2
1000
0000
0100
0010
0001
0000
0100
0010
0100
0000
0001
0010
0100
0000
1000
0100
,  // measure 3
0010
0000
0001
1000
0010
0000
0100
0001
0100
0010
0000
1000
0001
0010
0100
0000
,  // measure 4
1000
0010
0100
0001
0100
0010
1000
0001
,  // measure 5
0010
0100
0001
0100
1000
0001
0100
0010
,  // measure 6
0100
0001
0010
0100
1000
0001
0100
0010
,  // measure 7
1000
0000
MM11
0011
MM00
0001
0100
0000
,  // measure 8
0010
0000
1000
0100
0010
0100
1000
0001
,  // measure 9
0100
0010
0100
0001
0010
0100
1000
0001
,  // measure 10
0100
1000
0100
0001
0010
0100
0010
0100
,  // measure 11
1000
0001
0100
0010
0100
0001
0010
0100
,  // measure 12
1000
0001
0201
0000
M32M
0000
2M3M
0000
,  // measure 13
3MM2
0000
M023
0230
M302
0000
02M3
2300
,  // measure 14
302M
M23M
M3M2
2MM3
,  // measure 15
32MM
0000
M32M
0000
M23M
0000
23M0
3002
,  // measure 16
0103
0010
1000
0001
0010
0100
1000
0010
,  // measure 17
0110
0000
0000
0000
MMMM
0000
0000
0000
0010
0000
1000
0010
0100
0001
0000
0001
,  // measure 18
0100
0000
0010
0000
1010
0000
1000
0000
0100
0000
0010
0000
0110
0000
0100
1000
,  // measure 19
0100
0010
0001
0010
0001
0000
0100
0000
0010
0000
1001
0000
0100
0010
0000
0000
,  // measure 20
0100
0000
0001
0000
0101
0000
0100
0000
0010
0000
1000
0000
1100
0000
0001
0100
,  // measure 21
0001
0100
1000
0100
1000
0000
0010
0000
0100
0000
0101
0000
1000
0010
0000
0100
,  // measure 22
0001
0000
0100
0000
1100
0000
0100
0000
0010
0000
1000
0000
1001
0000
0001
0010
,  // measure 23
0100
0010
0001
0100
0010
0000
1000
0000
0100
0000
0010
0000
0001
2000
0000
0000
,  // measure 24
3010
0000
0100
0000
0101
0000
1000
0000
0100
0000
1000
0000
1001
0000
0001
0100
,  // measure 25
0010
1000
0100
0010
0001
0000
0010
0000
0100
0000
1000
0000
0010
0000
0100
0000
,  // measure 26
0001
0000
0100
0000
1000
0000
0100
0000
0010
0000
1000
0000
0001
0000
0010
0100
,  // measure 27
1000
0100
0010
0001
1000
0000
0010
0000
0100
0000
0001
0000
0100
0010
0000
0010
,  // measure 28
1000
0000
0001
0000
0010
0000
0100
0000
0001
0000
0100
0000
0010
0000
0001
0100
,  // measure 29
0010
0100
0001
0010
0100
0000
1000
0000
0100
0000
0010
0000
0001
1000
0000
1000
,  // measure 30
0010
0000
0100
0000
0001
0000
0100
0000
0010
0000
1000
0000
0001
0000
0010
0100
,  // measure 31
1000
0100
0010
0001
1000
0000
0010
0000
0100
0000
0001
0000
0100
0010
0000
0010
,  // measure 32
1000
0000
0001
0000
0010
0000
0100
0000
1000
0000
0100
0000
0010
0000
0001
1000
,  // measure 33
0010
0100
0001
0100
0010
0000
1000
0000
1001
0000
1001
0000
0100
0010
0100
0000
,  // measure 34
0001
0000
1000
0100
10MM
0100
1000
0000
0010
0000
0100
0001
M1M0
0001
0100
0000
,  // measure 35
0010
0000
1000
0001
1MM0
0001
1000
0000
0001
0000
0010
0100
M01M
0100
0010
0000
,  // measure 36
0001
0000
1000
0010
010M
0010
1000
0000
0001
0000
0010
0100
M001
0100
0010
0000
,  // measure 37
0001
0000
0100
1000
010M
0010
1000
0000
0001
0000
0010
0100
1000
0001
0100
0000
,  // measure 38
M0M1
0100
0001
0100
0010
1000
0010
1000
010M
1000
0100
1000
0001
0010
0001
0010
,  // measure 39
M100
0010
0100
0010
0001
1000
0001
1000
0M10
1000
0010
1000
0100
0001
0100
0001
,  // measure 40
01M0
1000
0010
0100
0004
1000
0010
0100
0000
1000
0010
0100
0000
1000
0010
0100
,  // measure 41
M000
0010
0100
1000
0000
0010
0100
1000
0003
0010
0000
0100
1000
0000
0010
0000
,  // measure 42
0100
0001
0101
0100
0010
1000
1010
1000
,  // measure 43
0100
0000
1000
0000
1001
0000
0001
0000
0100
0000
0110
0000
0010
1000
0000
0000
,  // measure 44
1000
0100
1100
1000
0010
0100
0101
0001
,  // measure 45
0010
0000
0100
0000
0101
0000
0100
0000
0010
0000
0011
0000
0001
0100
0000
0000
,  // measure 46
0100
0010
1010
1000
0100
1000
1010
0010
,  // measure 47
0100
0000
0001
0000
0101
0000
0100
0000
0010
0000
0110
0000
0010
1000
0000
0000
,  // measure 48
1000
0100
1100
1000
0001
0100
0110
0010
,  // measure 49
1000
0000
0001
0000
0011
0000
0010
0000
0100
0000
1100
0000
1000
0001
0MM0
1000
,  // measure 50
0001
0100
2000
0100
3020
1000
0230
0001
,  // measure 51
2300
0001
3200
0010
0302
1000
0013
0100
,  // measure 52
0001
0010
0200
0000
2300
0000
3M20
0000
,  // measure 53
M230
0000
M3M2
0000
2MM3
0000
310M
0010
,  // measure 54
0001
0100
M11M
0010
1000
1MM1
0001
0010
,  // measure 55
M44M
0000
0000
0000
0030
0000
0000
0000
0310
0000
0001
0100
0010
1000
0000
1000
,  // measure 56
0001
0000
M000
000M
0M00
0000
00M0
M000
000M
0000
00M0
0M00
M000
0000
0M00
00M0
,  // measure 57
000M
0000
0000
0000
;

//---------------dance-single - HYPER----------------
#NOTES:
     dance-single:
     :
     Hard:
     8:
     0.539,0.458,0.000,0.352,0.035,340.000,0.000,35.000,12.000,0.000,16.000,0.539,0.458,0.000,0.352,0.035,340.000,0.000,35.000,12.000,0.000,16.000: // measure 0
0010
0000
1000
0100
0001
0100
0010
0001
,  // measure 1
0000
0100
0000
0010
0000
1000
0001
0010
,  // measure 2
0100
0000
1000
0010
0100
0001
0100
0010
,  // measure 3
1000
0100
0000
0100
1000
0010
0100
0001
,  // measure 4
0010
0000
0100
0000
0010
0001
0100
0010
,  // measure 5
0100
0001
0010
0100
1000
0000
0001
0000
,  // measure 6
0100
0000
0010
0000
1000
0000
0100
1000
,  // measure 7
0010
0000
0100
0001
0000
0001
0100
0000
,  // measure 8
0010
0000
1000
0000
0100
0001
0100
0010
,  // measure 9
0001
0000
0100
0010
0100
0000
0001
0000
,  // measure 10
0010
0000
0100
0000
1000
0000
0001
0100
,  // measure 11
1000
0000
0100
0010
0000
1000
0001
0000
,  // measure 12
0010
0200
2300
3020
,  // measure 13
0230
0000
0302
0000
0023
0000
0130
1000
,  // measure 14
0002
0203
0320
2030
,  // measure 15
3002
0000
0023
0000
0230
0000
1300
0010
,  // measure 16
0100
0100
0001
0010
0010
0001
1000
0010
,  // measure 17
0200
0000
0000
0000
0000
0000
0000
0000
0310
0000
1000
0000
0001
0010
0000
0001
,  // measure 18
0010
0001
0100
0010
0000
0010
0100
0001
,  // measure 19
0010
0100
1000
0001
0000
0001
0100
0010
,  // measure 20
0100
0001
0010
0100
0000
1000
0010
0100
,  // measure 21
1000
0100
0001
0010
0000
0100
0010
0001
,  // measure 22
0100
0010
1000
0001
0000
0010
0100
1000
,  // measure 23
0001
0100
0010
0100
0000
0001
0010
0100
,  // measure 24
0001
0100
1000
0001
0000
0100
0010
0100
,  // measure 25
0001
0010
0100
1000
0000
0010
0100
0001
,  // measure 26
0010
0100
0001
0100
1000
0001
0100
1000
,  // measure 27
0100
0010
1000
0001
0010
0100
0010
0000
,  // measure 28
0001
0100
0010
0100
0001
0010
0100
1000
,  // measure 29
0010
0100
1000
0100
0001
1000
0100
0001
,  // measure 30
0100
0010
0001
0100
0010
0100
0001
0010
,  // measure 31
0100
1000
0010
0100
1000
0100
0010
0000
,  // measure 32
1000
0001
0010
0100
1000
0100
0010
0001
,  // measure 33
1000
0010
0100
0001
0100
0010
1000
0001
,  // measure 34
0040
0034
0403
43M0
,  // measure 35
340M
034M
403M
3M04
,  // measure 36
0043
M430
430M
34M0
,  // measure 37
034M
M034
M403
0340
,  // measure 38
103M
0000
0100
0000
0010
0100
1000
0002
,  // measure 39
0000
0203
0000
0320
0000
1030
0100
1000
,  // measure 40
0001
0000
0100
0010
0100
0001
0010
0200
,  // measure 41
0000
0000
2300
0000
0000
0000
3001
0000
0100
0010
0000
0100
0001
0000
0010
0000
,  // measure 42
0100
1000
0010
0000
0100
0001
0100
0000
,  // measure 43
0010
1000
0001
0010
0100
0001
0100
0000
,  // measure 44
0010
0001
0100
0000
0010
1000
0001
0000
,  // measure 45
0010
0000
0100
1000
0000
1000
0001
0000
,  // measure 46
0100
0000
0010
0000
1000
0100
0010
0100
,  // measure 47
1000
0000
0010
0100
0001
0000
0100
0000
,  // measure 48
0010
0000
1000
0001
0010
0000
0100
1000
,  // measure 49
0001
0000
0000
0000
0100
0000
0010
0000
0000
0000
0010
0000
0100
0001
0000
0000
,  // measure 50
0020
0230
2300
3020
,  // measure 51
0230
0000
2300
0000
3200
0000
0310
1000
,  // measure 52
0002
0023
0230
0302
,  // measure 53
0203
0000
2300
0000
3002
0000
0103
0010
,  // measure 54
1000
1000
0100
0001
0001
0100
0010
0001
,  // measure 55
2000
0000
0000
0000
0000
0000
0000
0000
3010
0000
0100
0000
0001
0100
0000
0010
,  // measure 56
2000
0000
0000
0000
,  // measure 57
3000
0000
0000
0000
;

//---------------dance-single - NORMAL----------------
#NOTES:
     dance-single:
     :
     Medium:
     5:
     0.382,0.401,0.020,0.332,0.000,231.000,2.000,33.000,0.000,0.000,0.000,0.382,0.401,0.020,0.332,0.000,231.000,2.000,33.000,0.000,0.000,0.000: // measure 0
0010
0010
1000
1000
,  // measure 1
0001
0100
0010
0000
0100
0001
0010
0000
,  // measure 2
0100
0100
0001
0001
,  // measure 3
0100
1000
0001
0100
1000
0100
0010
0000
,  // measure 4
1000
0000
0100
0000
0010
0001
0100
0000
,  // measure 5
0010
0100
0001
0001
,  // measure 6
0010
0000
0100
0000
1000
0001
0100
0000
,  // measure 7
0010
0100
0001
0001
,  // measure 8
0010
0000
0100
0000
1000
0010
0100
0000
,  // measure 9
0001
0100
0010
0010
,  // measure 10
1000
0000
0100
0000
0001
0100
1000
0000
,  // measure 11
0001
0100
0010
0010
,  // measure 12
1000
0200
0320
0230
,  // measure 13
1300
0002
0203
0320
,  // measure 14
0130
0002
0023
0230
,  // measure 15
1300
0020
0230
0302
,  // measure 16
1003
0000
0000
0001
0000
0000
0100
0000
,  // measure 17
0110
0000
0010
1000
,  // measure 18
0001
0000
0010
0100
0000
0000
0010
0000
,  // measure 19
0001
0000
0100
0010
0000
0000
1000
0000
,  // measure 20
0100
0000
1000
0001
0000
0000
0100
0000
,  // measure 21
0010
0000
1000
0100
0000
1000
0100
0000
,  // measure 22
0010
0000
0001
0100
0000
0000
0001
0000
,  // measure 23
0010
0000
0100
1000
0000
0000
0001
0000
,  // measure 24
0100
0000
0010
0100
0000
0000
0001
0000
,  // measure 25
0010
0000
0100
1000
0000
0001
0100
0000
,  // measure 26
0010
0100
0001
0010
,  // measure 27
0100
0000
1000
0000
0010
0100
0010
0000
,  // measure 28
1000
0001
0010
0100
,  // measure 29
0001
0000
0100
0000
1000
0010
0100
0000
,  // measure 30
0001
0100
0010
1000
,  // measure 31
0100
0000
0010
0000
0001
0100
0010
0000
,  // measure 32
0100
0001
0010
1000
,  // measure 33
0010
0000
0001
0000
0100
0010
0100
0000
,  // measure 34
0002
0003
0020
0030
,  // measure 35
0200
0300
2000
3000
,  // measure 36
0020
0030
0200
0300
,  // measure 37
2000
3000
0200
0300
,  // measure 38
0001
0010
0100
0100
,  // measure 39
1000
0001
0010
0010
,  // measure 40
0100
1000
0001
0001
,  // measure 41
0100
0010
1000
1000
,  // measure 42
0100
1000
0100
0010
,  // measure 43
0001
0000
1000
0000
0010
0100
0001
0000
,  // measure 44
0100
0010
1000
0100
,  // measure 45
0010
0000
0001
1000
0000
0000
0010
0000
,  // measure 46
1000
0100
0001
0100
,  // measure 47
0010
0000
0001
0000
0100
0010
0100
0000
,  // measure 48
0001
0010
0100
1000
,  // measure 49
0010
0000
0100
0001
0000
0000
1000
0000
,  // measure 50
0010
0200
0302
0023
,  // measure 51
0130
0020
0032
2003
,  // measure 52
3010
0200
0302
2003
,  // measure 53
3100
2000
3020
0230
,  // measure 54
0301
0000
0000
0100
0000
0000
0010
0000
,  // measure 55
1001
0000
0000
0000
1000
0010
0000
0100
,  // measure 56
0002
0000
0000
0000
,  // measure 57
0003
0000
0000
0000
;
