#TITLE:Equestria Girls;
#ARTIST:Pinkie Pie;
#FILE:Pinkie Pie - Equestria Girls.mp3;
#BPM:125.000;
#GAP:-1200;
#SAMPLESTART:50.590;
#SAMPLELENGTH:15.300;
#SINGLE:BASIC:4:
00000000
00000000
00000000
40204080
40002000
60206080
60002000
80402040
80002000
80602060
80002000
40602000
60402000
80604000
80406000
20804060
20008000
20604080
20006000
4!40200010
6!60200030
8!80400070
2!20600030
60208!8000
70204!4000
70206!6000
B06040B0
80206000
40602000
80402000
40602000
80402000
80602000
60406040
80208020
40602000
80206000
40806000
80206000
40806000
40206000
20802080
40604060
B0008000
20008040
60002000
80004060
;
#SINGLE:ANOTHER:5:
00000000
00000000
00000000
40200420
80600860
20804060
80020080
60200620
80400840
80206040
20080020
80600860
40200420
60408020
40646040
20600260
40800480
40602080
60464060
40602008
04060000
20604020
40608000
20406002
06040020
40802006
04060460
40602008
00408020
60402004
006020A0
80406002
00804080
02626206
04848480
60804002
00602040
80604006
00804010
20608004
00206020
04848408
06262620
60804262
00804020
40602840
80206420
80000000
;
#SINGLE:MANIAC:7:
00000000
00000000
00000000
40600462
80200284
68248020
60240826
40200242
80602620
84826020
60204840
80206264
20804846
20408280
40604628
40802620
40802820
60802420
80602626
40686424
08026260
20408462
08048480
40604826
02084840
84206084
06284820
60402086
06824240
60802042
024080A0
60208048
02648020
84282402
08626460
40604028
08284260
80204064
046020A0
84208062
048260B0
06828604
02868240
B0602428
60802460
26404620
68248260
;
