#TITLE:,~_Smile!_~,;
#SUBTITLE:;
#ARTIST:Foozogz;
#TITLETRANSLIT:;
#SUBTITLETRANSLIT:;
#ARTISTTRANSLIT:;
#CREDIT:;
#BANNER:;
#BACKGROUND:;
#LYRICSPATH:;
#CDTITLE:;
#MUSIC:,~_Smile!_~,.mp3;
#OFFSET:-11.040;
#SAMPLESTART:35.810;
#SAMPLELENGTH:12.000;
#SONGLENGTH:105.000;
#SELECTABLE:YES;
#BPMS:0.000=194.001;
#STOPS:;
#BGCHANGES:;

//---------------dance-single - ----------------
#NOTES:
     dance-single:
     :
     Hard:
     9:
     0.670,0.585,0.356,0.009,0.026: // measure 1
1000
0000
0100
1000
0100
0000
0010
0000
,  // measure 2
0001
0100
0000
0100
0001
0000
0010
0000
,  // measure 3
0100
1000
0001
0100
,  // measure 4
0001
0010
0100
1000
,  // measure 5
0001
0000
0100
0010
1000
0000
0010
0000
,  // measure 6
0100
0001
0010
0000
0100
0000
1000
0000
,  // measure 7
0010
0010
0010
0010
,  // measure 8
0010
0000
0010
0000
0010
0000
0010
0001
,  // measure 9
0100
0100
0100
0100
,  // measure 10
0100
0100
0100
0100
,  // measure 11
1000
0000
0010
0100
0000
0001
0000
0100
,  // measure 12
0000
0010
0000
1000
0001
0000
0010
0000
,  // measure 13
0001
0000
0100
0010
0000
1000
0000
0001
,  // measure 14
0010
0100
1000
0100
,  // measure 15
0010
0000
0001
0100
0000
0100
0001
1000
,  // measure 16
0100
0000
0010
0100
0000
1000
0001
0100
,  // measure 17
0010
0000
1000
0010
0000
0010
0100
0000
,  // measure 18
0001
0100
0010
1000
,  // measure 19
0001
0000
0000
1000
0000
0000
1001
0000
,  // measure 20
0000
1100
0000
0000
0101
0000
1010
0000
,  // measure 21
0010
1000
0100
1000
0010
0100
0001
0000
,  // measure 22
0010
0001
0100
0010
1000
0001
0010
0000
,  // measure 23
0100
1000
0100
0010
0001
1000
0010
0000
,  // measure 24
0010
1000
0100
0001
0100
1000
0010
0000
,  // measure 25
0010
0100
0001
0010
0100
1000
0100
0000
,  // measure 26
0010
0001
0100
1000
0100
0001
0010
0000
,  // measure 27
0001
0010
0100
0000
1000
0010
0100
0000
,  // measure 28
0001
0010
0001
0100
0010
1000
0001
0010
,  // measure 29
0100
0000
0000
0000
1000
0000
0000
0000
0100
0000
0000
0000
1000
0000
0000
1000
,  // measure 30
0010
0000
0000
0100
0000
0000
0101
0000
0000
0000
0001
0000
0010
0000
0001
0000
,  // measure 31
0010
0000
0100
1000
0100
0000
0010
0001
,  // measure 32
0000
0101
0000
1010
0000
1100
0000
0001
,  // measure 33
0100
0010
1000
0001
0010
0100
1000
0100
,  // measure 34
0001
0000
0001
0000
,  // measure 35
0100
0100
0100
0000
,  // measure 36
0010
0000
0010
0000
,  // measure 37
1000
1000
1000
1000
,  // measure 38
1000
0000
0010
0000
,  // measure 39
0100
0100
0100
0000
,  // measure 40
0001
0000
0001
0000
,  // measure 41
0010
0000
0010
0000
,  // measure 42
0010
0001
0100
0010
1000
0001
0010
0000
,  // measure 43
1100
0101
1100
0101
,  // measure 44
0010
1000
0100
1000
0010
0100
0001
0000
,  // measure 45
0011
1010
0011
1010
,  // measure 46
0010
0100
0001
0010
0100
1000
0100
0000
,  // measure 47
0011
0101
0011
0101
,  // measure 48
0001
0100
1000
0100
0001
0010
0100
0000
,  // measure 49
1010
1100
1001
0000
,  // measure 50
1000
0001
0100
0010
1000
0001
0010
0100
,  // measure 51
1000
1100
0001
0101
,  // measure 52
0001
0010
0001
0100
0010
1000
0100
0010
,  // measure 53
0100
1001
0010
1001
,  // measure 54
0001
0100
0010
1000
0001
0010
0100
1000
,  // measure 55
0100
0011
0100
0101
,  // measure 56
0010
1000
0001
0010
0100
1000
0100
0010
,  // measure 57
0001
1001
1010
1100
,  // measure 58
0001
0100
0010
1000
0001
0010
0100
1000
,  // measure 59
0100
1100
0001
0101
,  // measure 60
0001
0010
0001
0100
0010
1000
0001
0010
,  // measure 61
0001
0101
0100
0110
,  // measure 62
0010
1000
0100
1000
0010
0100
0001
0010
,  // measure 63
0001
0101
1000
1100
,  // measure 64
0001
0010
1000
0010
0001
0100
1000
0100
,  // measure 65
0001
0101
1000
1100
,  // measure 66
1001
0000
1001
0000
,  // measure 67
0110
0000
0110
0000
,  // measure 68
0011
0000
0101
0000
,  // measure 69
1010
0000
1100
0000
,  // measure 70
1000
0100
1000
0100
1000
0010
1000
0010
,  // measure 71
0100
0001
0100
0001
0010
0001
0010
0001
,  // measure 72
0100
0001
0100
0001
1000
0001
1000
0001
,  // measure 73
0100
0010
0100
0010
1000
0001
1000
0001
,  // measure 74
1000
0001
0100
0010
1000
0001
0010
0100
,  // measure 75
1000
0100
0010
0001
1000
0010
0100
0000
,  // measure 76
0101
0000
1010
0000
,  // measure 77
0010
0000
1000
0000
0001
0000
0010
0000
0100
1000
0100
1000
0001
0010
0001
0010
,  // measure 78
0002
0000
0000
0000
,  // measure 79
0000
0000
0000
0000
,  // measure 80
0003
0000
0000
0000
;

//---------------dance-single - ----------------
#NOTES:
     dance-single:
     :
     Medium:
     6:
     0.495,0.366,0.070,0.010,0.030:
0010
0000
1000
0100
1000
0000
0010
0000
,
0100
0001
0010
0010
,
0001
0100
0010
1000
,
0001
0010
0100
1000
,
0100
0000
0010
0001
0010
0000
0100
0000
,
1000
0001
0100
0001
,
0010
1000
0100
0001
,
0100
0010
1000
0001
,
0010
0001
0010
0001
,
1000
0100
1000
0100
,
1000
0000
0100
0010
0000
0001
0000
0010
,
0000
0100
0000
0000
1000
0000
0010
0000
,
0100
0000
0001
0100
0000
0001
0000
0010
,
0000
0100
0000
0000
1000
0000
0100
0000
,
0010
0001
1000
0010
,
0100
0001
0100
0010
,
1000
0001
0010
0100
,
1000
0000
0001
0000
,
1010
0000
0000
1001
0000
0000
0101
0000
,
0000
1001
0000
0000
0110
0000
0110
0000
,
0010
0000
1000
0000
0010
1000
0010
0000
,
0100
0000
0001
0000
0100
0001
0100
0000
,
0001
0000
0010
0000
0001
0010
0001
0000
,
1000
0000
0100
0000
1000
0100
1000
0000
,
0010
0000
1000
0000
0100
0010
0100
0000
,
1000
0000
0010
0000
0100
0001
0010
0000
,
0001
0000
0100
0000
0010
1000
0001
0000
,
0010
0000
0100
0000
1000
0100
0010
0000
,
0001
0000
1000
0001
0000
0001
1000
0000
,
0010
0000
0100
0010
0000
0010
0100
0000
,
0001
0000
0010
0001
0000
1000
0100
0000
,
1000
0010
0000
0010
1000
0000
0010
0000
,
0100
0001
1000
0010
1000
0001
0100
0000
,
0010
0000
1000
0000
,
0010
0010
0010
0000
,
0100
0000
0001
0000
,
0100
0100
0100
0100
,
0010
0000
1000
0000
,
0100
0100
0100
0000
,
0010
0000
0001
0000
,
0100
0000
0000
0000
,
1000
0010
1000
0000
0001
0000
0010
0000
,
0001
0100
0001
0000
,
0010
0001
1000
0000
0100
0000
1000
0000
,
0010
0100
0010
0100
,
0001
0100
0001
0000
1000
0000
0100
0000
,
1000
0010
1000
1000
,
0010
0001
0010
0001
0010
0000
0100
0000
,
2000
0000
3001
0000
,
0001
0100
0001
0000
0010
0000
0100
0000
,
0010
1000
0010
0000
,
0100
0001
0100
0000
0010
0000
1000
0000
,
0100
0001
0100
1000
,
0010
1000
0010
0000
0100
0000
0001
0000
,
0010
0100
1000
0001
,
0100
0010
0100
0010
0100
0000
0001
0000
,
0020
0000
0130
0000
,
0010
1000
0010
0000
0100
0000
0001
0000
,
0100
0010
1000
0000
,
0001
0010
0001
0000
1000
0000
0100
0000
,
0010
0100
1000
0000
,
0010
0100
0010
0000
0100
0000
0010
0000
,
1000
0001
1000
0000
,
0001
0100
0001
0000
0100
0000
0010
0000
,
1000
0100
1000
0000
,
0010
0000
0100
0000
,
0001
0000
1000
0000
,
0100
0000
0010
0000
,
0001
0000
1000
0000
,
0010
0100
0010
0100
,
0001
1000
0001
1000
,
0001
0100
0001
0100
,
0010
1000
0010
1000
,
0001
0010
0001
0010
,
0100
1000
0100
1000
,
1001
0000
0110
0000
,
1000
0100
0010
0001
0010
0100
1000
0001
,
0010
0000
0000
0000
;

//---------------dance-single - ----------------
#NOTES:
     dance-single:
     :
     Easy:
     4:
     0.344,0.242,0.042,0.000,0.000:
1000
0000
0100
0000
,
1000
0000
0000
0000
,
0001
0000
0100
0000
,
0001
0000
0000
0000
,
1000
0000
0010
0000
,
1000
0000
0000
0000
,
0001
0000
0010
0000
,
0001
0000
0000
0000
,
0100
0000
0000
0000
,
0010
0000
0000
0000
,
1000
0000
0100
0000
,
1000
0000
0100
0000
,
0010
0000
0001
0000
,
0010
0000
0001
0000
,
1000
0000
0010
0000
,
1000
0000
0010
0000
,
0100
0000
0001
0000
,
0100
0000
0001
0000
,
0010
0000
0000
0000
,
0100
0000
0000
0000
,
1000
0100
1000
0100
,
1000
0010
1000
0010
,
0100
0001
0100
0001
,
0010
0000
0001
0000
,
0010
0001
0010
0001
,
1000
0100
1000
0100
,
0001
0100
0001
0100
,
0010
0000
1000
0000
,
0010
0000
0001
0000
,
0100
0000
0010
0000
,
1000
0000
0100
0000
,
0010
0000
0001
0000
,
0100
0000
0010
0000
,
0110
0000
0000
0000
,
1000
0000
0000
0000
,
0100
0000
0000
0000
,
0001
0000
0000
0000
,
0010
0000
0000
0000
,
0001
0000
0000
0000
,
0100
0000
0000
0000
,
1000
0000
0000
0000
,
0010
1000
0010
1000
,
0010
0010
1000
1000
,
0001
0100
0001
0100
,
0001
0001
0100
0100
,
0001
0010
0001
0010
,
0001
0001
0010
0010
,
1000
0100
1000
0100
,
1000
1000
0100
0100
,
1000
0010
0100
0001
,
0010
0100
1000
1000
,
0010
0100
0001
0010
,
0100
0010
0001
0001
,
0010
0001
0100
1000
,
0010
1000
0100
0100
,
0010
0001
0100
1000
,
0100
0000
0100
0000
,
0010
0001
0010
0001
,
1000
0100
1000
0100
,
0010
0100
0010
0100
,
0010
0001
0010
0001
,
0100
0010
1000
0001
,
0010
0100
0010
0001
,
0100
0010
1000
0001
,
0010
0100
1000
0000
,
1000
0010
1000
0000
,
0010
0100
0010
0000
,
0001
0100
0001
0000
,
0010
0001
0010
0000
,
0100
1000
0010
0000
,
0010
0001
0100
0000
,
0010
1000
0100
0000
,
0100
1000
0010
0000
,
0100
0001
0010
0000
,
0010
0001
1000
0000
,
1001
0000
0110
0000
,
0011
0000
1100
0000
,
1001
0000
0000
0000
;

//---------------dance-single - ----------------
#NOTES:
     dance-single:
     :
     Beginner:
     1:
     0.188,0.148,0.000,0.000,0.000:
1000
0000
1000
0000
,
1000
0000
1000
0000
,
0001
0000
0001
0000
,
0001
0000
0001
0000
,
1000
0000
0001
0000
,
1000
0000
0001
0000
,
0100
0000
0000
0000
,
0000
0000
0000
0000
,
0010
0000
0000
0000
,
0000
0000
0000
0000
,
1000
0000
0000
0000
,
0001
0000
0000
0000
,
1000
0000
1000
0000
,
1000
0000
0000
0000
,
0001
0000
0000
0000
,
1000
0000
0000
0000
,
0001
0000
0001
0000
,
0001
0000
0000
0000
,
0100
0000
0000
0000
,
0010
0000
0000
0000
,
0100
0000
0100
0000
,
0100
0000
0000
0000
,
0010
0000
0010
0000
,
0010
0000
0000
0000
,
1000
0000
1000
0000
,
1000
0000
0000
0000
,
0001
0000
0001
0000
,
0001
0000
0000
0000
,
0010
0000
0000
0000
,
0001
0000
0000
0000
,
0100
0000
0000
0000
,
1000
0000
0000
0000
,
0010
0000
0000
0000
,
0010
0000
0000
0000
,
0100
0000
0000
0000
,
0001
0000
0000
0000
,
1000
0000
0000
0000
,
0010
0000
0000
0000
,
1000
0000
0000
0000
,
0100
0000
0000
0000
,
0001
0000
0000
0000
,
0010
0000
0001
0000
,
0010
0000
0001
0000
,
1000
0000
0100
0000
,
1000
0000
0000
0000
,
1000
0000
0100
0000
,
1000
0000
0100
0000
,
0010
0000
0001
0000
,
0010
0000
0000
0000
,
0010
0000
0001
0000
,
0100
0000
0000
0000
,
0010
0000
1000
0000
,
0100
0000
0000
0000
,
1000
0000
0010
0000
,
0001
0000
0000
0000
,
0001
0000
0100
0000
,
1000
0000
0000
0000
,
0010
0000
0000
0000
,
1000
0000
0000
0000
,
0100
0000
0000
0000
,
0001
0000
0000
0000
,
0010
0000
0000
0000
,
0001
0000
0000
0000
,
0100
0000
0000
0000
,
1000
0000
0000
0000
,
0010
0000
0010
0000
,
0010
0000
0000
0000
,
1000
0000
1000
0000
,
1000
0000
0000
0000
,
0001
0000
0001
0000
,
0001
0000
0000
0000
,
0100
0000
0100
0000
,
0100
0000
0000
0000
,
0010
0000
0000
0000
,
1000
0000
0000
0000
,
0001
0000
0000
0000
,
0100
0000
0000
0000
,
1001
0000
0000
0000
;
