#TITLE:Wheel Of Fire;
#SUBTITLE:;
#ARTIST:Dave Rogers;
#TITLETRANSLIT:;
#SUBTITLETRANSLIT:;
#ARTISTTRANSLIT:;
#GENRE:;
#CREDIT:locuuraa;
#BANNER:Wheel Of Fire.png;
#BACKGROUND:;
#LYRICSPATH:;
#CDTITLE:;
#MUSIC:Wheel Of Fire.ogg;
#OFFSET:-0.000000;
#SAMPLESTART:38.040031;
#SAMPLELENGTH:15.000000;
#SELECTABLE:YES;
#BPMS:0.000000=153.000000
;
#STOPS:
;
#BGCHANGES:;
#KEYSOUNDS:;
#ATTACKS:;

//---------------para-single - Normal----------------
#NOTES:
     para-single:
     Normal:
     Easy:
     1:
     0.190426,0.493588,0.026527,0.198952,0.361430,201.000000,197.000000,4.000000,30.000000,0.000000,0.000000,0.190426,0.493588,0.026527,0.198952,0.361430,201.000000,197.000000,4.000000,30.000000,0.000000,0.000000:
// measure 0
00000
00000
00000
00000
,  // measure 1
00000
00000
00000
00000
00000
00002
00000
00000
00003
00000
00000
00000
00000
00000
00000
00000
,  // measure 2
00000
00000
20000
00000
00000
30000
00000
00000
00000
00000
00000
00100
00000
00000
00000
00100
,  // measure 3
00010
00001
00000
00000
00000
00000
00000
00000
00000
00000
00000
00100
00000
00000
00000
00000
,  // measure 4
00010
00001
00000
00000
00000
00000
00000
00000
,  // measure 5
00000
00002
00000
00003
00000
00000
00000
00000
,  // measure 6
00000
10000
00000
00000
00000
00000
00000
00000
00000
00000
00100
00000
00000
00000
00100
00000
,  // measure 7
00010
00000
00001
00000
00000
00000
00000
00000
00000
00000
00100
01000
00000
00000
00000
00000
,  // measure 8
00010
00001
00000
00000
10000
01000
00100
00010
,  // measure 9
00001
00000
00000
00100
00000
00000
00000
00000
00000
00000
00000
00100
00000
01000
00000
10000
,  // measure 10
00000
00000
00000
00000
00000
00000
00000
10000
00000
00000
00000
00000
00000
00000
00000
00000
,  // measure 11
00000
00000
00000
00000
,  // measure 12
00000
00000
00000
00000
00000
00000
00000
10000
01000
00100
00010
00001
00000
00000
00000
00000
,  // measure 13
00000
00000
00100
00000
00000
00010
00000
00000
00000
00001
00010
00100
01000
10000
00000
00000
,  // measure 14
00000
00000
00000
00000
00000
10000
00000
00000
00000
00000
00000
00000
00000
00000
00000
00000
,  // measure 15
00000
00000
00000
00000
,  // measure 16
00000
00000
00000
00000
00000
00000
10000
01000
00100
00010
00001
00000
00000
00000
00001
00010
,  // measure 17
00100
01000
10000
00000
00000
00000
10000
01000
00100
00010
00001
00000
00000
00000
00000
00000
,  // measure 18
00000
00000
00000
00000
00000
00000
00000
10000
00000
00000
00000
01000
00000
00000
00000
00100
,  // measure 19
00000
00000
00000
00010
00000
00000
00000
00001
00000
00000
00000
00010
00000
00000
00000
00000
,  // measure 20
00100
00000
00010
00000
10000
00000
00010
00001
00000
00000
00000
00000
00000
00000
00100
01000
,  // measure 21
10000
00000
00000
00000
00000
10000
01000
00010
00001
00000
00000
00000
00000
00010
00100
01000
,  // measure 22
10000
00000
00000
00000
00000
00000
00000
00000
00000
00000
00000
00000
00000
00100
00000
00000
,  // measure 23
00000
00000
00000
00001
00010
00100
00000
00000
,  // measure 24
00000
00000
00000
00000
00000
00000
00000
00000
00002
00000
00000
00000
00003
00000
00000
20000
,  // measure 25
00000
00000
00000
00000
00000
00000
00000
00000
00000
00000
00000
00001
00000
00000
00000
30000
,  // measure 26
00000
00000
00000
00000
,  // measure 27
00000
00000
00000
00000
,  // measure 28
10000
00000
00000
00000
01000
00100
00010
10001
01000
00100
00010
00000
00000
00000
00000
00000
,  // measure 29
00000
00000
00000
00000
00000
00000
00000
20002
00000
00000
00000
30003
00000
00000
00000
00000
,  // measure 30
00000
00000
00000
00000
,  // measure 31
00000
00000
00000
00000
00000
00000
00000
00000
00010
00000
00000
01000
00000
00000
00000
00000
,  // measure 32
00000
00000
00000
00002
00000
00003
00000
20000
,  // measure 33
00000
00000
00000
00000
00000
00000
00000
00000
00001
00000
00000
00000
00000
30000
00000
00000
,  // measure 34
00000
00000
20000
00000
00000
00000
00000
00000
00000
30000
00000
00000
00000
00000
00000
00000
,  // measure 35
00000
00000
00000
00000
,  // measure 36
00000
10000
01000
00100
00010
00001
00000
10000
01000
00100
00010
00000
00000
00000
00000
00000
,  // measure 37
00000
00000
00000
00000
00000
20002
00000
00000
00000
30003
00000
00000
00000
00000
00000
00000
,  // measure 38
00000
00000
00000
00100
00000
00000
00000
00000
,  // measure 39
00000
00000
00000
00000
,  // measure 40
00000
00000
00000
00000
00000
00000
00000
00000
00000
00001
00000
00000
00000
00000
00000
00000
,  // measure 41
00000
00000
00000
00000
00000
00000
00000
00000
00000
10000
00000
00000
00000
00000
00000
00000
,  // measure 42
00100
00000
00000
00000
00100
00010
00001
00000
00000
00000
00000
00000
00000
00000
00000
00100
,  // measure 43
00000
00000
00000
00000
00000
00100
00000
00000
00000
00000
00000
00000
00000
00000
00000
00000
,  // measure 44
00000
00000
00000
00000
00000
00000
00000
00002
00000
00000
00000
00003
00000
00000
00000
00000
,  // measure 45
00000
00000
00000
20000
00000
30000
00000
00000
,  // measure 46
00000
00000
00000
00000
,  // measure 47
00000
00000
00000
00000
00000
00000
00000
00000
00000
00000
00000
00000
00000
00000
10000
01000
,  // measure 48
00100
00010
00001
00000
00000
00000
00001
00010
00100
01000
10000
00000
00000
00000
00000
00000
,  // measure 49
00000
00000
00000
00000
,  // measure 50
00000
00000
00000
00000
,  // measure 51
00000
00000
00000
00000
00000
00000
00000
00000
00000
00000
00000
00000
00000
10000
01000
00100
,  // measure 52
00010
00001
00000
00000
00000
00000
00000
00000
00000
00000
00000
00000
00010
00000
00000
00001
,  // measure 53
00010
00100
01000
10000
00000
00000
00000
00000
00000
10000
00000
00000
00000
00000
00000
00000
,  // measure 54
00000
00000
00000
00000
,  // measure 55
00000
00000
00000
00000
00000
00000
00000
00000
00000
00000
00000
00000
10000
01000
00100
00010
,  // measure 56
00001
00000
00000
00000
00001
00010
00100
01000
10000
00000
00000
00000
10000
01000
00100
00010
,  // measure 57
00001
00001
00000
01000
,  // measure 58
00000
00000
00000
00000
00000
00100
00000
00000
00000
00000
00000
00000
00001
00000
00000
00000
,  // measure 59
00010
00000
00000
00000
00000
00000
00000
00000
00000
10000
01000
00010
00001
00000
00000
00000
,  // measure 60
00000
00000
00000
00010
00100
01000
10000
00000
00000
00000
10000
01000
00100
00010
00001
00000
,  // measure 61
00000
00000
00000
00100
00000
00000
00000
00000
00000
00000
00000
00000
00000
00000
00000
00000
,  // measure 62
00000
00000
00000
00000
,  // measure 63
00000
00000
00000
00000
00000
00000
00000
00002
,  // measure 64
00000
00000
00003
00000
00000
00000
00000
20000
00000
00000
00000
00000
00000
00000
00000
00000
,  // measure 65
00000
00000
00000
00000
00000
00000
00000
30000
00000
00000
00000
00000
00000
00000
00000
00000
,  // measure 66
00000
20000
00000
00000
,  // measure 67
00000
00000
00000
30000
00000
00000
20000
00000
00000
00000
30000
00000
00000
00000
00000
00000
,  // measure 68
00000
00000
00000
00002
,  // measure 69
00003
00000
00000
00000
,  // measure 70
00000
00000
00000
00000
,  // measure 71
00000
00000
00000
00002
,  // measure 72
00003
00000
00000
20000
00000
00000
00000
00000
00000
00000
00000
00000
00000
00000
00000
00000
,  // measure 73
00000
00000
00000
30000
00000
00000
00000
20000
00000
00000
00000
00000
00000
00000
00000
00000
,  // measure 74
00000
00000
00000
30000
00000
00000
00000
00000
,  // measure 75
00000
00000
00000
20000
00000
00000
00000
30000
00000
00000
00000
00000
00000
00000
00000
00000
,  // measure 76
00000
00000
00000
00000
00000
00000
00000
00002
,  // measure 77
00000
00003
00000
00000
00000
00000
00000
00000
,  // measure 78
00000
00000
00000
00000
,  // measure 79
00000
00000
00000
00000
00000
00000
00000
00000
00000
00000
00000
00000
00000
00000
00000
00020
,  // measure 80
00000
00000
00000
00030
00000
00000
00000
00000
00000
00000
00000
00000
00000
02000
00000
00000
,  // measure 81
00000
03000
00000
00000
00000
00000
00000
00000
00000
00000
00100
00000
00000
00000
00000
00000
,  // measure 82
00000
00000
00000
00000
00000
00100
00000
00000
00000
00000
00000
00000
00000
00000
00000
00000
,  // measure 83
00000
00000
00000
00000
00000
00000
00000
00000
00000
00000
00000
00000
00000
00020
00000
00000
,  // measure 84
00000
00030
00000
00000
00000
00000
00000
00000
00000
00000
00000
02000
00000
00000
00000
03000
,  // measure 85
00000
00000
00100
00000
,  // measure 86
00000
00100
00000
00000
,  // measure 87
00000
00000
00000
00000
00000
22000
00000
00000
00000
00000
00000
00000
00000
33000
00000
00000
;
