#TITLE:Start;
#SUBTITLE:;
#ARTIST:De Niro;
#TITLETRANSLIT:;
#SUBTITLETRANSLIT:;
#ARTISTTRANSLIT:;
#GENRE:;
#CREDIT:locuuraa;
#BANNER:Start.png;
#BACKGROUND:;
#LYRICSPATH:;
#CDTITLE:;
#MUSIC:Start.ogg;
#OFFSET:-0.000000;
#SAMPLESTART:65.620163;
#SAMPLELENGTH:15.000000;
#SELECTABLE:YES;
#BPMS:0.000000=105.000000
;
#STOPS:
;
#BGCHANGES:;
#KEYSOUNDS:;
#ATTACKS:;

//---------------para-single - Normal----------------
#NOTES:
     para-single:
     Normal:
     Easy:
     1:
     0.229013,0.392848,0.236522,0.105121,0.420483,244.000000,208.000000,36.000000,16.000000,0.000000,0.000000,0.229013,0.392848,0.236522,0.105121,0.420483,244.000000,208.000000,36.000000,16.000000,0.000000,0.000000:
// measure 0
00000
00000
00000
00000
,  // measure 1
00000
00000
00000
00000
,  // measure 2
00000
00000
00000
00000
,  // measure 3
00000
00000
00000
00000
,  // measure 4
00000
00000
00000
00000
,  // measure 5
00000
00000
00000
00000
,  // measure 6
00000
00000
00000
10001
00000
10001
00000
00000
,  // measure 7
00000
10001
00000
00000
00000
00000
00000
00000
00000
00000
00000
00000
10001
00000
00000
00000
,  // measure 8
10001
00000
00000
00000
00000
00000
00000
10001
00000
00000
00000
00000
00000
00000
00000
00000
,  // measure 9
00000
00000
00000
10001
00000
10001
00000
00000
00000
00000
00000
00000
00000
10001
00000
00000
,  // measure 10
00000
00000
00000
00000
00000
00000
00000
00000
10001
00000
00000
10001
00000
00000
00000
00000
,  // measure 11
00000
00000
00000
10001
00000
00000
00000
00000
00000
01000
00100
00010
00001
00000
00000
00100
,  // measure 12
01000
10000
00000
00000
00000
00000
00000
00000
00000
00000
00000
00000
00000
00000
01000
00100
,  // measure 13
00010
00001
00000
00010
00100
01000
10000
00000
00000
00000
00000
00000
00000
00000
00000
00001
,  // measure 14
00000
00000
00000
00000
00001
00000
00000
00000
00000
00001
00000
00000
00000
00000
00000
10000
,  // measure 15
00000
00000
00000
00000
00000
10000
00000
00000
00000
00000
00000
01000
00100
00010
00000
00010
,  // measure 16
00100
01000
10000
00000
00000
00000
00000
20002
00000
00000
30003
00000
00000
00000
00000
00000
,  // measure 17
00000
01000
00100
00010
00001
00000
00010
00100
01000
00000
00000
00000
00000
00000
00000
00000
,  // measure 18
00000
00000
00000
00000
00000
00000
01000
00100
00010
00001
00000
00010
00100
01000
10000
00000
,  // measure 19
00000
00000
00000
00001
,  // measure 20
00000
00000
00001
00000
00000
00000
00000
10000
00000
00000
00000
00000
00000
10000
00000
00000
,  // measure 21
00000
00000
01000
00100
00010
00001
00000
00010
00100
01000
00000
00000
00000
20002
00000
00000
,  // measure 22
30003
00000
10001
00000
00000
00000
10000
00000
00000
00001
00000
10000
00000
00000
00001
00000
,  // measure 23
00000
00000
00000
00000
00000
00000
00000
10000
00000
00000
10000
00000
00000
00000
00000
00000
,  // measure 24
00000
00000
00000
00000
00000
00000
00000
00000
00000
00000
00000
00000
00000
00001
00000
10000
,  // measure 25
00000
00000
10000
00000
00000
00001
00000
00000
10000
00000
00000
00001
00000
00000
10000
00000
,  // measure 26
00000
00001
00000
00000
10000
00000
00000
00000
00000
00000
00000
00000
00000
00000
00000
00000
,  // measure 27
00000
00000
00000
00000
00000
00000
00000
10001
00000
00000
00000
00000
00000
00000
00000
00000
,  // measure 28
00000
00020
00000
00000
00000
00030
00000
00000
00000
00000
00000
00000
00000
00000
00000
01010
,  // measure 29
00000
00000
00000
00000
,  // measure 30
00000
00000
00000
00000
00000
01010
00000
00000
00000
00000
00000
00000
00200
00000
00000
00000
,  // measure 31
00300
00000
00000
00000
00000
01010
00000
00000
,  // measure 32
00000
00020
00000
00000
00000
00030
00000
00000
00000
00000
00000
00000
00000
00000
00000
00000
,  // measure 33
01010
00000
00000
00000
00000
00000
00000
00000
00000
10000
00000
00000
00000
00000
00000
00020
,  // measure 34
00000
00000
00000
00030
00000
00000
00000
00000
00000
00000
00000
00000
00000
00000
00000
00000
,  // measure 35
00000
00000
00000
00000
00000
00020
00000
00030
,  // measure 36
01000
00000
00000
00000
00000
01000
00000
10000
00000
00000
10010
00000
00000
10010
00000
00000
,  // measure 37
00000
00000
10000
00000
00000
00010
00000
00000
00000
00000
00000
01000
00000
00000
10000
00000
,  // measure 38
00000
10010
00000
00000
10010
00000
00000
01000
00000
10000
00000
00000
10010
00000
00000
00010
,  // measure 39
00000
01000
00000
00000
10000
00000
00000
10010
00000
00000
00010
00000
01000
00000
00000
00000
,  // measure 40
00000
00000
00010
00000
00000
00010
00000
01000
00000
00000
10000
00000
00000
10010
00000
00000
,  // measure 41
10010
00000
01000
00000
00000
10000
00000
10000
00010
00000
00000
00010
00000
01000
00100
00001
,  // measure 42
00000
00000
00000
00100
00010
00001
00000
00000
00000
00000
00000
00000
00000
00010
00000
00000
,  // measure 43
00000
00000
01000
00100
00001
00000
00000
00010
00100
01000
10000
00000
00000
00000
00000
00000
,  // measure 44
00000
00010
00000
00000
00001
00000
00000
00001
,  // measure 45
00000
00000
00000
10000
00000
00000
00000
00000
00000
10000
00000
00000
00000
00000
01000
00100
,  // measure 46
00010
00001
00000
00010
00100
01000
00000
00000
00000
00000
00000
10001
01010
00000
00000
00000
,  // measure 47
00000
00000
00000
00000
01000
00100
00010
00001
00000
00010
00100
01000
00000
00000
00000
00000
,  // measure 48
00000
00000
00000
00000
00000
00000
00000
00000
00000
00000
01000
00100
00010
00001
00000
00010
,  // measure 49
00100
01000
00000
10000
00000
00000
00000
00000
00000
00000
00000
00000
00000
00000
00000
00000
,  // measure 50
00000
00001
00000
00000
00000
00000
00001
00000
00000
00000
00000
10000
00000
00000
00000
00000
,  // measure 51
00000
10000
00000
00000
00000
00000
01000
00100
00010
00001
00000
00010
00100
01000
00000
00000
,  // measure 52
00000
00000
01010
00000
00000
00000
00000
00000
00000
00000
10000
00000
00000
00001
00000
00000
,  // measure 53
10000
00000
00000
00001
00000
00000
10000
00000
00000
00001
00000
00000
00000
00000
00000
00000
,  // measure 54
00000
00020
00000
00000
00000
00030
00000
00000
00000
00000
00000
00000
00000
00001
00000
00000
,  // measure 55
00000
00000
10000
00000
00000
10000
00000
00000
00001
00000
00000
10000
00000
00000
00000
00000
,  // measure 56
10000
00000
00000
00001
00000
00000
10000
00000
00000
00000
00000
10000
00000
00020
00000
00000
,  // measure 57
00000
00030
00000
00000
00000
00000
00000
00000
00000
01010
00000
00000
00000
00000
00000
00000
,  // measure 58
00000
00000
00000
00000
,  // measure 59
00000
00000
00000
01010
00000
00000
00000
00000
00000
00020
00000
00000
00000
00030
00000
00000
,  // measure 60
00000
00000
00000
00000
00000
00000
00000
00000
01010
00000
00000
00000
00000
00000
00000
00200
,  // measure 61
00000
00000
00000
00300
00000
00000
00000
00000
00000
00000
00000
00000
00000
01010
00000
00000
,  // measure 62
00000
00000
00000
00000
00000
00020
00000
00000
00000
00030
00000
00000
00000
00000
00000
00000
,  // measure 63
00000
00000
00000
00000
01010
00000
00000
00000
00000
00000
00000
00000
00000
10000
00000
00000
,  // measure 64
00020
00000
00000
00000
00000
00000
00000
00000
00000
00000
00000
00030
00000
00000
00000
00000
,  // measure 65
00000
00000
00000
00000
,  // measure 66
00000
00000
00020
00000
00000
00000
00000
00030
00000
00000
00000
00000
00000
00000
00000
00000
;
