#TITLE:Mikado;
#SUBTITLE:;
#ARTIST:Dave McLoud;
#TITLETRANSLIT:;
#SUBTITLETRANSLIT:;
#ARTISTTRANSLIT:;
#GENRE:;
#CREDIT:locuuraa;
#BANNER:Mikado.png;
#BACKGROUND:;
#LYRICSPATH:;
#CDTITLE:;
#MUSIC:Mikado.ogg;
#OFFSET:-0.000000;
#SAMPLESTART:72.760147;
#SAMPLELENGTH:15.000000;
#SELECTABLE:YES;
#BPMS:0.000000=159.000000
;
#STOPS:
;
#BGCHANGES:0.000=Mikado.avi=1.000=0=0=1=====,
99999=-nosongbg-=1.000=0=0=0 // don't automatically add -songbackground-
;
#KEYSOUNDS:;
#ATTACKS:;

//---------------para-single - Normal----------------
#NOTES:
     para-single:
     Normal:
     Easy:
     1:
     0.277165,0.524875,0.231115,0.243279,0.428780,319.000000,281.000000,38.000000,40.000000,0.000000,0.000000,0.277165,0.524875,0.231115,0.243279,0.428780,319.000000,281.000000,38.000000,40.000000,0.000000,0.000000:
// measure 0
00000
00000
00000
00000
,  // measure 1
00000
00000
00000
00000
,  // measure 2
00000
00000
00000
00000
00000
00000
00000
02020
00000
00000
00000
00000
00000
00000
00000
00000
,  // measure 3
00000
00000
00000
00000
00000
03030
00000
00000
01010
00000
00000
00000
01010
00000
00000
00000
,  // measure 4
10001
10001
00000
10001
,  // measure 5
10001
10001
00000
10001
,  // measure 6
00000
00000
01000
00100
00010
00001
00000
00000
00000
00010
00100
01000
10000
00000
00000
00000
,  // measure 7
01000
00100
00010
00000
00001
00000
00000
00000
00000
00010
00000
00000
10000
00000
00000
00000
,  // measure 8
10001
00001
00000
10001
,  // measure 9
00000
10000
00001
00000
00000
00000
10001
00000
,  // measure 10
00000
01000
00100
00010
00001
00000
00000
00000
00000
00010
00100
01000
10000
00000
00000
00000
,  // measure 11
00000
00000
01000
00100
00010
00001
00000
00000
00000
00010
00000
00000
10000
00000
00000
00000
,  // measure 12
00000
00000
00000
00000
,  // measure 13
00000
00000
00000
00000
00000
20002
00000
30003
00000
00000
00000
00000
00000
00000
00000
00000
,  // measure 14
00000
00000
01000
00000
00000
00100
00000
00000
00000
00000
00000
00000
00000
00000
00000
00000
,  // measure 15
00000
00000
00000
00000
00010
00100
00000
00000
,  // measure 16
00000
20000
00000
00000
30000
00000
00000
01000
00000
00100
00000
00010
00000
00000
00000
00000
,  // measure 17
00000
00000
00000
20002
00000
00000
30003
00000
00000
00000
00000
00000
00000
00000
00000
00000
,  // measure 18
00000
00000
00000
00000
,  // measure 19
00000
00000
00000
00000
00000
00000
00000
00000
00010
00100
01000
00000
00000
00000
00000
00000
,  // measure 20
00000
00000
00000
00000
20000
00000
00000
30000
00000
00000
00000
01000
00100
00000
00000
00000
,  // measure 21
00000
00000
00000
00000
00000
00000
20002
00000
00000
00000
00000
00000
00000
00000
00000
30003
,  // measure 22
00000
00000
10001
10001
,  // measure 23
10001
10001
00000
10001
,  // measure 24
00000
10001
00000
00000
,  // measure 25
00000
01000
00100
00010
00001
00000
00000
00000
00010
00100
01000
10000
00000
00000
00000
01000
,  // measure 26
00100
00010
00001
00000
00000
00000
00000
00000
00000
00010
00000
00000
10000
00000
00000
00000
,  // measure 27
10000
00001
00000
10000
,  // measure 28
10000
00000
00000
00000
00001
00000
00000
00000
00000
00000
00000
00000
00000
10000
00000
00000
,  // measure 29
00000
00000
01000
00100
00010
00001
00000
00000
00000
00010
00100
01000
10000
00000
00000
00000
,  // measure 30
00000
01000
00100
00010
00001
00000
00000
00000
00010
00000
00000
00000
10000
00000
00000
00000
,  // measure 31
00000
00000
00000
00000
,  // measure 32
00000
00000
00000
00000
,  // measure 33
00000
00000
00000
00000
,  // measure 34
00000
00000
00000
00000
,  // measure 35
00000
00000
00000
00000
,  // measure 36
00000
00000
00000
00000
,  // measure 37
00000
00000
00000
00000
,  // measure 38
00000
00000
00000
00000
,  // measure 39
00000
00000
00000
00000
,  // measure 40
00000
00000
00000
00001
00000
00000
00000
10000
00000
01000
00100
00010
00001
00000
00000
00000
,  // measure 41
00000
10000
00000
00000
00000
00001
00000
00010
00100
01000
00000
00000
00000
00000
00000
00000
,  // measure 42
00000
00000
00000
00000
00001
00000
00000
00000
00010
00100
01000
10000
00000
00000
00000
00000
,  // measure 43
00000
00000
00000
00000
00000
00000
00000
00000
00000
02000
00000
00000
03000
00000
00000
00000
,  // measure 44
00000
00000
00000
00000
00000
00000
00000
00000
00000
01000
00100
00010
00001
00000
00000
00000
,  // measure 45
00000
00000
10000
00000
00000
00001
00000
00010
00100
01000
00000
10000
00000
00000
00000
00000
,  // measure 46
00000
00000
00000
00000
00000
00000
00000
00000
00000
00000
00010
00100
01000
00000
00000
00000
,  // measure 47
00000
00000
00000
00000
00000
00000
00000
00000
00000
02000
00000
00000
00000
03000
00000
00000
,  // measure 48
00000
00000
00000
00000
00000
20002
00000
00000
00000
30003
00000
00000
00000
00000
00000
00000
,  // measure 49
00000
01000
00000
00100
00000
00000
00000
00000
,  // measure 50
00000
00000
00000
00000
00000
00000
00000
00000
00000
00010
00000
00100
00000
00000
00000
00000
,  // measure 51
00000
20000
00000
00000
00000
30000
00000
00000
00000
01000
00100
00010
00000
00000
00000
00000
,  // measure 52
00000
00000
00000
00000
00000
20002
00000
00000
30003
00000
00000
00000
00000
00000
00000
00000
,  // measure 53
00000
00000
00000
00000
,  // measure 54
00000
00000
00000
00000
00000
00000
00000
00000
00000
00010
00100
01000
00000
00000
00000
00000
,  // measure 55
20000
00000
00000
00000
30000
00000
00000
00000
00000
01000
00100
00010
00000
00000
00000
00000
,  // measure 56
00000
00000
00000
00000
00000
20002
00000
00000
30003
00000
00000
00000
00000
00000
00000
00000
,  // measure 57
00000
01000
00000
00100
00000
00000
00000
00000
,  // measure 58
00000
00000
00000
00000
00000
00000
00000
00000
00000
00010
00000
00100
00000
00000
00000
00000
,  // measure 59
00000
20000
00000
00000
30000
00000
00000
00000
00000
01000
00100
00010
00000
00000
00000
00000
,  // measure 60
00000
00000
00000
00000
00000
20002
00000
00000
30003
00000
00000
00000
00000
00000
00000
00000
,  // measure 61
00000
00000
00000
00010
00000
00000
00000
00000
,  // measure 62
00000
00000
00000
00000
00000
00000
00000
00000
00000
00010
00100
01000
00000
00000
00000
00000
,  // measure 63
00000
20000
00000
00000
30000
00000
00000
00000
00000
01000
00000
00100
00000
00000
00000
00000
,  // measure 64
00000
00000
00000
00000
00000
00000
00000
00000
00000
00002
00000
00000
00000
00000
00000
00000
,  // measure 65
00000
00003
00000
00000
00000
01010
00000
01010
,  // measure 66
00000
10001
00000
10001
00000
00000
00000
10001
,  // measure 67
00000
10001
00000
10001
00000
00000
00000
10001
,  // measure 68
00000
00000
00000
01000
00100
00010
00000
00000
00000
00000
00010
00100
01000
10000
00000
00000
,  // measure 69
00000
00000
10000
01000
00100
00010
00001
00000
00000
00000
00000
00000
00000
00000
10000
00000
,  // measure 70
00000
10001
00000
00001
00000
00000
00000
00000
,  // measure 71
00000
10000
00000
00000
00001
00000
00000
10000
,  // measure 72
00000
00000
10000
01000
00100
00010
00001
00000
00000
00000
00000
00010
00100
01000
00000
00000
,  // measure 73
00000
10000
01000
00100
00010
00001
00000
00000
00000
00000
00000
00000
10000
00000
00000
00000
,  // measure 74
00000
00000
00000
00000
,  // measure 75
00000
00000
00000
00000
,  // measure 76
00000
00000
00000
00000
,  // measure 77
00000
00000
00000
00000
,  // measure 78
00000
00000
00000
00000
,  // measure 79
00000
00000
00000
00000
,  // measure 80
00000
00000
00000
00000
,  // measure 81
00000
00000
00000
00000
,  // measure 82
00000
00000
00000
00000
,  // measure 83
00000
00000
00000
00000
00001
00000
00000
00010
00000
10000
01000
00100
00010
00001
00000
00000
,  // measure 84
00000
00000
00000
00000
10000
00000
00000
00000
00010
00000
00000
00010
00100
01000
10000
00000
,  // measure 85
00000
00000
00000
00000
00010
00000
00001
00000
00000
00000
00010
00100
01000
10000
00000
00000
,  // measure 86
00000
00000
00000
00000
00000
00000
00000
00000
00000
00000
20000
00000
00000
30000
00000
00000
,  // measure 87
00000
00000
00000
00001
00000
00000
00000
00000
00000
00000
00000
01000
00100
00010
00001
00000
,  // measure 88
00000
00000
00000
10000
00000
00000
00000
00010
00000
00000
00000
00010
00100
01000
10000
00000
,  // measure 89
00000
00000
00000
10000
00000
00000
00001
00000
00000
00000
00000
00010
00100
01000
00000
00000
,  // measure 90
00000
00000
00000
00000
00000
00000
00000
00000
00000
00000
20000
00000
00000
30000
00000
00000
,  // measure 91
00000
00000
00000
00000
00000
00000
00000
20002
00000
00000
30003
00000
00000
00000
00000
00000
,  // measure 92
00000
01000
00010
00000
,  // measure 93
00000
00000
00000
00000
00000
00000
00000
00000
00000
00000
00000
00010
00000
00100
00000
10000
,  // measure 94
00000
00000
00000
10000
00000
00000
00000
00000
00000
00000
01000
00000
00100
00000
00000
00000
,  // measure 95
00000
00000
00000
00000
00000
00000
00000
20002
00000
00000
30003
00000
00000
00000
00000
00000
,  // measure 96
00000
00000
00100
00000
,  // measure 97
00000
00000
00000
00000
00000
00000
00000
00000
00000
00000
00000
00010
00100
01000
10000
00000
,  // measure 98
00000
00000
00000
20000
00000
00000
30000
00000
00000
00000
01000
00100
00000
00000
00000
00000
,  // measure 99
00000
00000
00000
00000
00000
00000
00000
00000
20002
00000
00000
30003
00000
00000
00000
00000
,  // measure 100
00000
00000
00000
00000
00000
00000
01000
00000
00000
00010
00000
00000
00000
00000
00000
00000
,  // measure 101
00000
00000
00000
00000
00000
00010
00100
10000
,  // measure 102
00000
00000
00000
20000
00000
00000
30000
00000
00000
00000
01000
00100
00000
00000
20002
00000
,  // measure 103
00000
30003
00000
00000
00000
00000
00000
00000
00000
00000
00000
00000
00000
00000
00000
00000
,  // measure 104
00000
00000
00000
00000
00000
00000
00000
00000
00000
00010
00000
00000
00000
00000
00000
00000
,  // measure 105
00000
00000
00000
00002
00000
00000
00003
00000
00000
00000
00010
00100
01000
00000
00001
00000
,  // measure 106
00000
00000
00000
20000
00000
00000
30000
00000
00000
00000
00000
01000
00100
00000
00000
00000
,  // measure 107
00000
00000
00000
00000
00000
00000
00000
00000
00000
00000
00000
00002
00000
00000
00003
00000
;
