#TITLE:Johnny Go;
#SUBTITLE:;
#ARTIST:Volta & Gabbana;
#TITLETRANSLIT:;
#SUBTITLETRANSLIT:;
#ARTISTTRANSLIT:;
#GENRE:;
#CREDIT:locuuraa;
#BANNER:Johnny Go.png;
#BACKGROUND:;
#LYRICSPATH:;
#CDTITLE:;
#MUSIC:Johnny Go.ogg;
#OFFSET:-0.000000;
#SAMPLESTART:96.660072;
#SAMPLELENGTH:15.000000;
#SELECTABLE:YES;
#BPMS:0.000000=109.000000
;
#STOPS:
;
#BGCHANGES:0.000=Johnny Go.avi=1.000=0=0=1=====,
99999=-nosongbg-=1.000=0=0=0 // don't automatically add -songbackground-
;
#KEYSOUNDS:;
#ATTACKS:;

//---------------para-single - Normal----------------
#NOTES:
     para-single:
     Normal:
     Easy:
     1:
     0.194833,0.301649,0.019862,0.423715,0.423715,206.000000,203.000000,3.000000,64.000000,0.000000,0.000000,0.194833,0.301649,0.019862,0.423715,0.423715,206.000000,203.000000,3.000000,64.000000,0.000000,0.000000:
// measure 0
00000
00000
00000
00000
,  // measure 1
00000
00000
00000
00000
00000
00000
00000
00000
00000
00000
00000
00000
00000
00000
00000
00100
,  // measure 2
00000
00000
00000
00000
00100
00000
00000
00000
00000
00100
00000
00000
00000
00000
00000
00000
,  // measure 3
00000
00000
00000
00000
00001
00000
00000
00000
00000
00001
00000
00020
00000
00030
00000
00000
,  // measure 4
00000
00001
00000
00000
00000
00000
00000
00000
00000
00200
00000
00300
00000
00000
00200
00000
,  // measure 5
00000
00300
00000
00000
00200
00000
00300
00000
00000
00200
00000
00000
00300
00001
00000
00000
,  // measure 6
10000
00000
00000
01000
00100
00010
00001
00000
00000
10000
00000
00001
00000
00000
00010
00100
,  // measure 7
01000
00000
00000
00001
00000
00000
00000
00000
00000
10000
00000
00000
00000
00000
00001
00000
,  // measure 8
00000
00000
00000
10000
00000
00000
00000
00000
00000
00001
00000
00000
00000
00000
01000
00100
,  // measure 9
00010
00000
00000
10000
00000
00000
00000
00001
00000
00010
00100
01000
10000
00000
00001
00000
,  // measure 10
00000
00000
00000
00000
00000
00000
00000
00000
00000
00000
00000
00000
00000
00000
00000
10000
,  // measure 11
00000
00000
00000
00000
01000
00000
00000
00100
00000
00000
00010
00000
00000
00000
00000
00010
,  // measure 12
00000
00000
00100
00000
00000
00000
00000
00000
00000
01000
00000
00000
00001
00000
00010
00100
,  // measure 13
01000
10000
00000
00002
00000
00003
10000
00000
00000
00000
00000
00000
10000
00000
00000
01000
,  // measure 14
00000
00000
00000
00000
00000
00010
00000
00000
00000
00000
00010
00000
00100
00000
00000
00000
,  // measure 15
00000
00000
00000
00000
01000
00000
00000
00000
00000
00200
00000
00000
00300
00000
00000
00000
,  // measure 16
00000
00000
00000
00000
00000
00000
00000
00000
00002
00000
00000
00003
00000
00002
00000
00000
,  // measure 17
00003
00000
00000
00000
20000
00000
30000
00000
00000
20000
00000
30000
00000
00000
00010
00000
,  // measure 18
00000
01000
00000
00000
00020
00000
00000
00030
00000
00000
00000
01010
00000
00000
00000
02000
,  // measure 19
00000
03000
00000
00000
00002
00000
00003
00000
00002
00000
00003
00000
00000
00000
20000
00000
,  // measure 20
00000
30000
00000
00000
20000
00000
30000
00000
00000
00000
00001
00000
00000
00000
00000
00000
,  // measure 21
00001
00000
00000
00000
00000
00000
00000
00000
00000
00000
00000
00000
00010
00000
00000
00002
,  // measure 22
00000
00000
00003
00000
00002
00000
00000
00003
00000
20000
00000
00000
30000
00000
00000
20000
,  // measure 23
00000
30000
00000
00000
00010
00000
00000
00000
01000
00000
00020
00000
00030
00000
01000
00000
,  // measure 24
00000
00000
00010
00000
02000
00000
00000
03000
00000
00000
00002
00000
00003
00000
00000
00002
,  // measure 25
00000
00003
00000
00000
02000
00000
03000
00000
00000
00000
00000
00000
00000
00000
00000
00000
,  // measure 26
00001
00000
00000
00001
00000
00000
00001
00000
,  // measure 27
00000
00000
00000
00010
00000
00000
00000
00000
,  // measure 28
00000
00001
00000
00000
00000
00000
00001
00000
00020
00000
00030
00000
00000
00001
00000
00000
,  // measure 29
00000
00000
00000
00000
00000
00000
00000
00200
00000
00300
00000
00000
00200
00000
00300
00000
,  // measure 30
00000
00200
00000
00000
00300
00000
00200
00000
00300
00000
00000
00000
00001
00000
00000
00000
,  // measure 31
00000
00001
00000
00000
00000
00020
00000
00030
00000
00001
00000
00000
00000
00000
00000
00000
,  // measure 32
00000
00200
00000
00000
00300
00000
00200
00000
00000
00300
00000
00200
00000
00000
00000
00300
,  // measure 33
00000
00200
00000
00300
00000
00000
00002
00000
00003
10000
00000
01000
00100
00010
01001
00000
,  // measure 34
00000
10000
00000
00000
00001
00000
00010
00100
01000
00000
00000
00000
00001
00000
00000
00000
,  // measure 35
00000
10000
00000
00000
00000
00000
00001
00000
00000
00000
00000
00000
10000
00000
00000
00000
,  // measure 36
00000
00001
00000
00000
00000
00000
01000
00100
00010
00000
00000
10000
00000
00000
00001
00000
,  // measure 37
00010
00100
01000
10000
00000
00000
00000
00000
00000
00000
00000
00000
00000
00000
00000
00000
,  // measure 38
00000
00010
00000
00000
00000
00000
00000
10000
00000
00000
00000
01000
00000
00000
00000
00110
,  // measure 39
00000
00000
00000
00000
00000
00000
00010
00000
00000
00100
00000
00000
00000
00000
00000
00000
,  // measure 40
00000
01000
00000
00000
00001
00000
00000
00100
01000
10000
00000
00000
00002
00000
00003
00000
,  // measure 41
10000
00000
00000
00000
10000
00000
00000
01000
00000
00000
00000
00000
00000
00010
00000
00000
,  // measure 42
00000
00010
00000
00000
00100
00000
00000
00000
00000
00000
00000
00000
01000
00000
00000
00000
,  // measure 43
00000
00200
00000
00300
00000
00000
00000
00000
00000
00000
00000
00000
00000
00000
00000
00000
,  // measure 44
00000
00002
00000
00003
00000
00000
00002
00000
00003
00000
00000
20000
00000
00000
30000
00000
,  // measure 45
00000
20000
00000
30000
00000
00000
00010
00000
00000
01000
00000
00000
00020
00000
00030
00000
,  // measure 46
01000
00000
00000
00000
00010
00000
02000
00000
00000
03000
00000
00000
00002
00000
00003
00000
,  // measure 47
00000
00002
00000
00003
00000
00000
20000
00000
00000
30000
00000
00000
20000
00000
30000
00000
,  // measure 48
00000
00001
00000
00000
00001
00000
00000
00001
,  // measure 49
00000
00000
00000
00000
00000
00000
00000
00002
00000
00000
00003
00000
00002
00000
00000
00003
,  // measure 50
00000
20000
00000
00000
30000
00000
20000
00000
00000
30000
00000
00000
00000
00010
00000
00000
,  // measure 51
01000
00000
00020
00000
00000
00030
01000
00000
00000
00000
00010
00000
00000
02000
00000
03000
,  // measure 52
00000
00002
00000
00000
00003
00000
00000
00002
00000
00000
00003
00000
20000
00000
00000
30000
,  // measure 53
00000
00000
20000
00000
00000
30000
00000
00000
00000
00001
00000
00000
00000
00000
00001
00000
,  // measure 54
00000
00000
00000
00001
00000
00000
00000
00000
00000
00000
00000
00000
00000
00000
00000
00010
,  // measure 55
00000
00000
00000
00000
00001
00000
00000
00001
,  // measure 56
00020
00000
00030
00001
00000
00000
00000
00000
00000
00000
00000
00000
00000
00100
00000
00000
,  // measure 57
00000
00000
00000
00100
00000
00000
00000
00000
00000
00100
00000
00000
00000
00000
00000
00000
,  // measure 58
00000
00000
00000
00001
00000
00000
00000
00000
00001
00000
00000
00000
00020
00000
00030
00001
,  // measure 59
00000
00000
00000
00002
00000
00000
00003
00000
00000
00100
00000
00000
00000
00000
00100
00000
,  // measure 60
00000
00000
00000
00200
00000
00000
00300
00000
00000
00200
00000
00000
00300
00000
00000
00000
;
