#TITLE:Ike Ike;
#SUBTITLE:;
#ARTIST:Tri-Star;
#TITLETRANSLIT:;
#SUBTITLETRANSLIT:;
#ARTISTTRANSLIT:;
#GENRE:;
#CREDIT:locuuraa;
#BANNER:Ike Ike.png;
#BACKGROUND:;
#LYRICSPATH:;
#CDTITLE:;
#MUSIC:Ike Ike.ogg;
#OFFSET:-0.000000;
#SAMPLESTART:63.940025;
#SAMPLELENGTH:15.000000;
#SELECTABLE:YES;
#BPMS:0.000000=106.000000
;
#STOPS:
;
#BGCHANGES:0.000=Ike Ike.avi=1.000=0=0=1=====,
99999=-nosongbg-=1.000=0=0=0 // don't automatically add -songbackground-
;
#KEYSOUNDS:;
#ATTACKS:;

//---------------para-single - Normal----------------
#NOTES:
     para-single:
     Normal:
     Easy:
     1:
     0.232957,0.387003,0.334207,0.242012,0.403354,283.000000,225.000000,58.000000,42.000000,0.000000,0.000000,0.232957,0.387003,0.334207,0.242012,0.403354,283.000000,225.000000,58.000000,42.000000,0.000000,0.000000:
// measure 0
00000
00000
00000
00000
,  // measure 1
00000
00000
00000
00000
,  // measure 2
00000
00000
00000
00000
,  // measure 3
00000
00000
00000
00000
,  // measure 4
00000
00000
00000
00000
,  // measure 5
00000
00000
00000
00000
,  // measure 6
00000
00000
00000
00000
,  // measure 7
00000
00000
00000
00000
,  // measure 8
00000
00000
00000
00000
,  // measure 9
00000
00000
00000
00000
,  // measure 10
00000
00000
00000
00000
,  // measure 11
00000
00000
00000
00000
00000
00000
00000
00000
02000
00000
03000
00010
00000
00000
10001
00000
,  // measure 12
00000
10001
00000
02000
00000
03000
00010
00000
00000
10001
00000
10000
00001
00000
00000
01000
,  // measure 13
00000
00000
01000
00000
00010
00000
00000
00000
00000
02000
00000
03000
00010
00000
00000
10001
,  // measure 14
00000
00000
10001
00000
02000
00000
00000
03000
00000
00000
10001
00000
10001
00000
00000
02000
,  // measure 15
00000
03000
00010
00000
10001
00000
00000
10001
00000
00000
01000
00000
00000
01000
00000
00000
,  // measure 16
00010
00000
00000
00000
02000
00000
03000
00010
00000
00000
10001
00000
00000
10001
00000
00000
,  // measure 17
00001
00000
00000
00000
00000
00001
00000
00000
00000
00000
00000
00000
00000
00000
00000
10000
,  // measure 18
00000
00000
00000
00000
00000
00001
00000
00000
00000
00000
00001
00000
00000
00000
00000
00000
,  // measure 19
00000
00000
00000
00000
00000
10000
00000
00000
00000
00000
11000
00000
00000
11000
00000
00000
,  // measure 20
11000
00000
00000
00000
00000
00000
00011
00000
00000
00011
00000
00000
00011
00000
00000
00000
,  // measure 21
10001
00000
00000
00000
00000
00000
00000
10000
00000
00000
00000
00000
10001
00000
00000
00000
,  // measure 22
00000
00000
00000
00000
00000
00000
00000
01000
00000
00100
00000
00010
00000
00000
00000
00000
,  // measure 23
00000
01000
00000
00100
00000
00010
00000
00001
00000
00000
00000
00000
00002
00000
00003
00000
,  // measure 24
00000
00000
20000
00000
30000
00000
00000
00000
00000
00000
10000
00000
00001
00000
00000
10000
,  // measure 25
00000
01000
00000
00100
00000
00010
00000
00001
00000
00000
00000
00010
00000
00100
00000
01000
,  // measure 26
00000
10000
00000
00000
00000
00000
00000
00002
00000
00000
00003
00000
20000
00000
00000
30000
,  // measure 27
00000
00000
00001
00000
00000
00000
00000
00001
00000
10000
00000
00000
00000
00101
00000
00000
,  // measure 28
00100
00000
00000
10100
00000
00000
01000
00000
00000
00000
00010
00000
00000
00000
00000
00000
,  // measure 29
00000
00000
00010
00000
01000
00000
00000
00000
00000
00000
00000
00000
00000
00002
00000
00003
,  // measure 30
00000
10000
00000
02010
00000
03000
00000
00000
00100
00000
00000
00000
00000
01010
00000
00000
,  // measure 31
00000
01000
00010
00000
00000
00000
00000
00000
,  // measure 32
00000
00000
00000
00000
,  // measure 33
00000
00001
00000
00000
20000
00000
30000
00000
00000
00000
00000
00000
00000
00000
00000
00000
,  // measure 34
00010
00000
00000
00000
00000
00000
00000
00000
00010
00000
00000
01000
00000
00000
00000
00000
,  // measure 35
00000
00000
00000
00000
00002
00000
00003
00000
10000
01010
00000
00000
00000
00000
00100
00000
,  // measure 36
00000
01010
00000
00000
,  // measure 37
00000
00000
00000
00000
00000
00010
00000
00000
00000
00000
00000
00000
00000
00000
00000
00000
,  // measure 38
00000
00000
00000
00000
00000
00000
00000
00001
00000
20000
00000
00000
00000
30000
00000
00000
,  // measure 39
00000
00000
00000
00000
00000
00010
00000
00000
00000
00000
00020
00000
00000
00000
00000
00030
,  // measure 40
00000
00000
00000
00000
00000
02000
00000
03000
00000
00000
00000
10001
00000
00000
10001
00000
,  // measure 41
02000
00000
03000
00010
00000
00000
10001
00000
00000
00000
00000
01000
00000
00000
00000
01000
,  // measure 42
00000
00010
00000
00000
00000
02000
00000
00000
03000
00010
00000
10001
00000
00000
10001
00000
,  // measure 43
00000
02000
00000
03000
00000
00000
10001
00000
00000
10001
00000
02000
00000
00000
03000
00010
,  // measure 44
00000
10001
00000
10000
00001
00000
01000
00000
00000
01000
00000
00000
00010
00000
00000
00000
,  // measure 45
02000
00000
00000
03000
00010
00000
10001
00000
00000
10000
00001
00000
00000
00000
00001
00000
,  // measure 46
00000
00001
00000
00000
00000
00000
10000
00000
,  // measure 47
00001
00000
00000
00001
00000
00000
00000
00000
,  // measure 48
00000
00000
10000
00000
00000
00000
00000
10100
00000
00000
10100
00000
00000
10100
00000
00000
,  // measure 49
00000
00000
00101
00000
00000
00001
00000
00000
00001
00000
00000
00000
00000
00000
10001
00000
,  // measure 50
00000
00000
00000
00000
10000
00000
00000
00000
00000
10001
00000
00000
00000
00000
00000
00000
,  // measure 51
00000
00000
00000
01000
00000
00100
00000
00010
00000
00000
00000
00000
00000
00010
00000
00100
,  // measure 52
00000
01000
00000
10000
00000
00000
00000
00000
00002
00000
00000
00003
00000
20000
00000
00000
,  // measure 53
30000
00000
00000
00001
00000
00000
00000
00000
00001
00000
00000
10000
00000
00000
00000
01000
,  // measure 54
00100
00010
00000
00000
00000
00000
00000
00000
00000
00010
00100
01000
00000
00000
00000
00000
,  // measure 55
00000
00000
00000
00002
00000
00000
00003
00000
00000
20000
00000
00000
30000
00000
00001
00000
,  // measure 56
00000
10000
00000
00000
00001
00000
10000
00000
00000
00101
00000
00000
00101
00000
00000
10100
,  // measure 57
00000
00000
00000
00100
01000
00000
00000
00010
00000
00000
00000
00000
00000
00000
00010
00000
,  // measure 58
00000
01000
00000
00000
00000
00000
00000
00000
00000
00002
00000
00003
10000
00000
02020
00000
,  // measure 59
00000
03030
00000
00000
00100
00000
00000
00000
00000
00000
01010
00000
00000
00000
01000
00000
,  // measure 60
00000
00010
00000
00000
00000
00000
00000
00000
00000
00000
00000
00000
00000
00000
00000
00000
,  // measure 61
00000
00000
00000
00000
00000
00000
00000
00001
,  // measure 62
20000
30000
00000
00000
00000
00000
00010
00000
,  // measure 63
00000
00000
00000
00000
00000
00010
00000
01000
00000
00000
00000
00000
00000
00000
00000
00000
,  // measure 64
00002
00000
00003
10000
00000
02020
00000
03030
00000
00000
00100
00000
00000
00000
00000
00000
,  // measure 65
01010
00000
00000
00000
00000
01000
00000
00010
00000
00000
00000
00000
00000
00000
00000
00000
,  // measure 66
00000
00000
00000
00000
,  // measure 67
00000
00000
00001
20000
30000
00000
00000
00000
,  // measure 68
00000
00000
00010
00000
00000
00020
00000
00000
00000
00030
00000
00000
00000
00000
00000
00000
,  // measure 69
00000
00000
02000
00000
00000
03000
00000
10001
00000
00000
10001
00000
00000
02000
00000
03000
,  // measure 70
00010
00000
10001
00000
00000
10001
00000
00000
01000
00000
00000
01000
00000
00010
00000
00000
,  // measure 71
00000
00000
02000
00000
00000
03000
00010
00000
10001
00000
00000
10001
00000
02000
00000
03000
,  // measure 72
00000
00000
00000
10001
00000
10001
00000
00000
02000
00000
00000
03000
00010
00000
10001
00000
,  // measure 73
00000
10001
00000
01000
00000
00000
00000
01000
00000
00010
00000
00000
00000
00000
01000
00000
,  // measure 74
00000
00010
00000
00000
00000
00000
02020
00000
00000
00000
03030
00000
00000
00000
00000
00000
;
