#TITLE:Fantasy;
#SUBTITLE:;
#ARTIST:Virginelle;
#TITLETRANSLIT:;
#SUBTITLETRANSLIT:;
#ARTISTTRANSLIT:;
#GENRE:;
#CREDIT:locuuraa;
#BANNER:Fantasy.png;
#BACKGROUND:;
#LYRICSPATH:;
#CDTITLE:;
#MUSIC:Fantasy.ogg;
#OFFSET:-0.000000;
#SAMPLESTART:103.440155;
#SAMPLELENGTH:15.000000;
#SELECTABLE:YES;
#BPMS:0.000000=107.000000
;
#STOPS:
;
#BGCHANGES:;
#KEYSOUNDS:;
#ATTACKS:;

//---------------para-single - Normal----------------
#NOTES:
     para-single:
     Normal:
     Easy:
     1:
     0.215705,0.554865,0.162178,0.016777,0.346725,270.000000,241.000000,29.000000,3.000000,0.000000,0.000000,0.215705,0.554865,0.162178,0.016777,0.346725,270.000000,241.000000,29.000000,3.000000,0.000000,0.000000:
// measure 0
00000
00000
00000
00000
,  // measure 1
00000
00000
00000
00000
,  // measure 2
00000
00000
00000
00000
,  // measure 3
00000
00000
00000
00000
,  // measure 4
00000
00000
00000
00000
,  // measure 5
00000
00000
00000
00000
,  // measure 6
00000
00000
00000
00000
,  // measure 7
00000
00000
00000
00000
,  // measure 8
00000
00000
00000
00000
,  // measure 9
00000
00000
00000
00000
,  // measure 10
00000
00000
00000
00000
,  // measure 11
00000
00000
00000
00000
,  // measure 12
00000
00000
00000
00000
,  // measure 13
00000
00000
00000
00000
,  // measure 14
00000
00000
00000
00000
,  // measure 15
00000
00000
00000
00000
,  // measure 16
00000
00000
00000
00000
,  // measure 17
00000
00000
00000
00000
,  // measure 18
00000
00000
00000
00000
00000
00000
00000
00000
00000
00000
00000
01010
00000
00000
00000
00000
,  // measure 19
00000
00000
00000
00000
00000
00000
00000
01010
00000
00000
00000
00000
00000
00000
00000
00000
,  // measure 20
00000
00000
00000
01010
00000
00000
00000
00000
00000
00000
00000
00000
00000
00000
00000
01010
,  // measure 21
00000
00000
00000
01010
,  // measure 22
00000
00000
01010
00000
,  // measure 23
00000
01010
00000
00000
,  // measure 24
01010
00000
00000
00000
,  // measure 25
00000
00000
00000
00000
01000
00000
00000
00000
00020
00000
00000
00030
00000
00000
00000
01010
,  // measure 26
00000
00000
00000
00010
00000
00000
01000
00000
,  // measure 27
00000
00100
00000
00000
00000
00000
00000
01010
00000
00000
00000
00000
00000
00000
00000
00000
,  // measure 28
00000
01010
00000
00000
00000
00000
00000
00000
00000
00000
00000
00000
00000
01010
00000
00000
,  // measure 29
00000
00000
00000
00000
00000
00000
00000
00010
00000
00010
00000
00000
00000
01000
00000
00000
,  // measure 30
00000
00000
00100
00000
00000
00000
00000
00000
01010
00000
00000
00000
00000
00000
00000
00100
,  // measure 31
00010
00001
00000
00000
00000
00010
01000
00000
10000
00000
00000
00100
00000
00001
00010
00100
,  // measure 32
01000
10000
00000
00010
00000
00001
00000
00000
00100
00000
00000
00000
00000
01000
00100
00001
,  // measure 33
00000
00000
00010
01000
10000
00000
01000
00010
00000
00000
00000
00010
00000
00000
10000
00000
,  // measure 34
00000
00001
00000
00000
00000
00100
01000
00000
00000
00000
01000
00100
00010
00001
00010
01100
,  // measure 35
10000
00000
01000
00000
00010
00001
00000
00000
00010
01000
00000
10000
00000
00000
01000
00100
,  // measure 36
00010
00000
00000
00100
01000
10000
01000
00100
00010
00001
00010
00000
00000
00000
00000
00000
,  // measure 37
10000
00000
00000
00100
00000
00000
00010
00000
00000
00000
00000
00000
00010
00000
00000
00000
,  // measure 38
00100
00000
00000
01000
00000
00000
00000
10000
01000
00100
00010
00001
00000
00000
00000
00001
,  // measure 39
01000
00000
10000
00000
00100
00000
00000
00000
00000
00000
00000
01000
00000
00000
00000
00000
,  // measure 40
00000
00000
10000
00000
00000
00100
00000
00010
00000
00000
00000
00000
00000
00000
00010
00000
,  // measure 41
00000
00100
00000
00000
01000
00000
00000
00000
00000
01000
00100
00010
00001
00000
00000
00000
,  // measure 42
00000
00000
01000
10000
00000
00000
00100
00000
00000
00000
00000
01000
00000
00000
00000
00000
,  // measure 43
00000
00000
00000
00010
00000
00000
00000
00000
00000
01000
00000
00000
00000
00000
00001
00000
,  // measure 44
00000
10000
01000
00000
00000
00010
00000
00000
,  // measure 45
00000
01000
00000
00000
00000
00000
00100
00000
00000
00000
00000
00000
01000
00000
00000
00000
,  // measure 46
00000
00000
00000
01010
00000
00000
00000
00000
,  // measure 47
00000
01010
00000
00000
00000
00000
00010
00000
,  // measure 48
00000
00000
00000
00000
00000
00000
00000
00100
00000
00000
00000
00000
00000
01000
00000
00000
,  // measure 49
00000
00000
00010
00000
00000
01000
00000
00000
,  // measure 50
00001
00000
00000
10000
00000
00000
01000
00000
00000
00000
00000
00000
00010
00000
00000
00000
,  // measure 51
00000
00000
01000
00000
00000
00000
00000
00000
00100
00000
00000
00000
00000
00000
00000
01000
,  // measure 52
00000
00000
01010
00000
,  // measure 53
00000
00000
00000
00000
01010
00000
00000
00000
00000
00000
00000
00000
00000
00010
00000
00000
,  // measure 54
00000
00000
00000
00000
00000
00000
00000
00000
00100
00000
00000
00000
00000
00000
00000
01000
,  // measure 55
00000
00000
00000
00000
00000
01000
00100
00010
00001
00000
00010
00000
01000
10000
00000
00000
,  // measure 56
00000
00100
00010
00001
00100
01000
10000
00000
00000
00100
00010
00001
00000
00100
01000
00000
,  // measure 57
00000
00000
00000
00000
00100
00010
00001
00000
00000
00010
01000
10000
01000
00100
00000
00000
,  // measure 58
00010
00000
00000
01000
00000
10000
01000
00000
00001
00000
00000
00000
00010
00100
01000
00000
,  // measure 59
00000
00000
00100
00001
00100
01000
10000
00000
00000
01000
00000
00010
00000
00001
00000
00000
,  // measure 60
10000
00000
00000
00000
01000
00100
00010
00001
00000
00010
00100
01000
10000
00000
00100
00000
,  // measure 61
00010
00000
00000
00000
00000
00000
00000
10000
00000
00000
00100
00000
00000
00010
00000
00000
,  // measure 62
00000
00000
00000
00001
00000
00000
00000
00100
00000
01000
00000
00000
00000
00000
00000
10000
,  // measure 63
01000
00100
00000
00000
00000
00000
00010
00000
01000
10000
00000
00000
00100
00000
00000
00000
,  // measure 64
00000
01000
00000
00000
00000
00000
00000
00000
10000
00000
00000
00100
00000
00000
00010
00000
,  // measure 65
00000
00000
00000
00000
00001
00000
00000
00000
00100
00000
00000
01000
00000
00000
00000
10000
,  // measure 66
01000
00100
00000
00001
00000
00000
00000
00000
01000
10000
00000
00000
00100
00000
00000
00000
,  // measure 67
00000
00000
01010
00000
00000
00000
00000
00000
00000
00010
00000
00000
00000
00000
00000
01000
,  // measure 68
00000
00000
00000
00000
00000
00002
00000
00003
10000
00000
01010
00000
00000
00000
00000
00000
,  // measure 69
00000
00000
00010
00000
00000
00000
00000
01000
00000
00000
00000
00000
00000
00100
00000
00000
,  // measure 70
00000
00000
00000
01010
00000
00000
00000
00000
00000
00000
00000
00000
00000
01010
00000
00000
,  // measure 71
00000
00000
00000
00000
00000
00000
00000
00000
00000
01010
00000
00000
00000
00000
00000
00000
,  // measure 72
00000
00000
00010
00000
00000
00000
00000
00000
00000
00000
00000
00000
00000
00100
00000
00000
,  // measure 73
00000
00000
00000
01010
00000
00000
00000
00000
00000
00000
00000
00010
00000
00000
00000
00000
,  // measure 74
00000
01000
00000
00000
00000
00000
00000
00002
00000
00003
00000
10000
00000
01010
00000
00000
,  // measure 75
00000
00000
00000
00010
00000
00000
00000
00000
00000
01000
00000
00000
00000
00000
00100
00000
,  // measure 76
00000
00000
00000
00000
01010
00000
00000
00000
00000
00000
00000
00000
00000
00000
00000
01010
,  // measure 77
00000
00000
00000
00000
00000
01010
00000
00000
,  // measure 78
00000
00000
00000
00000
00010
00000
00000
00000
00000
00000
00000
00000
00000
00000
00000
00100
,  // measure 79
00000
00000
00000
01010
00000
00000
00000
00000
;
