#TITLE:Atomic Playboy;
#SUBTITLE:;
#ARTIST:Mike Skanner;
#TITLETRANSLIT:;
#SUBTITLETRANSLIT:;
#ARTISTTRANSLIT:;
#GENRE:;
#CREDIT:locuuraa;
#BANNER:Atomic Playboy.png;
#BACKGROUND:;
#LYRICSPATH:;
#CDTITLE:;
#MUSIC:Atomic Playboy.ogg;
#OFFSET:-0.000000;
#SAMPLESTART:98.640205;
#SAMPLELENGTH:15.000000;
#SELECTABLE:YES;
#BPMS:0.000000=142.000000
;
#STOPS:
;
#BGCHANGES:0.000=Atomic Playboy.avi=1.000=0=0=1=====,
99999=-nosongbg-=1.000=0=0=0 // don't automatically add -songbackground-
;
#KEYSOUNDS:;
#ATTACKS:;

//---------------para-single - Normal----------------
#NOTES:
     para-single:
     Normal:
     Easy:
     1:
     0.199148,0.356294,0.134450,0.290130,0.445809,197.000000,178.000000,19.000000,41.000000,0.000000,0.000000,0.199148,0.356294,0.134450,0.290130,0.445809,197.000000,178.000000,19.000000,41.000000,0.000000,0.000000:
// measure 0
00000
00000
00000
00000
,  // measure 1
00000
00000
00000
00000
,  // measure 2
00000
00000
00010
00000
00002
00000
00000
00000
00003
00000
00010
00000
,  // measure 3
00000
00000
00000
00000
02000
00000
00000
03000
00000
00000
00000
01000
,  // measure 4
00000
00000
00000
00020
00000
00000
00030
00000
00000
00000
00000
00010
,  // measure 5
00000
00000
00000
00000
02000
00000
00000
03000
00000
00000
00000
01000
,  // measure 6
00000
00000
00000
00000
00010
00000
00000
00000
00000
00000
00000
00010
,  // measure 7
00000
00000
00000
00000
02000
00000
00000
03000
00000
00000
00000
01000
,  // measure 8
00000
00000
00000
00000
00020
00000
00000
00030
00000
00000
00000
00010
,  // measure 9
00000
00000
00000
00000
02000
00000
00000
03000
00000
00000
10100
00000
,  // measure 10
00000
10100
00000
00000
00200
00000
00300
00000
00000
00000
00000
00000
,  // measure 11
00000
00000
00000
00000
00000
00000
00000
00000
00000
00100
10000
00000
,  // measure 12
00100
00010
00001
00000
00000
00100
20000
00000
00000
00000
00000
00000
,  // measure 13
00000
00000
00000
00000
30000
00000
00000
00000
00000
00000
00000
00000
,  // measure 14
00000
00000
00000
00000
,  // measure 15
00000
00000
00000
00000
10100
00000
00202
00000
00000
00000
00000
00000
,  // measure 16
00000
00000
00000
00000
00000
00303
00000
00000
00000
00000
00000
00000
,  // measure 17
00000
00000
00000
01010
00000
00000
00000
00000
00000
00000
01000
00100
,  // measure 18
00010
00001
00000
00000
00010
00100
00000
10000
00000
00000
00000
00000
,  // measure 19
00000
00000
00000
00000
01010
00000
00000
00000
00000
00000
01000
00100
,  // measure 20
00010
00001
00000
00000
00010
00100
01000
10000
00000
00000
00000
00000
,  // measure 21
00000
00000
00000
00000
02020
00000
00000
03030
00000
00000
00000
01000
,  // measure 22
00100
00010
00000
00001
00000
00000
00000
00000
00000
00000
00010
00000
,  // measure 23
00100
00000
00000
10000
00000
00000
00000
00000
00000
01000
00100
00000
,  // measure 24
00001
00000
00000
00000
00010
00000
01000
00000
00000
00000
00000
00000
,  // measure 25
00000
00000
00010
00000
00000
00000
00000
00000
00000
02010
00000
00000
,  // measure 26
03000
00000
00000
00000
00001
00000
00000
10000
00000
00000
00000
00000
,  // measure 27
00000
00000
00000
00000
00000
00001
00000
00000
10000
00000
00000
00000
,  // measure 28
00000
00000
00000
00000
00001
00000
00000
10000
00000
00000
00000
00000
,  // measure 29
00000
00000
00000
00000
10000
00000
00000
00000
00000
00000
00000
00000
,  // measure 30
00000
00000
00000
00000
00001
00000
00000
10000
00000
00000
00000
00000
,  // measure 31
00000
00000
00000
00000
00001
00000
00000
10000
00000
00000
00000
00000
,  // measure 32
00000
00000
00000
00000
00001
00000
00000
10000
00000
00000
00000
00000
,  // measure 33
00000
00000
00000
00000
10000
00000
00000
00000
00000
00000
00001
00000
,  // measure 34
00000
00000
00000
00100
00000
00000
00000
00000
00000
00000
00000
00020
,  // measure 35
00000
00000
00000
00030
00000
00000
00000
00000
00000
00000
00000
01000
,  // measure 36
00100
00010
00002
00000
00000
00000
00000
00000
00000
00003
00000
00000
,  // measure 37
00000
00000
00000
00002
00000
00000
00000
00000
00000
00003
00000
01000
,  // measure 38
00000
00000
00000
10000
00000
00000
00000
00000
00000
00000
01000
00000
,  // measure 39
00000
00020
00030
00010
,  // measure 40
00000
02000
03000
01000
,  // measure 41
00000
00020
00030
00010
,  // measure 42
00000
00000
00000
10100
,  // measure 43
10100
20200
00000
00000
,  // measure 44
00000
30300
00000
00000
00000
00000
00000
00000
00000
00000
10000
00000
,  // measure 45
00000
00010
00000
00000
,  // measure 46
00000
00000
00000
00000
,  // measure 47
00000
00000
00000
00000
,  // measure 48
00000
00000
00000
01010
00000
00202
00000
00000
00000
00000
00000
00000
,  // measure 49
00000
00000
00303
00000
00000
00000
00000
00000
00202
00000
00000
00000
,  // measure 50
00000
00000
00303
02020
00000
00000
00000
00000
03030
00100
00010
00001
,  // measure 51
00000
00000
00010
00100
01000
10000
00000
00000
00000
00000
00000
00000
,  // measure 52
00000
00000
00000
01010
00000
00000
00000
00000
00000
00000
00100
00000
,  // measure 53
00001
00000
00000
00010
00100
01000
10000
00000
00000
00000
00000
00000
,  // measure 54
00000
00000
00000
02020
00000
03030
00000
00000
00000
00000
00000
00100
,  // measure 55
00010
00001
00000
00000
00000
00000
00000
00000
00010
00000
00000
00100
,  // measure 56
01000
10000
00000
00000
00000
00000
00000
00000
00000
01000
00100
00010
,  // measure 57
00001
00000
00000
00000
,  // measure 58
10001
00000
00000
00000
00000
00000
00000
00000
00000
20002
00000
30003
,  // measure 59
00000
00001
00000
00000
,  // measure 60
00000
00000
00000
00001
00000
00000
00000
10000
00000
00000
00000
00000
,  // measure 61
00000
00000
00000
00001
00000
00000
00000
10000
00000
00000
00000
00000
,  // measure 62
00001
00000
00000
00000
10000
00000
10000
00000
00000
00000
00000
00000
,  // measure 63
00000
00001
00000
00000
,  // measure 64
00000
00000
00000
00001
00000
00000
00000
10000
00000
00000
00000
00000
,  // measure 65
00000
00001
10000
00000
,  // measure 66
00001
10000
10000
00000
,  // measure 67
00000
00000
00001
00000
00000
00000
00000
00000
00000
00000
00000
00000
,  // measure 68
00000
00001
10000
00000
,  // measure 69
00000
00001
10000
00000
,  // measure 70
00001
10000
10000
00000
,  // measure 71
00000
00001
00000
00000
,  // measure 72
00000
00000
00001
00000
00000
00000
10000
00000
00000
00000
00000
00000
,  // measure 73
00000
00000
00001
00000
00000
00000
10000
00000
00000
00000
00000
00000
,  // measure 74
00001
00000
00000
10000
00000
10000
00000
00000
00002
00003
00000
20000
,  // measure 75
30000
00000
00100
00000
00000
00000
00000
00000
00000
00000
00020
00000
,  // measure 76
00000
00000
00030
00000
00000
00000
00000
00000
00000
00000
01000
00100
,  // measure 77
00010
00002
00000
00000
00000
00000
00000
00000
00000
00000
00000
00003
,  // measure 78
00000
00000
00000
00000
00000
00000
00000
00000
00000
00000
00000
01000
,  // measure 79
00000
20000
00000
00000
30000
00000
00000
00000
01000
00000
00000
00000
,  // measure 80
00000
00020
00000
00030
00000
00000
00000
00000
00010
00000
00000
00000
,  // measure 81
00000
00000
02000
00000
00000
03000
00000
00000
00000
01000
00000
00000
,  // measure 82
00000
00000
00020
00000
00030
00000
00000
00000
00000
00010
00000
00000
,  // measure 83
00000
02000
00000
00000
00000
00000
00000
00000
00000
00000
00000
03000
;
