#TITLE:Battle Theme;
#SUBTITLE:;
#ARTIST:Hirokazu Ando;
#TITLETRANSLIT:;
#SUBTITLETRANSLIT:;
#ARTISTTRANSLIT:;
#CREDIT:;
#BANNER:;
#BACKGROUND:Battle Theme-bg.PNG;
#LYRICSPATH:;
#CDTITLE:;
#MUSIC:Battle Theme.mp3;
#OFFSET:-0.120;
#SAMPLESTART:10.780;
#SAMPLELENGTH:21.500;
#SELECTABLE:YES;
#BPMS:0.000=180.000;
#STOPS:;
#BGCHANGES:;

//---------------dance-single - ----------------
#NOTES:
     dance-single:
     :
     Hard:
     9:
     0.409,0.410,0.248,0.119,0.181: // measure 1
0000
0000
0000
0000
,  // measure 2
0000
0000
0000
0000
,  // measure 3
0000
0000
0000
0000
,  // measure 4
0000
0000
0000
0000
,  // measure 5
1001
0000
0001
0000
0100
0000
0001
0000
0010
0000
0001
0100
0000
0000
0100
0001
,  // measure 6
0010
0000
0000
0010
1000
0000
0100
0000
0010
0000
0100
0000
1100
0000
0000
0000
,  // measure 7
0010
0000
0100
0000
0010
0000
0100
0000
0001
0000
0100
0010
0000
0000
0010
0100
,  // measure 8
1000
0000
0000
1000
0010
0000
0100
0000
0010
0000
0001
0000
0011
0000
0000
0000
,  // measure 9
0001
0100
0000
0000
0001
0000
0010
0001
0000
0000
1000
0000
0100
0000
0010
0000
,  // measure 10
0010
0100
1000
0100
0001
0010
0100
1000
,  // measure 11
0020
0000
0100
0100
0000
1000
1030
0000
,  // measure 12
1000
0000
0000
1000
0010
0000
0001
0000
0100
0000
1000
0000
1001
0000
0000
0000
,  // measure 13
0100
0001
0000
0000
0100
0000
0001
0100
0000
0000
0010
0000
0001
0000
0100
0000
,  // measure 14
1000
0000
0000
1000
0010
0000
0000
0010
0100
0000
0000
0100
0001
0000
0000
0001
,  // measure 15
0200
0000
0010
0010
0000
0001
0301
0000
,  // measure 16
0010
0000
0000
0010
1000
0000
0010
0000
0100
0000
0001
0000
0011
0000
0000
0000
,  // measure 17
0010
1000
0000
0000
0010
0000
0100
0010
0000
0000
0010
0000
0001
0000
0100
0000
,  // measure 18
0100
0010
0001
0010
1000
0100
0010
0001
,  // measure 19
2000
0000
0010
0010
0000
0001
3001
0000
,  // measure 20
0010
0000
0000
0010
1000
0000
0100
0000
0001
0000
1000
0000
1100
0000
0000
0000
,  // measure 21
0100
0010
0000
0000
0100
0000
1000
0100
0000
0000
0001
0000
0010
0000
1000
0000
,  // measure 22
1000
0000
0000
1000
0010
0000
0000
0010
0100
0000
0000
0100
1000
0000
0000
1000
,  // measure 23
0002
0000
0100
0100
0000
0010
0010
0000
,  // measure 24
2000
0000
0000
3003
,  // measure 25
1010
1000
1100
0000
0101
0001
0011
0000
,  // measure 26
0110
0100
1001
0000
0011
0010
1010
0000
,  // measure 27
1100
0100
0101
0000
1001
0001
0011
0000
,  // measure 28
1010
0010
0110
0000
0101
0001
0011
0000
,  // measure 29
1002
0000
0010
0100
0000
1000
1003
0000
,  // measure 30
1000
0000
0100
0000
0010
0000
0100
0000
0010
1000
0000
0100
1000
0000
0000
1000
,  // measure 31
0010
0000
0100
0000
0001
0000
0100
0000
0001
0100
0000
0010
0100
0000
0000
0100
,  // measure 32
0001
0000
1000
0000
0100
0000
1000
0000
0100
1000
0000
0010
0001
0000
0000
0100
,  // measure 33
1000
0000
0010
0000
0100
0000
1100
0000
0000
1000
0100
0000
0010
0000
0100
0000
,  // measure 34
0001
0000
0010
0000
0100
0000
0110
0000
0000
0100
0010
0000
1000
0000
0010
0000
,  // measure 35
0100
0000
0001
0000
0100
0000
0101
0000
0000
0100
0001
0000
1000
0000
0001
0000
,  // measure 36
0010
0000
1000
0000
0010
0000
1010
0000
0000
0010
1000
0000
0100
0000
1000
0000
,  // measure 37
0001
0000
0000
0100
0001
0000
0000
0010
0100
0000
1000
0000
0100
0000
0010
0000
,  // measure 38
0100
0000
0000
0100
1000
0000
0000
0010
0001
0000
0000
0001
0010
0000
0000
0010
,  // measure 39
0100
1000
0000
0000
1000
0100
0000
0000
0100
0010
0000
0000
0010
0100
0000
0000
,  // measure 40
0001
0100
0001
0100
1000
0100
1000
0100
,  // measure 41
0110
0010
0001
0100
0100
1000
0010
0010
,  // measure 42
0101
0001
0001
1000
0010
0010
0100
1000
,  // measure 43
1010
0010
0100
0100
0001
1000
1000
0100
,  // measure 44
0110
0010
0100
0001
0001
1000
0100
0100
,  // measure 45
0101
0010
0010
1000
0001
0001
0010
1000
,  // measure 46
1000
0100
0010
0100
1000
0010
0100
1000
,  // measure 47
1000
0100
2000
0000
3100
0001
0200
0000
,  // measure 48
0310
0001
0020
0000
1030
0001
2000
0000
,  // measure 49
3010
0000
0000
0010
0001
0000
1100
0000
0000
0100
1000
0000
0010
0000
1000
0000
,  // measure 50
0100
0000
0000
0100
0001
0000
0000
0001
0010
0000
0000
0010
0100
0000
0000
0100
,  // measure 51
2000
0010
3020
0100
,  // measure 52
0230
0000
0010
0000
0001
0001
0301
0000
,  // measure 53
0010
0000
0000
0010
1000
0000
0101
0000
0000
0100
0001
0000
0010
0000
0100
0000
,  // measure 54
1000
0000
0000
1000
0010
0000
0000
0010
0100
0000
0000
0100
0001
0000
0010
0000
,  // measure 55
0002
0010
0023
0100
,  // measure 56
0230
0000
1000
0000
2300
0000
0001
0001
,  // measure 57
3010
0110
1000
0100
0010
0100
1000
0100
,  // measure 58
0001
0100
0010
1000
0210
0000
0301
0000
,  // measure 59
0010
1010
0100
0010
1000
0010
0100
0010
,  // measure 60
0001
0010
1000
0100
1020
0000
0130
0000
,  // measure 61
1001
1000
2002
3003
,  // measure 62
0110
0010
0220
0330
,  // measure 63
0001
0100
0001
0010
0001
1000
0010
0100
,  // measure 64
1000
0100
0001
1000
0001
0010
0100
0010
,  // measure 65
1001
0000
0100
0000
1000
0000
0100
0000
0010
0000
0010
0100
0000
0000
0100
0010
,  // measure 66
0001
0000
0000
0001
0010
0000
0100
0000
0010
0000
0001
0000
0101
0000
0000
0000
,  // measure 67
0100
0000
0001
0000
0100
0000
0001
0000
1000
0000
1000
0010
0000
0000
0010
1000
,  // measure 68
0100
0010
1000
0010
0001
1000
1100
0000
,  // measure 69
0010
0000
0100
0000
0010
0000
0100
0000
0001
0000
0001
0100
0000
0000
0100
0001
,  // measure 70
0010
0000
0000
0010
1000
0000
0010
0000
0100
0000
1000
0000
1001
0000
0000
0000
,  // measure 71
0001
0000
0100
0000
0001
0000
0100
0000
1000
0000
1000
0010
0000
0000
0010
1000
,  // measure 72
0100
0000
0000
0100
0001
0000
0010
0000
1000
0000
0010
0000
0110
0000
0000
0000
,  // measure 73
1001
0000
0000
0000
;
