#TITLE:Battle Theme;
#ARTIST:Hirokazu Ando;
#FILE:Battle Theme.mp3;
#BPM:180.000;
#GAP:120;
#SAMPLESTART:10.780;
#SAMPLELENGTH:21.500;
#SINGLE:MANIAC:9:
00000000
00000000
00000000
00000000
(B060206080620026)
(8008402080201000)
(8020802060280082)
(4004802080609000)
(6200608600402080)
82426824
8!80220470
(400480602040B000)
(2600206200806020)
(4004800820026006)
2!20880630
(8008408020609000)
(8400802800806020)
28684286
4!408806B0
(8008402060401000)
(2800204200608040)
(4004800820024004)
6!60220880
4!400000B0
74103690
A2B09870
1230B690
78A03690
B!608204B0
(4020802084024004)
(8020602062082002)
(6040204024086002)
(4080201004208020)
(608020A002804080)
(2060203002604060)
(8040807008402040)
(6002600820402080)
(2002400860068008)
(2400420028008200)
62624242
A8622488
36648824
78226442
A8266422
38846684
42824824
424!40162!20
A68!80764!40
(7008601002408040)
(2002600680082002)
4!40807!8020
A!20806630
(8008403002608020)
(4004800820026080)
6!60809!8020
A!20401!4066
7A428242
6284A!2030
87284828
68427!80A0
B040B!B0B0
A080A!A0A0
62686482
42646828
(B020402080820028)
(6006802080603000)
(2060206040480084)
28486410
(8020802060620026)
(800840802040B000)
(6020602040480084)
(200260804080A000)
B0000000
;
