#TITLE:DK Arcade Mix;
#SUBTITLE:;
#ARTIST:Hirokazu Tanaka. ex;
#TITLETRANSLIT:;
#SUBTITLETRANSLIT:;
#ARTISTTRANSLIT:;
#CREDIT:;
#BANNER:;
#BACKGROUND:DK Arcade Mix-bg.jpg;
#LYRICSPATH:;
#CDTITLE:;
#MUSIC:DK Arcade Mix.mp3;
#OFFSET:-6.800;
#SAMPLESTART:16.824;
#SAMPLELENGTH:13.200;
#SELECTABLE:YES;
#BPMS:0.000=104.190;
#STOPS:;
#BGCHANGES:;

//---------------dance-single - ----------------
#NOTES:
     dance-single:
     :
     Challenge:
     9:
     0.496,0.440,0.267,0.181,0.462: // measure 1
0110
0000
0000
0001
0000
1000
0100
0010
0001
0000
0000
0100
0000
1000
0100
0010
,  // measure 2
0001
0000
0100
0001
0010
0000
0000
0000
1000
0000
0010
1000
0100
0000
0000
0000
,  // measure 3
2002
0000
0000
0000
3003
0000
0000
0000
0110
0000
0000
0000
0001
1000
0001
1000
,  // measure 4
0100
0000
0000
0010
0001
0100
1000
0010
1000
0001
1000
0000
0110
0000
0000
0000
,  // measure 5
0001
0000
0000
0100
0000
1000
0100
0010
0001
0000
0000
0010
0000
0001
0010
0100
,  // measure 6
1000
0000
0000
0001
0000
0010
0001
0100
1000
0000
0000
0000
1100
0000
0000
0000
,  // measure 7
0010
0000
0000
0001
0000
0100
0010
1000
0100
0000
0000
0010
0000
0100
0001
0010
,  // measure 8
1000
0000
0000
0100
0000
1000
0010
0001
0100
0000
0001
0000
1001
0000
0000
0000
,  // measure 9
0100
0000
0000
0010
0000
0001
0010
0100
1000
0000
0000
0100
0000
0010
1000
0100
,  // measure 10
0001
0000
0000
0100
0000
1000
0100
0010
0001
0000
0000
0000
0011
0000
0000
0000
,  // measure 11
2100
0000
3001
0010
0200
0000
0301
1000
,  // measure 12
0100
0000
0000
1000
0000
0100
0010
0100
0001
1000
0001
1000
0001
0000
0100
0000
,  // measure 13
1000
0000
0000
0100
0000
0001
0010
0000
0000
0001
0000
0100
0000
0000
1000
0000
,  // measure 14
0100
0000
0000
1000
0000
0010
1000
0000
0000
0001
0000
0100
0000
0000
0000
1000
,  // measure 15
0020
0000
0130
0000
0001
0000
0010
0000
1000
0000
0001
0000
1000
0010
0100
0000
,  // measure 16
1001
0000
0000
0000
0010
0000
0100
0000
0001
1000
0001
0000
0110
0000
0000
0000
,  // measure 17
0200
0000
0000
0001
1300
0000
0000
0000
0001
0000
0000
0100
0000
1000
0001
0010
,  // measure 18
0200
0000
0000
1000
0301
0000
0000
0000
1000
0000
0000
0001
0000
0100
0010
1000
,  // measure 19
0000
0000
0001
0000
0000
0001
0100
0000
0000
0100
1000
0000
0000
0000
0101
0000
,  // measure 20
0000
0000
0010
0000
0000
0010
1000
0000
0000
1000
0001
0000
0000
0000
0011
0000
,  // measure 21
0100
1000
0010
0100
0001
0010
1000
1001
,  // measure 22
0001
0100
1000
0010
0100
0001
1000
1010
,  // measure 23
0201
0000
0000
0000
0010
0000
0000
0000
0301
0000
0010
1000
0100
0000
0010
0000
,  // measure 24
1001
0000
0000
0000
0001
1000
0001
1000
0100
0000
0000
0000
0001
0100
0000
0000
,  // measure 25
0220
0000
0000
0000
,  // measure 26
0000
0000
0000
0330
,  // measure 27
1000
0000
0010
1000
0100
0000
0000
0000
0001
0000
1000
0001
0100
0000
0000
0000
,  // measure 28
0010
0000
0001
0000
1000
0010
1000
0000
0100
0001
0000
0001
1000
0000
0000
0000
,  // measure 29
0100
0000
0001
0000
1000
0010
1000
0000
0010
0000
0001
0000
0100
0000
0001
0000
,  // measure 30
0100
2000
0010
3000
0100
0002
0010
0003
,  // measure 31
1000
0020
0100
0030
1000
0010
1000
0100
,  // measure 32
0001
0000
0000
0001
0100
0000
1000
0000
0010
0000
0000
0010
1000
0000
0100
0000
,  // measure 33
1001
0000
0000
0000
0001
0000
0010
0000
0100
1000
0001
1000
0001
0000
0010
0000
,  // measure 34
0001
0000
0000
1000
0100
0000
0001
0000
0010
0000
0000
0100
0001
0000
0000
0000
,  // measure 35
1001
0000
0000
1000
0010
0000
0100
0000
0001
1000
0010
1000
0100
0000
0010
0000
,  // measure 36
0001
1000
0000
0000
0001
0000
0010
0000
0100
1000
0001
0000
0001
0000
1000
0010
,  // measure 37
0100
0000
0001
0000
0100
0000
1000
0100
0001
1000
0001
0000
0100
0000
0010
0001
,  // measure 38
0200
0000
0010
0301
1000
0001
0010
0100
,  // measure 39
0210
0000
0000
0000
0301
0000
0100
0000
0001
0010
1000
0000
0100
0000
0000
0000
,  // measure 40
2001
3001
0120
1030
,  // measure 41
1001
0000
0101
0000
1010
1000
0100
0001
,  // measure 42
2020
0000
0000
0000
3030
0000
0000
0000
1001
0000
0000
0000
0001
1000
0001
1000
,  // measure 43
0110
0000
0000
0000
;
