#TITLE:Throwback Galaxy;
#SUBTITLE:;
#ARTIST:Gohara Shigetoshi;
#TITLETRANSLIT:;
#SUBTITLETRANSLIT:;
#ARTISTTRANSLIT:;
#CREDIT:;
#BANNER:;
#BACKGROUND:white-bg.PNG;
#LYRICSPATH:;
#CDTITLE:;
#MUSIC:Throwback Galaxy.mp3;
#OFFSET:-0.600;
#SAMPLESTART:6.080;
#SAMPLELENGTH:17.200;
#SELECTABLE:YES;
#BPMS:0.000=113.000;
#STOPS:;
#BGCHANGES:;

//---------------dance-single - ----------------
#NOTES:
     dance-single:
     :
     Hard:
     8:
     0.240,0.223,0.039,0.066,0.266:
0000
0000
0000
0000
,
0000
0000
0000
0000
,
0100
0001
0000
0001
1000
0000
0010
0000
1000
0000
0100
0000
1000
0000
0000
0000
,
0010
1000
0000
1000
0001
0000
0100
0000
0001
0000
0010
0000
0001
0000
0000
0000
,
0100
0001
0000
0100
1000
0000
0010
0001
0000
0100
0001
0000
0010
1000
0000
0010
,
0100
0000
0001
0000
0100
0010
0000
1000
0000
0000
0000
0000
0000
0000
0100
0000
,
0001
1000
0000
1000
0000
0010
1000
0000
1000
0000
1000
0000
0100
0000
0000
0000
,
1000
0001
0000
0001
0000
0100
0001
0000
0001
0000
0001
0000
0010
0000
0000
0000
,
1000
0100
1000
0000
0000
0000
0001
0100
0001
0000
0000
0000
0010
0000
0001
0000
,
0200
0000
0000
0000
0310
1000
0000
1000
0000
0000
0001
1000
0000
0000
0100
0000
,
0010
0001
0000
0001
0100
0000
0010
0000
1000
0000
0000
0000
0102
0000
0000
0000
,
1003
0010
0000
0010
0100
0000
1000
0000
0001
0000
0000
0000
1020
0000
0000
0000
,
0031
1000
0000
0001
1000
0000
0100
0010
0000
0100
0010
0000
0001
1000
0000
0001
,
0010
1000
0000
0010
0100
0000
0200
0000
0000
0000
0010
0000
0310
0000
0000
0000
,
0001
0100
0000
0100
0010
0000
1000
0000
0010
0000
0100
0000
0010
1000
0000
0001
,
1000
0000
0100
0000
1000
0000
0010
0000
0100
0000
0010
0000
1000
0010
0000
0100
,
0001
0010
0001
0000
0000
0000
0010
1000
0010
0000
0000
0000
0010
0000
0100
0000
,
1001
0000
0010
0000
0100
0010
0000
1001
0000
0000
0000
0000
0010
0100
0000
0001
,
2000
0000
0000
0100
3200
0000
0000
0001
,
0301
0000
0010
0001
0000
0000
0100
1000
0000
0000
0000
0000
0100
0010
0000
1000
,
0002
0000
0000
0010
0023
0000
0000
1000
,
1030
0000
0100
1000
0000
0000
0010
0100
0000
0000
0000
0000
0000
0000
0000
0000
,
0010
1000
0010
1000
0100
1000
0100
1000
,
0010
0000
0100
0010
0000
0000
1000
0001
0000
0000
0000
0000
0000
0000
0000
0000
,
0100
0001
0100
0001
0010
0001
0010
0001
,
0100
0000
0010
0100
0000
0000
0001
1000
0000
0000
0000
0000
0100
0000
0010
0000
,
1000
0010
0000
1000
0000
0000
0100
0000
0001
0010
0000
0001
0000
0000
1000
0000
,
0100
0010
0000
0100
0000
0000
0001
0000
0010
1000
0000
0010
0000
0000
0100
0000
,
0001
1000
0000
0001
0000
0000
0010
0000
0100
0001
0000
0100
0000
0000
0001
0000
,
1000
0010
0100
0010
0100
0000
1001
0000
,
0001
0100
0000
0001
0000
0000
0100
0000
0010
1000
0000
0010
0000
0000
0001
0000
,
1000
0010
0000
1000
0000
0000
0001
0000
0100
0010
0000
0100
0000
0000
0010
0000
,
1000
0100
0000
1000
0000
0000
0100
0000
0010
0001
0000
0010
0000
0000
1000
0000
,
0010
1000
0100
0001
0100
0000
2002
0000
,
3003
0000
0000
0000
;

//---------------dance-single - ----------------
#NOTES:
     dance-single:
     :
     Medium:
     4:
     0.169,0.168,0.026,0.059,0.016:
0000
0000
0000
0000
,
0000
0000
0000
0000
,
0001
1000
0001
0010
0100
0000
0000
0000
,
1000
0001
1000
0010
0100
0000
0000
0010
,
0001
0001
0000
1000
1000
0000
0100
0100
,
0001
1000
0010
0001
0001
0100
0001
0000
,
1000
0010
1000
0100
0001
0000
0000
0010
,
0001
0100
0001
0010
1000
0000
0000
0100
,
1000
1000
0000
0001
0001
0000
0010
0100
,
0020
1000
1000
1030
,
0100
0001
0100
0010
1000
0000
1001
0000
,
0010
1000
0010
0100
0001
0000
1001
0000
,
0100
0100
0000
0001
0001
0000
0100
1000
,
0010
0000
0000
0100
0000
0000
0020
0000
0000
0000
0000
0000
1030
0000
0000
0000
,
0001
1000
0001
0100
0010
0000
0000
0000
,
1000
0010
1000
0001
0100
0000
0000
0010
,
0001
0001
0000
0100
0100
0000
0010
1000
,
0200
0000
0310
0000
,
0020
0031
2000
3100
,
0010
0000
0000
0010
0000
0000
0010
0000
0000
0000
0000
0000
0000
0000
0000
0000
,
0200
1300
0002
0013
,
0100
0000
0000
0100
0000
0000
0100
0000
0000
0000
0000
0000
0000
0000
0000
0000
,
0010
0100
0010
0000
0001
1000
0001
0000
,
1000
0000
0000
1000
0000
0000
1000
0000
0000
0000
0000
0000
0000
0000
0000
0000
,
0001
0010
0001
0000
1000
0100
1000
0000
,
0001
0000
0000
0001
0000
0000
0001
0000
0000
0000
0000
0000
0000
0000
0000
0000
,
0010
0100
0100
0000
0001
1000
1000
0000
,
0100
0001
0001
0000
0010
0100
0100
0000
,
1000
0001
0001
0000
0100
0010
0010
0000
,
0001
1000
0001
0100
0010
0000
1001
0000
,
0100
0010
0010
0000
0001
1000
1000
0000
,
0100
0001
0001
0000
0010
1000
1000
0000
,
0100
0001
0001
0000
0010
0100
0100
0000
,
1000
0001
1000
0100
0010
0000
2002
0000
,
3003
0000
0000
0000
;

//---------------dance-single - ----------------
#NOTES:
     dance-single:
     :
     Easy:
     2:
     0.097,0.122,0.118,0.000,0.000:
0000
0000
0000
0000
,
0000
0000
0000
0000
,
0001
1000
0001
0000
,
0100
1000
0100
0000
,
0010
0000
0010
0000
,
0100
0000
1001
0000
,
0001
0100
0001
0000
,
0010
0001
0010
0000
,
0100
0000
0100
0000
,
1001
0000
0000
0000
,
1000
0010
1000
1000
,
0001
0100
0001
0001
,
0100
0000
0100
0000
,
1001
0000
0000
0000
,
0010
0100
0010
0010
,
1000
0100
1000
1000
,
0001
0000
1000
0000
,
1001
0000
0000
0000
,
0010
0000
0010
0000
,
1000
0001
1000
0000
,
0100
0000
0100
0000
,
0001
1000
0001
0000
,
0010
0010
0100
0100
,
0010
0100
0010
0000
,
0001
0001
1000
1000
,
0100
0010
0100
0000
,
1001
0000
1001
0000
,
0110
0000
0110
0000
,
1001
0000
1001
0000
,
0010
0010
0010
1001
,
0110
0000
0110
0000
,
1001
0000
1001
0000
,
0110
0000
0110
0000
,
0100
0100
0100
1001
;

//---------------dance-single - ----------------
#NOTES:
     dance-single:
     :
     Beginner:
     1:
     0.066,0.078,0.033,0.000,0.000: // measure 1
0000
0000
0000
0000
,  // measure 2
0000
0000
0000
0000
,  // measure 3
0100
0000
0100
0000
,  // measure 4
0010
0000
0010
0000
,  // measure 5
0001
0000
1000
0000
,  // measure 6
0001
0000
0100
0000
,  // measure 7
0010
0000
0010
0000
,  // measure 8
1000
0000
1000
0000
,  // measure 9
0001
0000
1000
0000
,  // measure 10
0001
0000
0000
0000
,  // measure 11
1000
0000
0010
0000
,  // measure 12
1000
0000
0100
0000
,  // measure 13
1000
0000
0001
0000
,  // measure 14
0100
0000
0100
0000
,  // measure 15
1001
0000
0010
0000
,  // measure 16
0100
0000
0010
0000
,  // measure 17
0001
0000
0100
0000
,  // measure 18
0001
0000
1001
0000
,  // measure 19
1001
0000
0010
0000
,  // measure 20
0010
0000
0100
0000
,  // measure 21
1000
0000
0100
0000
,  // measure 22
0001
0000
1000
0000
,  // measure 23
0100
0000
0100
0000
,  // measure 24
0010
0000
0010
0000
,  // measure 25
0001
0000
0001
0000
,  // measure 26
1000
0000
1000
0000
,  // measure 27
1001
0000
0100
0000
,  // measure 28
0010
0000
0100
0000
,  // measure 29
0001
0000
1000
0000
,  // measure 30
0001
0000
0001
0001
,  // measure 31
0010
0000
0010
0000
,  // measure 32
1000
0000
1000
0000
,  // measure 33
0100
0000
0100
0000
,  // measure 34
0001
0000
1000
1001
;
