#TITLE:Shock Wave;
#SUBTITLE:;
#ARTIST:Audiotec;
#TITLETRANSLIT:;
#SUBTITLETRANSLIT:;
#ARTISTTRANSLIT:;
#CREDIT:;
#BANNER:;
#BACKGROUND:Shock Wave-bg.jpg;
#LYRICSPATH:;
#CDTITLE:;
#MUSIC:Shock Wave.mp3;
#OFFSET:-3.500;
#SAMPLESTART:56.460;
#SAMPLELENGTH:12.500;
#SELECTABLE:YES;
#BPMS:0.000=145.000;
#STOPS:;
#BGCHANGES:;

//---------------dance-single - ----------------
#NOTES:
     dance-single:
     :
     Edit:
     9:
     0.776,0.749,0.252,0.207,0.959: // measure 1
0000
0000
0000
0000
,  // measure 2
0000
0000
0000
0000
,  // measure 3
0010
2000
0000
0001
0000
0000
0001
0000
0000
0001
0000
0000
3100
0000
0000
0100
,  // measure 4
0001
0020
0000
0100
0000
0000
0100
0000
0000
0100
0000
0000
0130
0000
0000
0010
,  // measure 5
0100
0002
0000
0010
0000
0000
0010
0000
0000
0010
0000
0000
0013
0000
0000
0010
,  // measure 6
0001
0200
0000
0001
0000
0000
0001
0000
0000
0001
0000
0000
0310
0000
0000
0010
,  // measure 7
1000
0020
0000
1000
0000
0000
1000
0000
0000
1000
0000
0000
1030
0000
0000
1000
,  // measure 8
0100
0000
0000
0000
,  // measure 9
0100
0001
0000
0100
0010
0000
0100
0000
1000
0000
0010
1000
0100
0000
0010
1000
,  // measure 10
0000
1000
0000
0100
0001
0000
0010
0000
0100
0000
0010
0001
0100
0000
0001
0010
,  // measure 11
0000
0010
0000
0100
1000
0000
0010
0000
0100
0000
0100
0010
0001
0000
0001
0100
,  // measure 12
0000
0100
0000
0010
1000
0000
0100
0000
0010
0000
1000
0000
1001
0000
0000
0000
,  // measure 13
0010
1000
0000
0010
0100
0000
0010
0000
0001
0000
0100
0010
0100
0000
1000
0001
,  // measure 14
0000
0001
0000
0010
0100
0000
1000
0000
0100
0000
0010
0100
0010
0000
0001
1000
,  // measure 15
0000
1000
0000
0100
0001
0000
0010
0000
0001
0100
0001
0000
0010
1000
0000
0100
,  // measure 16
0020
0000
0000
0100
0000
0000
0100
0000
0000
0100
0000
0000
0130
0000
0000
0000
,  // measure 17
0001
1000
0000
0001
0100
0000
0010
0000
1000
0010
0000
0100
2000
0000
3100
0000
,  // measure 18
1000
0010
0000
1000
0100
0000
0010
0000
0001
0010
0000
0100
0020
0000
0130
0000
,  // measure 19
0010
1000
0000
0010
0100
0000
1000
0000
0100
0010
0000
0100
0002
0000
0103
0000
,  // measure 20
0001
1000
0000
0001
0010
0000
0100
0000
0010
0100
0000
1000
0200
0000
1300
0000
,  // measure 21
0100
0010
0000
0100
0001
0000
0010
0000
0001
0100
0000
1000
0020
0000
1030
0000
,  // measure 22
0010
1000
0000
0010
0100
0000
0001
0000
0010
0100
0000
0001
0200
0000
0301
0000
,  // measure 23
0100
0001
0000
0100
0010
0000
1000
0000
0010
0100
0000
0010
0002
0000
0013
0000
,  // measure 24
0001
0100
0000
0001
0010
0000
1000
0000
0010
0100
0000
0010
0100
0000
0000
0000
,  // measure 25
1020
0000
0100
0000
0100
1000
0130
0000
,  // measure 26
1002
0000
0100
0000
0100
1000
0103
0000
,  // measure 27
2010
0000
0001
0000
0001
0100
3001
0000
,  // measure 28
0210
0000
0001
0000
0001
0010
0301
0000
,  // measure 29
0010
0100
0000
1000
0100
0000
0001
0000
0100
0000
0001
0010
0100
0000
1000
0000
,  // measure 30
1000
0100
0000
0010
0100
0000
1000
0000
0010
0000
1000
0100
0010
0000
0001
0000
,  // measure 31
0001
0100
0000
0010
0100
0000
1000
0000
0010
0000
1000
0100
0001
0000
0001
0000
,  // measure 32
0220
0000
0000
0330
,  // measure 33
1000
0010
0000
1000
0100
0000
0001
0000
0001
0010
0000
0100
1000
0100
0000
0010
,  // measure 34
0100
1000
0000
1000
0010
0000
0100
0000
0001
0010
0000
0010
1000
0100
1000
0000
,  // measure 35
0010
0100
0000
0000
1001
0000
0100
0000
0010
1000
0000
1000
0100
0000
0001
0000
,  // measure 36
0100
0010
0000
0100
0001
0010
0100
1000
0100
0000
0001
0000
0011
0000
0000
0000
,  // measure 37
0001
0100
0000
0001
0010
0000
1000
0000
1000
0100
0000
0010
0001
0010
0000
0100
,  // measure 38
1000
0010
0000
0010
0100
0000
0001
0000
1000
0000
1000
0010
0001
0100
0001
0000
,  // measure 39
0100
0010
0000
0000
0110
0000
1000
0000
0100
0001
0000
0001
0100
0000
0001
0000
,  // measure 40
0020
0000
0100
0100
0200
0000
0330
0000
,  // measure 41
0001
0100
0000
0000
0101
0000
0001
0000
0010
0000
1000
0100
1000
0010
0100
0000
,  // measure 42
0001
0010
0000
0010
0001
0000
0100
0000
0010
0100
0000
0001
0100
0010
0100
0000
,  // measure 43
1000
0010
0000
0000
1100
0000
1000
0000
0010
0100
0000
0100
0001
1000
0000
1000
,  // measure 44
0010
0100
0000
0010
0100
0001
0000
0100
0001
0000
0010
0000
0100
0000
1000
0000
,  // measure 45
0010
1000
0000
0000
1010
0000
1000
0000
0100
0000
0001
1000
0001
0010
0100
0000
,  // measure 46
1000
0010
0000
0010
0100
0000
0001
0000
0100
0010
0000
0100
0010
1000
0010
0000
,  // measure 47
0100
0001
0100
1000
0100
0010
0100
0001
,  // measure 48
1001
0000
0000
0000
,  // measure 49
0100
0010
0000
0010
1000
0000
0100
1000
0010
0000
0010
0000
0100
0010
0100
1000
,  // measure 50
0000
1100
0000
0010
0100
0000
0001
0100
1000
0000
0010
0000
1000
0100
1000
0001
,  // measure 51
0000
0011
0000
0100
0010
0000
0001
0010
1000
0000
1000
0000
0100
0001
0100
0010
,  // measure 52
0000
1010
0000
0100
1000
0000
0010
1000
0100
0010
0000
0100
0001
0010
0100
1000
,  // measure 53
0000
1100
0000
0010
0100
0000
0001
0100
0010
0000
0010
0000
1000
0010
1000
0100
,  // measure 54
0000
0101
0000
0001
0010
0000
1000
0010
0100
0000
0100
0000
0001
0010
0001
0100
,  // measure 55
0000
1100
0000
1000
0010
0000
0001
0010
0100
0000
1000
0010
1000
0100
0010
0001
,  // measure 56
0000
1001
0000
1000
0100
0000
0001
0100
0010
0000
0100
0000
0001
1000
0001
1000
,  // measure 57
0010
0100
0000
0000
1100
0000
1000
0000
0010
0000
1000
0100
0010
0000
1000
0010
,  // measure 58
0100
0010
0000
0000
0110
0000
0100
0000
0001
0000
0000
0001
0100
1000
0100
1000
,  // measure 59
0001
0010
0000
0000
0101
0000
0001
0000
0010
0000
0100
0001
0100
0000
0001
0010
,  // measure 60
1000
0010
0000
0000
1010
0000
0010
0000
0100
0000
0000
0100
0010
1000
0010
1000
,  // measure 61
0100
0001
0000
0000
1001
0000
1000
0000
0100
0000
1000
0010
1000
0000
0001
1000
,  // measure 62
0100
1000
0000
0000
1100
0000
0100
0000
0010
0000
0000
0010
0001
0100
0001
0100
,  // measure 63
0010
1000
0000
0000
1010
0000
1000
0000
0010
0000
0100
1000
0100
0000
0010
0100
,  // measure 64
0001
0000
0000
0000
0020
0200
0330
0000
,  // measure 65
1001
0000
0000
0000
;
