#TITLE:Scripted Connection;
#SUBTITLE:[normal];
#ARTIST:DJ MURASAME;
#TITLETRANSLIT:;
#SUBTITLETRANSLIT:;
#ARTISTTRANSLIT:;
#CREDIT:;
#BANNER:Scripted Connection.png;
#BACKGROUND:black-bg.PNG;
#LYRICSPATH:;
#CDTITLE:;
#MUSIC:Scripted Connection [normal].mp3;
#OFFSET:-0.040;
#SAMPLESTART:82.700;
#SAMPLELENGTH:25.500;
#SELECTABLE:YES;
#BPMS:0.000=151.000;
#STOPS:;
#BGCHANGES:;

//---------------dance-single - ----------------
#NOTES:
     dance-single:
     :
     Challenge:
     10:
     0.789,0.762,0.409,0.122,0.723:
0000
0000
0000
0000
,
0000
0000
0000
0000
,
1001
0000
0000
0001
1000
0000
0100
0000
1000
0000
0010
0000
0100
0000
0001
0000
,
1100
0000
0000
1000
0100
0000
0010
0000
0200
0000
0001
0000
0301
0000
0000
0000
,
1010
0000
0000
0001
1000
0000
0010
0000
0100
0000
0001
0000
1000
0000
0010
0000
,
0110
1000
0002
0000
1000
0010
1003
0000
,
0110
0000
0000
0010
0100
0000
1001
0000
0100
0000
0001
0000
0010
0000
1000
0000
,
0110
0000
0000
0001
0100
0000
1000
0000
0020
0000
1000
0000
1030
0000
0000
0000
,
0101
1100
0101
1100
,
0101
0000
1000
0000
0010
0000
0001
0000
0010
1000
0010
0000
0100
0001
0100
0000
,
0011
0000
0000
0000
0000
0000
1000
0000
0000
0100
0000
0000
0001
0000
0000
0000
0000
0000
0000
0000
0001
0000
0000
0000
0100
0000
0000
0000
1000
0000
0000
0000
0000
0001
0000
0000
0010
0000
0000
0000
0000
0000
0100
0000
0000
0000
0000
0000
,
1001
0000
0000
1000
0001
0000
0010
0000
2000
0000
0100
0000
3100
0000
0000
0000
,
1001
0000
0000
0000
0000
0000
0000
0000
0000
0100
0000
0000
1000
0000
0000
0000
0000
0000
0000
0000
0010
0000
0000
0000
1000
0000
0000
0000
0100
0000
0000
0000
0000
0010
0000
0000
0001
0000
0000
0000
0000
0000
0100
0000
0000
0000
0000
0000
,
1001
0010
0200
0000
0010
1000
0301
0000
,
1100
0000
0000
0000
0000
0000
0000
0000
0000
1000
0000
0000
0100
0000
0000
0000
0000
0000
0000
0000
0001
0000
0000
0000
1000
0000
0000
0000
0010
0000
0000
0000
0000
0100
0000
0000
0001
0000
0000
0000
0000
0000
1000
0000
0000
0000
0000
0000
,
0110
0000
0000
0001
0100
0000
1000
0000
0002
0000
0010
0000
0013
0000
0000
0000
,
1100
0000
0000
0001
1000
0000
0010
0000
0100
0000
0001
0010
1000
0000
0010
0000
,
0101
1000
0020
0000
0100
0001
1030
0000
,
0001
0000
1000
0001
0000
0100
0010
0000
1000
0000
0100
1000
0000
0001
0100
0000
,
0010
0000
0001
0010
0000
1000
0010
0000
0100
0000
0001
0100
0000
0010
0001
1000
,
0001
0000
0000
0100
0001
0000
0010
0000
1000
0000
0100
0000
1000
0000
0001
0000
,
0110
0000
0000
0001
1000
0000
0001
0000
0200
0000
1000
0000
1300
0000
0000
0000
,
0101
0000
0000
1000
0001
0000
0010
0000
0001
0000
0100
0000
1000
0000
0010
0000
,
0100
0000
1000
0001
1000
0000
0010
1000
0001
0000
0100
0001
1000
0000
0010
1000
,
0001
1000
0100
1000
0010
1000
0001
1000
,
0100
0001
0010
0001
1000
0001
0110
0000
,
1001
0110
1001
0110
,
1001
0000
0001
0000
0100
0000
1000
0000
0010
0100
0010
0000
0001
1000
0001
0000
,
0100
0000
0001
0100
1000
0000
0010
0001
1000
0000
0010
1000
0001
0000
0100
0001
,
1000
0000
0010
0100
0001
0000
0100
0001
1000
0000
0010
1000
0100
0000
0001
1000
,
0010
0000
0100
0001
1000
0000
0010
1000
0001
0000
0100
0001
1000
0000
0010
1000
,
0100
0000
1000
0001
0010
0000
1000
0001
0000
0010
1000
0000
0100
1000
0001
0000
,
1000
0010
1100
0001
1000
0010
1100
0001
,
1000
0010
1001
0100
1000
0010
1001
0100
,
0001
1000
0101
0010
0100
1000
0101
0010
,
1000
0100
1000
0010
1000
0010
0100
1000
0001
0010
1000
0100
,
1001
0000
0000
0100
0001
0000
0010
0000
1000
0000
0000
0100
1000
0000
0001
0000
,
0110
0000
0000
0010
0100
0000
0001
0000
1000
0000
0000
0010
1000
0000
0100
0000
,
1001
0000
0000
1000
0001
0000
0100
0000
0010
0000
0000
1000
0010
0000
0001
0000
,
0110
0000
0000
1000
0100
0000
0001
0000
0010
1000
0000
1000
0001
0000
1000
0000
,
0110
0000
0000
0100
0001
0000
0010
0000
1000
0000
0000
1000
0100
0000
0001
0000
,
0110
0000
0000
0010
1000
0000
0100
0000
0001
0000
0000
0001
1000
0000
0010
0000
,
1001
0000
0000
1000
0100
0000
0001
0000
0010
0000
0000
0010
1000
0000
0100
0000
,
0011
0000
0000
0000
0000
0000
0000
0000
0000
0001
0000
0000
0100
0000
0000
0000
0000
0000
0010
0000
0000
0000
0000
0000
1000
0000
0000
0000
0000
0000
0000
0000
0000
1000
0000
0000
0100
0000
0000
0000
0010
0000
0000
0000
1000
0000
0000
0000
,
0001
0000
0200
0000
0000
0000
0010
0000
1300
0000
0000
0001
0100
0000
0010
0000
,
1000
0000
0000
0100
1000
0000
0010
0000
0100
0000
0000
1000
0001
0000
0010
0000
,
0100
0000
0002
0000
0000
0000
0010
0000
1003
0000
0000
0100
1000
0000
0010
0000
,
0100
0000
0000
1000
0001
0000
0100
0000
0010
0000
0000
0001
1000
0000
0100
0000
,
1000
0000
0020
0000
0000
0000
0100
0000
0031
0000
0000
1000
0100
0000
0010
0000
,
1000
0000
0000
0001
1000
0000
0100
0000
0010
0000
0000
1000
0001
0000
0100
0000
,
0010
0000
2000
0000
0000
0000
0001
0000
3100
0000
0000
0010
0001
0000
0100
0000
,
0001
1000
0001
0100
0001
0100
0010
1000
0010
1000
0100
0001
,
0100
0010
1000
0001
1000
0001
0010
1000
0100
0001
0100
0001
,
0010
0100
0001
1000
0001
1000
0100
0001
0010
1000
0010
1000
,
0100
0000
0000
0000
0100
0000
0001
0000
0000
0010
0000
0000
0001
0000
0000
0000
0001
0000
1000
0000
0000
0010
0000
0000
,
0100
0000
0000
0000
0100
0000
1000
0000
0000
0010
0000
0000
1000
0000
0000
0000
1000
0000
0100
0000
0000
0001
0000
0000
,
0010
1000
0001
0100
0001
0100
0010
0001
1000
0010
1000
0010
,
0100
0001
1000
0001
1000
0100
0010
0100
0001
1000
0001
1000
,
0010
0000
0000
0000
0010
0000
1000
0000
0000
0001
0000
0000
1000
0000
0000
0000
1000
0000
0010
0000
0000
0100
0000
0000
,
0001
0000
0000
0000
0001
0000
0100
0000
0000
0010
0000
0000
0100
0000
0000
0000
0100
0000
1000
0000
0000
0001
0000
0000
,
0010
1000
0100
0001
0100
0001
1000
0010
0100
1000
0100
1000
,
0010
0001
0010
1000
0010
1000
0001
0100
1000
0001
1000
0001
,
0010
0000
0000
0000
0010
0000
0001
0000
0000
1000
0000
0000
0001
0000
0000
0000
0001
0000
0100
0000
0000
0010
0000
0000
,
1000
0000
0000
0000
1000
0000
0100
0000
0000
0001
0000
0000
0010
0000
0000
0000
0010
0000
1000
0000
0000
0001
0000
0000
,
0100
0000
0000
0000
0100
0000
1000
0000
0000
0010
0000
0000
0001
0000
0000
0000
0001
0000
0100
0000
0000
0010
0000
0000
,
1000
0000
0000
0000
1000
0000
0010
0000
0000
0100
0000
0000
0001
0000
0000
0000
0001
0000
1000
0000
0000
0010
0000
0000
,
1100
0001
0100
1000
0100
0010
0100
0001
,
1100
0010
1001
0100
1100
0010
1001
0001
,
0020
0000
0000
0000
,
0200
0000
0000
0000
,
0330
0000
0000
0000
;
