#TITLE:Scripted Connection;
#SUBTITLE:[another];
#ARTIST:DJ MURASAME;
#TITLETRANSLIT:;
#SUBTITLETRANSLIT:;
#ARTISTTRANSLIT:;
#CREDIT:;
#BANNER:Scripted Connection.png;
#BACKGROUND:black-bg.PNG;
#LYRICSPATH:;
#CDTITLE:;
#MUSIC:Scripted Connection [another].mp3;
#OFFSET:-3.000;
#SAMPLESTART:60.200;
#SAMPLELENGTH:25.500;
#SELECTABLE:YES;
#BPMS:0.000=151.000;
#STOPS:;
#BGCHANGES:;

//---------------dance-single - ----------------
#NOTES:
     dance-single:
     :
     Challenge:
     10:
     0.785,0.739,0.259,0.041,0.624:
0010
1000
0000
0100
1000
0000
0010
0000
0001
0000
0100
0000
1000
0000
0100
0000
,
0001
0000
0010
0000
0100
0001
0000
0001
1000
0000
0010
0000
1000
0000
0000
0000
,
0100
0001
0000
0010
0001
0000
0100
0000
1000
0000
0100
0000
0001
0000
0010
0000
,
1000
0000
0001
0000
0100
1000
0000
1000
0001
0000
0100
0000
0001
0000
0000
0000
,
0100
0010
0000
1000
0010
0000
0001
0000
0100
0000
1000
0000
0100
0000
0001
0000
,
0010
0000
0100
0000
0010
0001
0000
0001
1000
0000
0100
0000
0010
0000
0000
0000
,
0001
1000
0000
0010
1000
0000
0001
0000
0100
0000
0001
0000
0010
0000
0100
0000
,
1000
0000
0010
0000
0100
1000
0000
1000
0001
0000
0100
0000
1000
0000
0000
0000
,
0010
1000
0000
0001
2000
0000
0000
0000
0010
0000
0000
0000
0100
0000
0010
0000
,
0001
0000
0000
0000
0100
0000
0000
0100
0000
0000
0000
0000
3001
0000
0000
0000
,
0100
0001
0000
1000
0002
0000
0000
0000
0010
0000
0000
0000
0100
0000
0010
0000
,
1000
0000
0000
0000
0010
0000
0000
0010
0000
0000
0000
0000
1003
0000
0000
0000
,
0100
1000
0000
0001
2000
0000
0000
0000
0010
0000
0000
0000
0100
0000
0010
0000
,
0001
0000
0000
0000
0100
0000
0000
0100
0000
0000
0000
0000
3001
0000
0000
0000
,
0020
1000
1000
0000
0100
0000
1030
0000
,
0200
0001
0001
0000
0010
0000
0301
0000
,
0100
1000
0100
0001
0100
1000
0100
0001
,
0100
1000
0100
0001
0100
1000
0100
0001
,
0010
1000
0010
0001
0010
1000
0010
0001
,
0010
1000
0010
0001
0010
1000
0010
0001
,
1100
0001
1000
0010
1100
0001
1000
0010
,
1100
0001
1000
0010
1100
0001
1000
0010
,
1100
0001
1000
0010
1100
0001
1000
0010
,
0100
0000
1000
0000
0100
0000
0001
0000
0010
1000
0010
0000
0100
0001
0100
0000
,
0001
1000
0100
0001
1000
0000
0010
0000
0100
0000
0001
0000
1000
0000
0010
0000
,
0100
0001
1000
0100
1000
0000
0010
0000
0100
0000
0001
0000
1000
0000
0100
0000
,
0010
1000
0001
0010
0001
0000
0100
0000
0010
0000
1000
0000
0001
0000
0100
0000
,
0010
0100
0001
0000
0010
0001
1000
0000
0100
0000
0001
0000
0010
0000
1000
0000
,
0100
0000
0001
0100
0000
0000
1000
0100
0000
0000
0001
0100
0000
0000
1000
0100
,
0000
0000
0010
0001
0000
0000
0010
1000
0000
0000
0010
0001
0000
0000
0010
1000
,
0000
0000
0001
0100
0000
0000
1000
0010
0000
0000
0001
0100
0000
0000
1000
0010
,
0000
0000
0000
0000
0000
0000
1000
0000
0000
0100
0000
0000
0000
0000
0000
0000
0000
0000
0001
0000
0000
0010
0000
0000
0100
0000
0000
0000
1000
0000
0000
0000
0010
0000
0000
0000
1000
0000
0000
0000
0001
0000
0000
0000
0010
0000
0000
0000
,
0100
0000
1000
0000
1100
0000
0001
0000
1000
0000
0010
0000
1001
0000
0000
1000
,
0100
0000
0001
0000
0101
0000
0010
0000
1000
0000
0001
0000
0110
0000
0000
0001
,
1000
0000
0010
0000
1010
0000
0001
0000
0100
0000
1000
0000
0011
0000
0000
0001
,
0100
0010
1000
0010
0100
0001
0100
0010
1000
0100
1000
0010
,
0001
0000
1000
0000
0100
0000
0000
0100
0001
0000
0010
0000
1000
0000
0000
1000
,
0010
0000
0100
0000
0001
0000
0000
0001
1000
0000
0010
0000
0100
0000
0000
0100
,
1000
0000
0010
0000
0100
0000
0001
1000
0001
0000
0100
0000
0010
0000
1000
0100
,
1000
0000
0001
0000
0010
0000
0001
0100
0001
0000
0010
0000
1000
0000
0100
0001
,
0100
0000
1000
0000
0010
0000
0000
0010
0001
0000
0100
0000
1000
0000
0000
1000
,
0010
0000
0100
0000
0001
0000
0000
0001
0010
0000
1000
0000
0100
0000
0000
0100
,
0010
0000
0001
0000
1000
0000
0010
1000
0010
0000
0100
0000
0001
0000
1000
0001
,
1000
0000
0010
0000
0100
0000
0001
0010
0001
0000
0100
0000
1000
0000
0010
1000
,
0010
0000
0001
0000
0100
0000
0001
1000
0001
0000
0010
0000
1000
0000
0100
0001
,
0100
0000
0010
0000
1000
0000
0001
0100
0001
0000
0010
0000
1000
0000
0010
0001
,
0010
0000
1000
0000
0100
0000
0001
0010
0001
0000
0100
0000
0001
0000
0010
1000
,
0010
0000
0100
0000
0010
0000
1000
0100
1000
0000
0010
0000
0100
0000
0001
0000
,
1001
0000
0010
0000
0001
0000
0100
1000
0100
0000
0001
0000
0010
0000
1000
0000
,
1001
0000
0010
0000
0100
0000
0001
0010
0001
0000
1000
0000
0010
0000
0001
0000
,
1100
0010
0001
0010
1100
0010
0001
0010
,
1100
0001
1001
1000
0110
0100
1001
0000
,
1000
0010
1000
0010
1000
0000
0100
0000
0001
0100
0001
0100
0001
0000
0010
0000
,
1000
0001
1000
0001
1000
0000
0010
0000
0100
0001
0100
0001
0100
0000
1000
0000
,
0001
1000
0001
1000
0001
0000
0010
0000
1000
0100
1000
0100
1000
0000
0010
0000
,
0100
0001
0100
0001
0100
0000
1000
0000
0100
0001
0000
0001
1000
0000
0000
0000
,
0010
1000
0010
1000
0010
0000
0001
0000
0100
1000
0100
1000
0100
0000
0010
0000
,
0001
1000
0001
1000
0001
0000
0100
0000
1000
0010
1000
0010
1000
0000
0001
0000
,
0100
0001
0100
0001
0100
0000
0010
0000
1000
0001
1000
0001
1000
0000
0010
0000
,
0100
1000
0100
1000
0100
0000
0001
0000
0010
1000
0000
1000
0100
0000
0000
0000
,
1000
0100
0000
0010
0100
0000
1000
0001
0000
0000
1000
0010
0100
0000
1000
0001
,
0000
0000
1000
0010
0100
0000
1000
0001
0000
0000
1000
0010
0100
0000
1000
0001
,
0000
0000
0100
0001
0010
0000
0001
1000
0000
0000
0100
0001
0010
0000
0001
1000
,
0000
0000
0100
0001
0010
0000
0001
1000
0000
0000
0100
0001
0010
0000
0001
1000
,
0000
0000
0010
1000
0100
0000
1000
0001
0000
0000
0010
1000
0100
0000
1000
0001
,
0000
0000
0010
1000
0100
0000
1000
0001
0000
0000
0010
1000
0100
0000
1000
0001
,
0000
0000
0100
0001
0010
0000
0001
1000
0000
0000
0100
0001
0010
0000
0001
1000
,
0000
0000
0100
0001
0010
0000
0001
1000
0000
0000
0100
0001
0010
0000
0001
1000
,
0100
0001
0100
1000
0100
0010
0100
0001
,
0110
1000
0100
0001
1100
0010
0100
1000
,
0110
0001
0010
0100
0011
1000
0010
0001
,
1010
0100
0011
0001
0110
1000
1010
0001
,
1001
1010
0110
0000
0000
0000
0000
0000
,
1001
0000
0000
0000
;
