#TITLE:SEQUENCE CAT;
#SUBTITLE:;
#ARTIST:SLEDLAKE;
#TITLETRANSLIT:;
#SUBTITLETRANSLIT:;
#ARTISTTRANSLIT:;
#CREDIT:;
#BANNER:SEQUENCE CAT.png;
#BACKGROUND:SEQUENCE CAT-bg.jpg;
#LYRICSPATH:;
#CDTITLE:;
#MUSIC:SEQUENCE CAT.mp3;
#OFFSET:0.000;
#SAMPLESTART:52.960;
#SAMPLELENGTH:13.500;
#SELECTABLE:YES;
#BPMS:0.000=145.000;
#STOPS:;
#BGCHANGES:;

//---------------dance-single - ----------------
#NOTES:
     dance-single:
     :
     Hard:
     9:
     0.661,0.723,0.225,0.257,0.522: // measure 1
0000
0000
0000
0000
,  // measure 2
0000
0000
0000
0000
,  // measure 3
0000
0000
0000
0000
,  // measure 4
0000
0000
0000
0000
,  // measure 5
0100
0000
0010
0100
0001
0000
0010
0000
0100
1000
0010
1000
0001
0000
0000
0000
,  // measure 6
0010
0000
0100
0010
0001
0000
0100
0000
0010
1000
0010
1000
0100
0000
0000
0000
,  // measure 7
0001
0000
0100
0001
0010
0000
1000
0000
0100
0001
0010
0001
1000
0000
0000
0000
,  // measure 8
0210
0000
0000
0000
0000
0300
2000
0000
0000
0000
0002
3000
0000
0023
0000
0000
,  // measure 9
0130
0000
1000
0001
1000
0000
0010
0000
0100
0001
0000
1000
0001
0000
0000
0000
,  // measure 10
0001
0000
1000
0010
1000
0000
0100
0000
0010
1000
0000
0001
1000
0000
0000
0000
,  // measure 11
1000
0000
0100
0010
0100
0000
1000
0000
0010
0100
0000
1000
0001
0000
0000
0000
,  // measure 12
0010
0000
0001
0100
0001
0000
0010
0000
1000
0100
0000
0010
1000
0000
0000
0000
,  // measure 13
0100
0000
0010
1000
0010
0000
0100
0000
0001
0010
0000
1000
0100
0000
0000
0000
,  // measure 14
0001
0000
1000
0010
1000
0000
0100
0000
1000
0010
0000
0100
0001
0000
0000
0000
,  // measure 15
0010
0000
1000
0001
1000
0000
0100
0000
0010
0001
0000
0010
1000
0000
0000
0000
,  // measure 16
0102
0000
0000
0000
0000
0003
2000
0000
0000
0000
0020
3000
0000
0230
0000
0000
,  // measure 17
1300
0000
0000
0100
1000
0000
0010
0000
1000
0000
0000
1000
0001
0000
0000
0000
,  // measure 18
0010
0000
0000
0100
0010
0000
0001
0000
0010
0000
0000
0010
1000
0000
0000
0000
,  // measure 19
0100
0000
0000
0001
0100
0000
0010
0000
0100
0000
0000
0100
0001
0000
0000
0000
,  // measure 20
1000
0000
0000
0001
1000
0000
0010
0000
1000
0000
0000
1000
0100
0000
0000
0000
,  // measure 21
0001
0000
0000
0100
0001
0000
0010
0000
0001
0000
0000
0001
1000
0000
0000
0000
,  // measure 22
0100
0000
0000
0001
0100
0000
0010
0000
0100
0000
0000
0100
1000
0000
0000
0000
,  // measure 23
0010
0000
0000
1000
0010
0000
0001
0000
0010
0000
0000
0010
1000
0000
0000
0000
,  // measure 24
0201
0000
0010
0000
0010
0010
0310
0000
,  // measure 25
0001
1000
0001
0000
0100
0000
0001
0000
0020
0000
1000
0000
1030
0000
0000
0000
,  // measure 26
0100
0001
0100
0000
0010
0000
0100
0000
0002
0000
1000
0000
1003
0000
0000
0000
,  // measure 27
0010
1000
0010
0000
0100
0000
0001
0000
2000
0000
0010
0000
3010
0000
0000
0000
,  // measure 28
1000
0010
1000
0000
0100
0000
0001
0000
0020
0000
1000
0000
1030
0000
0000
0000
,  // measure 29
0100
0010
0100
0000
1000
0000
0010
0000
0200
0000
0001
0000
0301
0000
0000
0000
,  // measure 30
0010
0001
0010
0000
1000
0000
0100
0000
0020
0000
1000
0000
1030
0000
0000
0000
,  // measure 31
0001
0100
0001
0000
1000
0000
0010
0000
0002
0000
0100
0000
0103
0000
0000
0000
,  // measure 32
0120
0000
1000
0000
1000
1000
1030
0000
,  // measure 33
0110
0000
0000
0001
0100
0000
0000
0100
0001
0000
0100
1000
0000
0000
0000
0000
,  // measure 34
1001
0000
0000
0001
0010
0000
0000
1000
0010
0000
0100
0010
0000
0000
0000
0000
,  // measure 35
1100
0000
0000
0010
1000
0000
0000
0001
0100
0000
0001
1000
0000
0000
0000
0000
,  // measure 36
0101
0000
0000
0010
0001
0000
0000
0001
1000
0000
0010
1000
0000
0000
0000
0000
,  // measure 37
0110
0000
0000
0001
1000
0000
0000
1000
0010
0000
0100
1000
0000
0000
0000
0000
,  // measure 38
0011
0000
0000
0001
0100
0000
0000
0001
0100
0000
0010
0100
0000
0000
0000
0000
,  // measure 39
1001
0000
0000
0001
0100
0000
0000
0100
0001
0000
1000
0001
0000
0000
0000
0000
,  // measure 40
2010
0000
0100
0000
0100
0100
3100
0000
,  // measure 41
1010
1000
0010
1000
0100
1000
0100
0010
,  // measure 42
0100
0010
0100
0001
0100
0001
0010
0001
,  // measure 43
0010
0001
0010
0100
0010
0100
0010
1000
,  // measure 44
0001
1000
0001
0100
0001
0100
0001
0010
,  // measure 45
0100
1000
0100
1000
0010
0100
0001
0100
0001
0100
0010
0100
,  // measure 46
0001
0100
0010
0001
1000
0010
0100
1000
0001
1000
0010
0100
,  // measure 47
1000
0001
1000
0100
0010
0100
1000
0001
1000
0100
1000
0001
,  // measure 48
0010
1000
0010
0000
0100
0000
0001
1000
0001
0000
0010
0000
0100
1000
0100
0000
,  // measure 49
0010
0000
1000
0001
1000
0000
0001
0000
0010
0100
0010
0000
1000
0000
0010
0001
,  // measure 50
0010
0000
0100
0000
1000
0010
1000
0000
0100
0000
0001
1000
0001
0000
0100
0000
,  // measure 51
1020
0001
1000
1000
1000
0100
0130
0000
,  // measure 52
0012
0100
1000
1000
1000
0010
0013
0000
,  // measure 53
0210
1000
0010
0010
0010
1000
1300
0000
,  // measure 54
2010
0001
0010
0010
0010
0001
3001
0000
,  // measure 55
0220
0000
0000
0000
,  // measure 56
0000
0000
0000
0330
,  // measure 57
1001
0000
0000
0100
1000
0000
0010
0000
0100
0000
0000
1000
0010
0000
1000
0000
,  // measure 58
0001
0000
0000
0100
0010
0000
0100
0000
1000
0000
0010
0000
1100
0000
0000
0000
,  // measure 59
0100
0000
0000
1000
0100
0000
0001
0000
0010
0000
0000
0001
0100
0000
0010
0000
,  // measure 60
1000
0000
0000
1000
0010
0000
0100
0000
0001
0000
1000
0000
0101
0000
0000
0000
,  // measure 61
0010
0000
0000
1000
0010
0000
0100
0000
0001
0000
0000
0001
0010
0000
1000
0000
,  // measure 62
0100
0000
0000
1000
0100
0000
0010
0000
0100
0000
0001
0000
1001
0000
0000
0000
,  // measure 63
0001
0000
0000
0100
0010
0000
1000
0000
0001
0000
0000
0001
0100
0000
0010
0000
,  // measure 64
1000
0000
0000
0100
1000
0000
0010
0000
0100
0000
0010
0000
1010
0000
0000
0000
,  // measure 65
0201
0000
1300
0010
0200
0000
0301
0000
,  // measure 66
0100
0000
0000
1000
0100
0000
0010
0000
0001
0000
0010
1000
0000
0010
0001
0000
,  // measure 67
2100
0000
3010
0100
0002
0000
1003
0000
,  // measure 68
0010
0000
0000
1000
0010
0000
0001
0000
0001
0100
0010
0000
0000
0010
1000
0000
,  // measure 69
1020
0000
0031
0100
0020
0000
1030
0000
,  // measure 70
0100
0000
0000
0010
0100
0000
1000
0000
0010
0001
0100
0000
0000
0100
0010
0000
,  // measure 71
1002
0000
0103
0010
2000
0000
3100
0000
,  // measure 72
0010
0000
0000
1000
0010
0000
0100
0000
0001
0000
1000
0010
0000
0100
0010
0000
,  // measure 73
1001
0000
0000
0000
;
