#TITLE:SEQUENCE CAT;
#ARTIST:SLEDLAKE;
#FILE:SEQUENCE CAT.mp3;
#BPM:145.000;
#GAP:0;
#SAMPLESTART:52.960;
#SAMPLELENGTH:13.500;
#SINGLE:MANIAC:9:
00000000
00000000
00000000
00000000
(2082608024846000)
(8028602084842000)
(6026804026864000)
(A!2000024!40006!6409!800)
(A046408026046000)
(6048402084064000)
(4028204082046000)
(8062608042084000)
(2084802068042000)
(6048402048026000)
(8046402086084000)
(3!6000064!40008!840A!200)
(1002408040046000)
(8002806080084000)
(2006208020026000)
(4006408040042000)
(6002608060064000)
(2006208020024000)
(8004806080084000)
3!208088A0
(646020608!80407000)
(262080206!6040B000)
(848020604!40807000)
(484020608!80407000)
(282040802!20603000)
(868040208!80407000)
(626040806!60203000)
A!80404470
(A006200260240000)
(B006800480280000)
(1008400620640000)
(3008600640840000)
(A006400480240000)
(9006200620820000)
(B006200260460000)
7!40202210
74842428
28262686
86828284
64626268
[204020408020602060208020]
[602080604080204060408020]
[406040208020406040204060]
(8480206460802420)
(8046406082804086)
(8020484020646020)
7!864442A0
9!62444890
A!24888410
7!468886B0
A!A0000000
000000A0
(B002408020048040)
(6002802040801000)
(2004206080062080)
(4004802060403000)
(8004802060068040)
(200420802060B000)
(6002804060062080)
(4002408020807000)
3!20182!2030
(2004208060840860)
1!40726!60B0
(8004806062800840)
7!80928!8070
(2008204086200280)
B!60384!4010
(8004802060480280)
B0000000
;
