#TITLE:Multiplayer;
#SUBTITLE:~ One Minute Remaining;
#ARTIST:Kenji Yamamoto, Kouichi Kyuma;
#TITLETRANSLIT:;
#SUBTITLETRANSLIT:;
#ARTISTTRANSLIT:;
#CREDIT:;
#BANNER:Multiplayer ~ One Minute Remaining.PNG;
#BACKGROUND:Multiplayer ~ One Minute Remaining-bg.PNG;
#LYRICSPATH:;
#CDTITLE:;
#MUSIC:Multiplayer ~ One Minute Remaining.mp3;
#OFFSET:-0.120;
#SAMPLESTART:19.600;
#SAMPLELENGTH:11.000;
#SELECTABLE:YES;
#BPMS:0.000=168.000;
#STOPS:;
#BGCHANGES:;

//---------------dance-single - ----------------
#NOTES:
     dance-single:
     :
     Hard:
     10:
     0.777,0.740,0.276,0.123,0.413:
0000
0000
0000
0000
,
0000
0000
0000
0000
,
0000
0000
0000
0000
,
0000
0000
0000
0000
,
0001
0100
0010
0001
0100
0010
1000
0100
,
1000
0010
0100
0001
0010
0001
0100
1000
,
0010
0100
1000
0010
1000
0100
0010
0100
,
0001
0010
1000
0001
0100
1000
0010
0001
,
0100
0010
1000
0100
1000
0010
0100
0001
,
0010
0001
0100
1000
0010
1000
0110
0000
,
0002
0010
1003
0100
0000
0010
0001
1000
,
0200
0001
1300
0010
0000
1000
0100
0001
,
2000
0010
3100
0001
0000
0100
0001
1000
,
0020
1000
0031
0100
0000
0010
1000
0001
,
0200
1000
0310
0100
0000
0001
1000
0010
,
0002
0100
0013
1000
0000
0100
0001
1000
,
0020
0100
0031
1000
0000
0010
0001
0100
,
2000
0010
3001
0100
0000
0001
1000
0100
,
0001
1000
0001
0000
0100
0000
1000
0000
0000
0000
0010
0000
0001
0000
0100
0000
,
0001
0000
0010
0000
0100
0000
1000
0000
0001
0000
0100
0010
0001
1000
0001
1000
,
0100
0001
0100
0000
1000
0000
0010
0000
0000
0000
1000
0000
0010
0000
1000
0000
,
0100
0000
0001
0000
0010
0000
0100
0000
1000
0000
0100
0001
0010
1000
0010
1000
,
0100
0010
0100
0000
0001
0000
1000
0000
0000
0000
0100
0000
0001
0000
0010
0000
,
0001
0000
0100
0000
1000
0000
0001
0000
1000
0000
0010
0100
0001
1000
0001
1000
,
0010
0100
0010
0000
1000
0000
0100
0000
0000
0000
0010
0000
0001
0000
0100
0000
,
0001
0000
1000
0000
0010
0000
0100
0000
0001
0000
0100
1000
0010
0001
0010
0001
,
0100
0010
1000
0000
0001
0000
0010
0000
0000
0000
0100
0000
1100
0000
0000
0000
,
0110
0000
1010
1000
0000
0001
1001
0000
,
0001
1000
0100
0000
0001
0000
1000
0000
0000
0000
0010
0000
0011
0000
0000
0000
,
0101
0000
0110
1000
0000
0010
0011
0000
,
1000
0001
0010
0000
1000
0000
0100
0000
0000
0000
0001
0000
1010
0000
0000
0000
,
1100
0000
0011
0100
0000
0010
1010
0000
,
0100
1000
0001
0000
0100
0000
1000
0000
0000
0000
0010
0000
1001
0000
0000
0000
,
0110
0000
0101
0010
0000
0100
1001
0000
,
0001
0010
1000
0000
0001
0000
0100
0000
0000
0000
0001
0100
0010
1000
0010
1000
,
0001
0100
0010
0000
1000
0000
0100
0000
0000
0000
0010
0001
0100
1000
0100
1000
,
0010
0001
0100
0000
0001
0000
1000
0000
0000
0000
0010
0100
0001
1000
0001
1000
,
0010
0100
0001
0000
1000
0000
0100
0000
0000
0000
1000
0010
0001
0100
0001
0100
,
1000
0010
0100
0000
0001
0000
1000
0000
0000
0000
0100
0010
1000
0001
1000
0001
,
0100
1000
0010
0000
0001
0000
0100
0000
0000
0000
0001
0100
0010
1000
0010
1000
,
0001
0010
0100
0000
0001
0000
1000
0000
0000
0000
0100
0001
1000
0010
1000
0010
,
0100
1000
0001
0000
0100
0000
1000
0000
0000
0000
0010
1000
0001
0100
0001
0100
,
0010
0001
0010
0100
0010
0001
0010
1000
,
0100
0001
0100
1000
0100
0010
0100
0001
,
0010
1000
0010
0001
0010
0100
0010
0001
,
1000
0001
1000
0010
1000
0100
1000
0010
,
0001
1000
0001
0100
0001
0010
0001
0100
,
0010
1000
0010
0001
0010
0100
0110
0000
,
1000
0001
1000
0000
0010
0000
0200
0000
0000
0000
1000
0000
0301
0000
0000
0000
,
0010
1000
0010
0000
0001
0000
0200
0000
0000
0000
0001
0000
1300
0000
0000
0000
,
0010
0001
0010
0000
1000
0000
0002
0000
0000
0000
0010
0000
1003
0000
0000
0000
,
0100
0001
0100
0000
0010
0000
2000
0000
0000
0000
0100
0000
3001
0000
0000
0000
,
1000
0010
1000
0000
0100
0000
0002
0000
0000
0000
0010
0000
1003
0000
0000
0000
,
0100
0010
0100
0000
0001
0000
2000
0000
0000
0000
0100
0000
3001
0000
0000
0000
,
0010
1000
0010
0000
0100
0000
0020
0000
0000
0000
1000
0000
0031
0000
0000
0000
,
1000
0001
1000
0000
0010
0000
0200
0000
0000
0000
1000
0000
0301
0000
0000
0000
,
0100
0001
0100
1000
0000
0010
0100
0001
,
0100
0000
0010
0000
0001
0000
1000
0000
0100
0000
0001
0010
1000
0001
1000
0001
,
0100
1000
0100
0001
0000
0010
0100
1000
,
0010
0000
0100
0000
0001
0000
0010
0000
0100
0000
0010
1000
0001
0100
0001
0100
,
0010
0001
0010
1000
0000
0100
0001
0010
,
0001
0000
0100
0000
1000
0000
0010
0000
1000
0000
0001
0100
0010
1000
0010
1000
,
0001
0100
0001
0010
0000
1000
0001
1000
,
0010
0000
0100
0000
0001
0000
0010
0000
1000
0000
0100
0001
1000
0010
1000
0010
,
0100
0001
1000
0000
0100
0000
0001
0000
0000
0000
1000
0000
1010
0000
0000
0000
,
1001
0000
0011
0001
0000
0100
1100
0000
,
0001
1000
0010
0000
0001
0000
0100
0000
0000
0000
0010
0000
0101
0000
0000
0000
,
0011
0000
1001
1000
0000
0010
1100
0000
,
0010
0001
1000
0000
0100
0000
1000
0000
0000
0000
0010
0000
0110
0000
0000
0000
,
1010
0000
0101
0001
0000
0010
1001
0000
,
0100
0001
0010
0000
1000
0000
0100
0000
0000
0000
0001
0000
0101
0000
0000
0000
,
1001
0000
1010
1000
0000
0001
0110
0000
,
0001
0010
1000
0000
0001
0000
0010
0000
0000
0000
0100
1000
0010
0001
0010
0001
,
0100
1000
0010
0000
0100
0000
0001
0000
0000
0000
0010
0001
1000
0100
1000
0100
,
0001
0010
0100
0000
0001
0000
1000
0000
0000
0000
0010
0100
0001
1000
0001
1000
,
0100
0010
0100
0000
0001
0000
1000
0000
0000
0000
0001
0100
0010
1000
0010
1000
,
0100
0001
0100
0000
1000
0000
0010
0000
0000
0000
0100
0001
1000
0010
1000
0010
,
0100
1000
0100
0000
0010
0000
0001
0000
0000
0000
0100
1000
0010
0001
0010
0001
,
0100
1000
0100
0000
0001
0000
0100
0000
0000
0000
0010
1000
0001
0100
0001
0100
,
0010
1000
0010
0000
0001
0000
0100
0000
0000
0000
1000
0010
1000
0001
1000
0001
,
0100
1000
0100
0010
0100
0001
0100
0010
,
1000
0001
1000
0010
1000
0100
1000
0001
,
0010
0100
0010
0001
0010
1000
0010
0100
,
0001
1000
0001
0100
0001
0010
0110
0000
,
1001
0000
0000
0000
;

//---------------dance-single - ----------------
#NOTES:
     dance-single:
     :
     Medium:
     6:
     0.525,0.482,0.421,0.123,0.000: // measure 1
0000
0000
0000
0000
,  // measure 2
0000
0000
0000
0000
,  // measure 3
0000
0000
0000
0000
,  // measure 4
0000
0000
0000
0000
,  // measure 5
1001
0000
0100
0001
0100
0000
1010
0000
,  // measure 6
0101
0000
0010
0100
0000
1000
0100
0000
,  // measure 7
0110
0000
0001
1000
0001
0000
0101
0000
,  // measure 8
1010
0000
0100
0001
0000
0010
0100
0000
,  // measure 9
1010
0000
0100
0001
0100
0000
1001
0000
,  // measure 10
0110
0000
0100
0001
0000
1000
0001
0000
,  // measure 11
0110
0000
0001
0200
0000
0000
1300
0000
,  // measure 12
0011
0000
0100
0002
0000
0000
0103
0000
,  // measure 13
1010
0000
0001
2000
0000
0000
3010
0000
,  // measure 14
0101
0000
0100
0020
0000
0000
1030
0000
,  // measure 15
1100
0000
0010
0200
0000
0000
0301
0000
,  // measure 16
1001
0000
0010
0002
0000
0000
0013
0000
,  // measure 17
0110
0000
0010
2000
0000
0000
3100
0000
,  // measure 18
0011
0000
0100
0020
0000
0000
0130
0000
,  // measure 19
0100
0000
0001
0100
0000
0010
1000
0010
,  // measure 20
0000
1000
0001
1000
0000
0100
0001
0100
,  // measure 21
1000
0000
1000
0100
0000
0010
0100
0010
,  // measure 22
0000
0001
1000
0001
0000
0100
1000
0010
,  // measure 23
0001
0000
0100
0001
0000
0010
0100
0010
,  // measure 24
0000
0001
0100
0001
0000
0100
1000
0001
,  // measure 25
0100
0000
0100
0010
0000
1000
0001
1000
,  // measure 26
0000
0100
0001
0100
0000
0001
1000
0010
,  // measure 27
0100
0000
0100
0001
0000
0000
0011
0000
,  // measure 28
1010
0000
0100
1000
0000
0100
0010
0000
,  // measure 29
0001
0000
0001
1000
0000
0000
1001
0000
,  // measure 30
0110
0000
0100
0001
0000
0100
0001
0000
,  // measure 31
0010
0000
1000
0010
0000
0000
0011
0000
,  // measure 32
0101
0000
0010
0100
0000
0010
0100
0000
,  // measure 33
0001
0000
1000
0001
0000
0000
0101
0000
,  // measure 34
1100
0000
0001
0100
0000
0010
0100
0000
,  // measure 35
0010
0000
0100
0010
0000
0001
1000
0100
,  // measure 36
1000
0000
0010
1000
0000
0100
0001
0100
,  // measure 37
0010
0000
0100
0010
0000
1000
0010
0100
,  // measure 38
0010
0000
0001
0100
0000
0001
1000
0001
,  // measure 39
0100
0000
0010
0100
0000
0010
0001
0010
,  // measure 40
1000
0000
0100
1000
0000
0100
0001
0100
,  // measure 41
0010
0000
0100
0010
0000
0100
0001
0100
,  // measure 42
0010
0000
0010
1000
0000
0001
1000
0001
,  // measure 43
0100
0000
0010
1000
0010
0000
0101
0000
,  // measure 44
1100
0000
0010
0100
0000
0001
0100
0000
,  // measure 45
1001
0000
0100
0010
0100
0000
1010
0000
,  // measure 46
0011
0000
0100
0001
0000
0010
0001
0000
,  // measure 47
0110
0000
0001
0100
0001
0000
0110
0000
,  // measure 48
1001
0000
1000
0010
0000
0100
0010
0000
,  // measure 49
1002
0000
1000
0003
0000
0010
0100
0000
,  // measure 50
0201
0000
0001
0300
0000
0001
0100
0000
,  // measure 51
1020
0000
1000
0030
0000
0100
0010
0000
,  // measure 52
0102
0000
0100
0003
0000
0010
0100
0000
,  // measure 53
2010
0000
0010
3000
0000
0100
0010
0000
,  // measure 54
1200
0000
1000
0300
0000
0010
0100
0000
,  // measure 55
0012
0000
0010
0003
0000
1000
0010
0000
,  // measure 56
0210
0000
0010
0300
0000
0100
0010
0000
,  // measure 57
0010
0000
0100
0010
0000
0001
0100
0001
,  // measure 58
0000
1000
0010
1000
0000
0100
0001
1000
,  // measure 59
0010
0000
0100
0010
0000
0100
0001
0100
,  // measure 60
0000
0010
1000
0010
0000
0001
1000
0010
,  // measure 61
0100
0000
0001
0100
0000
1000
0001
1000
,  // measure 62
0000
0100
0001
0100
0000
0010
0100
0001
,  // measure 63
0100
0000
1000
0100
0000
0010
0001
0010
,  // measure 64
0000
0100
1000
0100
0000
0001
1000
0010
,  // measure 65
0001
0000
0001
0100
0000
0000
1001
0000
,  // measure 66
1010
0000
0100
0001
0000
0010
0001
0000
,  // measure 67
1000
0000
1000
0010
0000
0000
0101
0000
,  // measure 68
0110
0000
0100
0001
0000
0010
0100
0000
,  // measure 69
0010
0000
0010
0100
0000
0000
1001
0000
,  // measure 70
0101
0000
0001
0100
0000
0010
0100
0000
,  // measure 71
1000
0000
1000
0100
0000
0000
0011
0000
,  // measure 72
1010
0000
0100
0001
0000
0100
0010
0000
,  // measure 73
0100
0000
0001
0100
0000
0010
1000
0010
,  // measure 74
0100
0000
1000
0100
0000
0001
0100
0001
,  // measure 75
0010
0000
1000
0010
0000
0100
0001
0100
,  // measure 76
0010
0000
0001
0010
0000
1000
0001
1000
,  // measure 77
0100
0000
0001
0100
0000
1000
0010
1000
,  // measure 78
0100
0000
0001
0100
0000
0010
0001
0010
,  // measure 79
1000
0000
0001
1000
0000
0100
0010
0100
,  // measure 80
0001
0000
1000
0001
0000
0010
0100
0001
,  // measure 81
0100
0000
0100
0001
0100
0000
1010
0000
,  // measure 82
1001
0000
0100
1000
0000
0010
0100
0000
,  // measure 83
1100
0000
0010
1000
0010
0000
0101
0000
,  // measure 84
0011
0000
0010
1000
0000
0010
0100
0000
,  // measure 85
1001
0000
0000
0000
;
