#TITLE:Multiplayer;
#SUBTITLE:~ Hunters;
#ARTIST:Kenji Yamamoto, Kouichi Kyuma;
#TITLETRANSLIT:;
#SUBTITLETRANSLIT:;
#ARTISTTRANSLIT:;
#CREDIT:;
#BANNER:Multiplayer ~ Hunters.png;
#BACKGROUND:Multiplayer ~ Hunters-bg.PNG;
#LYRICSPATH:;
#CDTITLE:;
#MUSIC:Multiplayer ~ Hunters.mp3;
#OFFSET:-0.080;
#SAMPLESTART:8.220;
#SAMPLELENGTH:13.200;
#SELECTABLE:YES;
#BPMS:0.000=148.000;
#STOPS:;
#BGCHANGES:;

//---------------dance-single - ----------------
#NOTES:
     dance-single:
     :
     Hard:
     9:
     0.690,0.640,0.177,0.402,0.238:
0000
0000
0000
0000
,
0000
0000
0000
0000
,
0000
0000
0000
0000
,
0000
0000
0000
0000
,
0001
0010
0001
0000
0100
0000
0010
0000
0000
0000
0001
0000
0100
0000
0010
0000
,
1000
0100
1000
0000
0010
0000
0100
0000
0000
0000
1000
0000
0001
0100
0001
0100
,
1000
0010
0100
0001
0000
1000
0100
0010
,
1000
0001
1000
0000
0010
0000
0100
0000
0000
0000
0010
0000
1000
0100
1000
0100
,
0001
0010
0100
0000
0010
0000
1000
0000
0000
0000
0100
0000
0010
0000
0001
0000
,
1000
0010
1000
0000
0001
0000
0100
0000
0000
0000
0010
0000
0001
0010
0001
0010
,
1000
0001
1000
0000
0100
0000
0010
0000
0000
0000
0100
0000
0010
0000
0100
0000
,
0001
1000
0001
0000
0100
0000
0001
0000
0000
0000
0100
0000
1000
0010
1000
0010
,
0001
0100
0010
1000
0000
0001
0100
0010
,
1000
0100
1000
0000
0001
0000
0010
0000
0000
0000
0100
0000
1000
0000
0001
0000
,
0100
0010
0100
0000
1000
0000
0001
0000
0000
0000
0010
0000
0100
0000
0001
0000
,
1000
0010
1000
0000
0100
0000
0001
0000
0000
0000
0000
0000
0110
0000
0000
0000
,
2000
0001
3100
0010
0000
1000
0001
0100
,
0020
1000
0130
0001
0000
1000
0010
0100
,
0002
1000
0013
0100
0000
0001
1000
0100
,
2000
0010
3100
0001
0000
1000
0010
0100
,
0002
1000
0013
0100
0000
0001
0010
1000
,
0200
0010
1300
0001
0000
0010
1000
0100
,
0002
1000
0103
0010
0000
1000
0010
0001
,
2000
0010
3001
0100
0000
1000
0100
0001
,
1000
0010
0100
0001
1000
0000
0010
0000
0000
0000
1000
0000
0100
0000
1000
0000
,
0001
0000
0100
0000
0001
0000
0010
0000
0100
0000
0010
0000
1000
0100
1000
0100
,
0001
0010
1000
0100
0001
0000
0100
0000
0000
0000
0001
0000
0010
0000
0100
0000
,
0001
0000
0010
0000
1000
0000
0100
0000
0010
0000
1000
0000
0001
0100
0001
0100
,
1000
0010
0001
0100
1000
0000
0010
0000
0000
0000
0001
0000
0010
0000
0001
0000
,
1000
0000
0010
0000
1000
0000
0100
0000
0010
0000
0100
0000
0001
0100
0001
0100
,
0010
1000
0001
0010
0100
0000
0001
0000
0000
0000
1000
0000
0100
0000
0010
0000
,
1000
0000
0100
0000
0001
0000
0010
0000
0100
0000
0001
0000
1000
0010
1000
0010
,
0001
0100
0001
0100
0010
0000
1000
0000
0000
0000
0001
0000
0101
0000
0000
0000
,
0110
0000
1001
1000
0000
0010
0110
0000
,
0001
0100
0001
0100
0010
0000
0001
0000
0000
0000
1000
0000
1100
0000
0000
0000
,
0110
0000
1001
0001
0000
0010
0101
0000
,
1000
0010
1000
0010
0100
0000
0001
0000
0000
0000
0100
0000
1010
0000
0000
0000
,
0110
0000
0011
0001
0000
0100
0110
0000
,
0001
1000
0001
1000
0100
0000
0010
0000
0000
0000
0001
0000
0101
0000
0000
0000
,
0110
0000
1010
1000
0000
0010
1100
0000
,
1000
0001
1000
0001
0100
0000
0010
0000
0000
0000
0100
0000
0001
1000
0001
1000
,
0100
0000
0001
0000
0010
0000
1000
0000
0000
0000
0010
0000
1000
0001
1000
0001
,
0100
0000
0010
0000
1000
0000
0001
0000
0000
0000
1000
0000
0001
0100
0001
0100
,
0010
0000
0001
0000
0100
0000
1000
0000
0000
0000
0001
0000
1000
0010
1000
0010
,
0100
0000
0001
0000
1000
0000
0100
0000
0000
0000
0010
0000
0001
1000
0001
1000
,
0010
0000
0100
0000
0001
0000
1000
0000
0000
0000
0100
0000
1000
0001
1000
0001
,
0010
0000
0100
0000
1000
0000
0001
0000
0000
0000
0100
0000
1000
0010
1000
0010
,
0100
0000
0001
0000
0100
0000
1000
0000
0000
0000
0100
0000
0001
0010
0001
0010
,
0100
1000
0010
0100
0001
1000
0010
0001
,
1000
0100
0010
1000
0001
0100
0010
0001
,
0200
0000
0010
1000
0000
1000
0301
0000
,
0020
0000
0100
1000
0000
1000
0031
0000
,
1000
0001
0100
0010
1000
0001
0100
1000
,
0001
0010
0100
0001
1000
0010
0100
2000
,
0010
0000
0100
0001
0000
0001
3010
0000
,
0002
0000
0010
1000
0000
1000
0103
0000
,
1000
0010
0001
1000
0100
0010
0001
0100
,
0010
1000
0001
0010
0100
1000
0001
0020
,
1000
0000
0100
1000
0000
1000
0031
0000
,
0200
0000
0001
1000
0000
1000
0310
0000
,
1000
0001
0100
0010
1000
0001
0100
1000
,
0001
0010
0100
0001
1000
0010
0100
0002
,
0010
0000
1000
0010
0000
0010
0103
0000
,
2000
0000
0100
0001
0000
0001
3010
0000
,
0001
0100
1000
0001
0010
0100
1000
0010
,
0100
0001
1000
0100
0010
0001
1000
0100
,
0010
1000
0001
1000
0100
0010
0100
0001
,
0010
0100
0001
0010
1000
0100
0010
1000
,
0002
0023
0230
2300
,
3200
0320
0230
0302
,
0023
0230
2300
3200
,
0302
0000
0200
0303
,
0001
0100
0001
0100
0010
0000
1000
0000
0000
0000
0010
0000
0100
0000
0001
0000
,
1000
0100
1000
0100
0001
0000
0010
0000
0000
0000
1000
0000
0001
0000
0100
0000
,
1000
0010
1000
0010
0100
0000
0001
0000
0000
0000
0100
0000
0010
0000
1000
0000
,
0001
0010
0001
0010
1000
0000
0100
0000
0000
0000
0000
0000
1001
0000
0000
0000
,
0010
1000
0100
0000
0001
0000
1000
0000
0000
0000
0100
0000
0002
0000
0100
0000
,
2003
0000
3001
0100
0000
0001
0110
1000
,
0001
0100
0010
0000
0001
0000
1000
0000
0000
0000
0010
0000
2000
0000
0010
0000
,
3200
0000
0310
0100
0000
0001
1100
0010
,
0100
1000
0001
0000
0100
0000
1000
0000
0000
0000
0100
0000
0002
0000
0100
0000
,
0023
0000
1030
0100
0000
0010
0101
1000
,
0010
0001
0100
0000
1000
0000
0001
0000
0000
0000
1000
0000
0020
0000
1000
0000
,
0230
0000
0301
1000
0000
0010
1001
0100
,
0001
0100
1000
0000
0100
0000
0001
0000
0000
0000
0100
0000
0020
0000
0100
0000
,
2030
0000
3010
0001
0000
0100
1010
0001
,
1000
0010
0100
0000
0001
0000
0010
0000
0000
0000
1000
0000
0200
0000
1000
0000
,
0302
0000
0103
1000
0000
0100
0011
1000
,
0010
0100
0001
0000
0100
0000
1000
0000
0000
0000
0010
0000
2000
0000
0100
0000
,
3020
0000
0031
0100
0000
1000
0110
0001
,
1000
0100
0010
0000
1000
0000
0100
0000
0000
0000
0010
0000
2000
0000
0100
0000
,
3002
0000
0103
0010
0000
1000
1001
0100
,
2000
3020
0230
0320
,
0032
0000
0103
1000
0000
0100
0110
0010
,
0002
0203
0320
0230
,
2300
0000
3100
0001
0000
0010
0110
0100
,
0020
0032
2003
3002
,
0203
0000
0310
1000
0000
0001
1001
1000
,
0200
2300
3002
2003
,
3020
0000
0000
0000
0130
0000
0001
0000
0000
0000
0010
0000
1000
0001
1000
0001
,
0100
0000
0000
0000
;

//---------------dance-single - ----------------
#NOTES:
     dance-single:
     :
     Medium:
     6:
     0.481,0.518,0.122,0.347,0.000:
0000
0000
0000
0000
,
0000
0000
0000
0000
,
0000
0000
0000
0000
,
0000
0000
0000
0000
,
0020
0000
0130
0000
0000
0001
1000
0010
,
0200
0000
0301
0000
0000
0010
0100
1000
,
0020
0000
0031
0000
0000
0010
1000
0100
,
0002
0000
1003
0000
0000
0001
1000
0001
,
0200
0000
0310
0000
0000
0001
0100
1000
,
0020
0000
0130
0000
0000
1000
0010
0001
,
2000
0000
3010
0000
0000
0001
0100
0001
,
0020
0000
1030
0000
0000
0010
0100
0010
,
0001
0000
1000
0001
0000
0010
0100
0000
,
1000
0000
0001
1000
0000
0100
0010
0000
,
0100
0000
0001
0100
0000
0010
1000
0000
,
0010
0000
1000
0010
0000
0000
1001
0000
,
0100
0000
0001
0200
0000
0000
1300
0000
,
0010
0000
1000
0002
0000
0000
0103
0000
,
0010
0000
1000
0200
0000
0000
0301
0000
,
0010
0000
1000
0020
0000
0000
0130
0000
,
0001
0000
1000
0002
0000
0000
0103
0000
,
1000
0000
0010
0200
0000
0000
1300
0000
,
0010
0000
0001
2000
0000
0000
3010
0000
,
0100
0000
0001
0200
0000
0000
1300
0000
,
0010
0000
0010
1000
0000
0100
0001
0100
,
0000
0010
1000
0010
0000
0001
0100
0001
,
0010
0000
0100
0010
0000
1000
0001
1000
,
0000
0010
0100
0010
0000
1000
0010
1000
,
0100
0000
0001
0100
0000
0010
1000
0001
,
0000
0100
1000
0001
0000
0100
0010
0100
,
1000
0000
0100
1000
0000
0010
0001
0100
,
0000
1000
0010
0001
0000
0100
0010
0100
,
0001
0000
0001
0100
0000
0000
0110
0000
,
1001
0000
0010
0001
0000
0100
1000
0000
,
0010
0000
0010
0100
0000
0000
1001
0000
,
0110
0000
0100
0001
0000
0001
1000
0000
,
0001
0000
0001
0010
0000
0000
1100
0000
,
1010
0000
0100
0010
0000
0010
0100
0000
,
1000
0000
1000
0100
0000
0000
0011
0000
,
0101
0000
0001
1000
0000
1000
0100
0000
,
0010
0000
0100
0010
0000
0001
0100
1000
,
0100
0000
0010
0100
0000
1000
0100
0001
,
0100
0000
1000
0100
0000
0001
0010
1000
,
0010
0000
0100
0010
0000
1000
0010
0100
,
0010
0000
0001
0010
0000
1000
0001
0100
,
0001
0000
1000
0001
0000
0001
1000
0010
,
1000
0000
0010
1000
0000
0010
0001
0100
,
0001
0000
0001
0010
0000
0000
1001
0000
,
0200
0001
0001
0301
,
2000
0010
0010
3010
,
0001
0000
0100
1000
0000
1000
0100
0001
,
0010
0000
0010
0100
0000
0100
0001
0000
,
0020
1000
1000
1030
,
0002
0100
0100
0103
,
1000
0000
0100
0001
0000
0001
0010
1000
,
0100
0000
0100
0010
0000
0010
1000
0000
,
1000
0000
0010
0100
0000
0001
0100
0000
,
0021
0100
0100
0130
,
0001
0000
0100
0010
0000
0100
0010
0000
,
1002
0100
0100
0103
,
0010
0000
1000
0010
0000
0100
0010
0000
,
2010
0001
0001
3001
,
0100
0000
0001
0100
0000
0010
0100
0000
,
1200
0001
0001
0301
,
0010
1000
0010
0000
0010
0100
0010
0000
,
0001
0100
0001
0000
0001
1000
0001
0000
,
0100
0010
0100
0000
0100
1000
0100
0000
,
1000
0001
1000
0000
1000
0010
1000
0000
,
0200
0302
0023
0230
,
2300
3020
2030
3200
,
0302
0023
0230
1300
,
0020
0000
0200
0330
,
0001
1000
0001
0100
0000
0100
0001
0010
,
0100
0010
0100
0001
0000
0001
0010
0100
,
1000
0001
1000
0010
0000
0010
1000
0001
,
0010
1000
0010
0100
0000
0000
1001
0000
,
0200
0000
0301
0000
0001
0010
0100
0000
,
2000
0000
3010
0000
0100
0001
0010
0000
,
0020
0000
0130
0000
0001
1000
0100
0000
,
0002
0000
0013
0000
1000
0010
0100
0000
,
0200
0000
0301
0000
0010
0001
0100
0000
,
0020
0000
1030
0000
0100
0001
1000
0000
,
2000
0000
3001
0000
0100
0010
0001
0000
,
0200
0000
0301
0000
0010
0100
0010
0000
,
0002
0000
0103
0000
0010
0001
0100
0000
,
0200
0000
0310
0000
0100
0010
0001
0000
,
2000
0000
3100
0000
0010
0001
0100
0000
,
0020
0000
0130
0000
0001
0100
1000
0000
,
2000
0000
3001
0000
0001
1000
0010
0000
,
0002
0000
0013
0000
0010
0100
1000
0000
,
2000
0000
3100
0000
0010
0001
0010
0000
,
0200
0000
0301
0000
0010
0100
0001
0000
,
1020
0100
0100
0130
,
0001
0000
0100
1000
0000
1000
0010
0000
,
0210
0001
0001
0301
,
1000
0000
0100
0001
0000
0001
0010
0000
,
2100
0010
0010
3010
,
0100
0000
0010
0100
0000
0100
1000
0000
,
0012
0100
0100
0103
,
0001
0000
0100
1000
0000
1000
0010
0000
,
1001
0000
0000
0000
;
