#TITLE:Record of Samus;
#SUBTITLE:;
#ARTIST:Kenji Yamamoto, Kouichi Kyuma;
#TITLETRANSLIT:;
#SUBTITLETRANSLIT:;
#ARTISTTRANSLIT:;
#CREDIT:;
#BANNER:Record of Samus.PNG;
#BACKGROUND:Record of Samus-bg.png;
#LYRICSPATH:;
#CDTITLE:;
#MUSIC:Record of Samus.mp3;
#OFFSET:0.000;
#SAMPLESTART:66.440;
#SAMPLELENGTH:14.700;
#SELECTABLE:YES;
#BPMS:0.000=130.040;
#STOPS:;
#BGCHANGES:;

//---------------dance-single - ----------------
#NOTES:
     dance-single:
     :
     Hard:
     7:
     0.458,0.397,0.102,0.124,0.124: // measure 1
0000
0000
0000
0000
,  // measure 2
0000
0000
0000
0000
,  // measure 3
0000
0000
0000
0000
,  // measure 4
0000
0000
0000
0000
,  // measure 5
0001
0000
1000
0000
0100
0000
0000
0000
0010
0000
0100
0000
0001
1000
0000
1000
,  // measure 6
0010
0000
0001
0000
0100
0000
0000
0000
0100
0000
0000
1000
0000
0000
0001
0000
,  // measure 7
1020
0000
0000
0100
0230
0000
0001
0000
,  // measure 8
1300
0000
0000
0000
0010
0000
0000
0001
1000
0000
0010
0000
1000
0000
0000
0000
,  // measure 9
0100
0000
0001
0000
1000
0000
0000
0000
0010
0000
1000
0000
0100
0001
0000
0001
,  // measure 10
1000
0000
0010
0000
0100
0000
0000
0000
0001
0000
0000
1000
0000
0000
0100
0000
,  // measure 11
1002
0000
0000
0000
0010
0000
0000
0000
1003
0000
0000
0010
0100
0000
0000
0000
,  // measure 12
1200
0010
0001
1300
,  // measure 13
0010
0000
0001
0000
0100
0000
0000
0000
0010
0000
0001
0000
0100
1000
0000
1000
,  // measure 14
0001
0000
0100
0000
0010
0000
0000
0000
1000
0000
0000
0010
0000
0000
0001
0000
,  // measure 15
2010
0000
0000
0010
3020
0000
0001
0000
,  // measure 16
0130
0000
0000
0000
0010
0000
0000
1000
0001
0000
0100
0000
0001
0000
0000
0000
,  // measure 17
0010
0000
1000
0000
0100
0000
0000
0000
0001
0000
1000
0000
0010
0001
0000
0001
,  // measure 18
0100
0000
1000
0000
0010
0000
0000
0000
0100
0000
0000
0001
0000
0000
0010
0000
,  // measure 19
1200
0000
0000
0000
0001
0000
0000
0000
1300
0000
0000
0001
0010
0000
0000
0000
,  // measure 20
0102
0010
1000
0103
,  // measure 21
1000
0100
1000
0010
0100
0010
0001
0100
,  // measure 22
0001
1000
0010
1000
0010
0001
0000
0000
,  // measure 23
0100
0001
0100
1000
0010
0001
1000
0100
,  // measure 24
1000
0010
0001
0100
0010
1000
0000
0100
,  // measure 25
0001
0010
1000
0010
0001
0100
1000
0010
,  // measure 26
1000
0100
0001
0010
0001
1000
0000
0010
,  // measure 27
0100
1000
0100
0001
0010
0001
0100
1000
,  // measure 28
0200
0010
1000
0301
,  // measure 29
1000
0100
0010
0100
1000
0001
1000
0100
,  // measure 30
0001
0010
1000
0010
0001
0100
0000
0000
,  // measure 31
1000
0010
1000
0100
0001
0100
1000
0010
,  // measure 32
0100
0001
0100
1000
0010
0100
0000
0001
,  // measure 33
0010
1000
0010
0001
0100
0001
0010
0100
,  // measure 34
1000
0001
1000
0100
0001
0100
0000
1000
,  // measure 35
0001
0010
0001
0100
1000
0100
0001
0010
,  // measure 36
0100
0010
1000
0001
1000
0100
0010
0000
,  // measure 37
1000
0000
0001
0000
0010
0000
0100
1000
0000
0000
0001
0000
0000
0000
0010
0000
,  // measure 38
0100
0001
1000
0021
0000
0001
1030
0000
,  // measure 39
0100
0000
1000
0000
0010
0000
0001
0100
0000
0000
1000
0000
0000
0000
1000
0000
,  // measure 40
0010
0001
0100
1020
0000
0100
0031
0000
,  // measure 41
0010
0000
0001
0000
0100
0000
1000
0010
0000
0000
0001
0000
0000
0000
0100
0000
,  // measure 42
1000
0000
0010
0000
1000
0000
0100
0001
0000
0000
1000
0000
0000
0000
1000
0000
,  // measure 43
0010
0000
0100
0000
0001
0000
0010
0100
0000
0000
1000
0000
0000
0000
0100
0000
,  // measure 44
0001
0000
0010
0000
0001
0000
0100
1000
0000
0000
0001
0000
0000
0000
0100
0000
,  // measure 45
1001
0000
0000
0000
;

//---------------dance-single - ----------------
#NOTES:
     dance-single:
     :
     Challenge:
     8:
     0.511,0.447,0.203,0.124,0.214:
0000
0000
0000
0000
,
0000
0000
0000
0000
,
0000
0000
0000
0000
,
0000
0000
0000
0000
,
0001
0000
1000
0000
0100
0000
0010
0000
0100
0000
1000
0000
0001
0100
0000
0100
,
1000
0000
0010
0000
0100
0000
1000
0000
0001
0000
0000
0010
0000
0000
1000
0000
,
0210
0000
1000
0001
0302
0000
0010
0000
,
1003
0000
0100
0000
1000
0000
0000
0010
0001
0000
1000
0000
0001
0000
1000
0000
,
0100
0000
0001
0000
0010
0000
0100
0000
1000
0000
0001
0000
0100
0010
0000
0010
,
1000
0000
0001
0000
0100
0000
0010
0000
1000
0000
0000
0010
0000
0000
0100
0000
,
0021
0000
0000
0000
0100
0000
0000
0000
0031
0000
0000
1000
0010
0000
0000
0000
,
2100
0000
0010
0000
0100
0001
3001
0000
,
0100
0000
0001
0000
0100
0000
1000
0000
0010
0000
0001
0000
1000
0010
0000
0010
,
0100
0000
0001
0000
1000
0000
0100
0000
0010
0000
0000
1000
0000
0000
0100
0000
,
2001
0000
0000
0010
3020
0000
0100
0000
,
0031
0000
0100
0000
0001
0000
0000
0100
1000
0000
0001
0000
1000
0000
0001
0000
,
0010
0000
1000
0000
0100
0000
0001
0000
1000
0000
0010
0000
0100
0001
0000
0001
,
1000
0000
0010
0000
1000
0000
0100
0000
0010
0000
0000
0001
0000
0000
0100
0000
,
1020
0000
0000
0000
0001
0000
0000
0000
1030
0000
0000
0100
0001
0000
0000
0000
,
0012
0000
0100
0000
0010
1000
1003
0000
,
0100
0001
0100
1000
0010
0001
0010
0100
,
1000
0001
1000
0100
0010
0001
0000
0000
,
0100
0010
0100
0001
0010
1000
0010
0100
,
0001
1000
0100
1000
0010
0110
0000
1001
,
1000
0010
1000
0100
0010
0100
0001
1000
,
0010
0001
0100
1000
0001
0110
0000
1010
,
0001
0100
1000
0001
0100
1000
0010
0100
,
0201
0000
0010
0000
1000
0001
0301
0000
,
0010
0001
0100
0001
0010
0100
1000
0010
,
0100
0001
0100
1000
0010
1000
0000
0000
,
0001
1000
0010
0001
0100
0010
0001
0100
,
1000
0010
1000
0001
0100
1001
0000
0110
,
1000
0001
1000
0010
0100
1000
0100
0001
,
0010
0100
0001
0010
1000
0101
0000
0011
,
1000
0001
0100
1000
0010
0100
0010
0001
,
1000
0100
1000
0010
0100
0001
1000
0000
,
0100
0001
0000
0001
1000
0000
0010
0100
0000
0000
0100
0000
0000
0000
1000
0000
,
0010
0100
0000
0100
0001
0000
1020
0000
0000
0000
0100
0000
0130
0000
0000
0000
,
1000
0001
0000
0001
0100
0000
0010
1000
0000
0000
1000
0000
0000
0000
0001
0000
,
0100
0010
0000
0010
1000
0000
0201
0000
0000
0000
0010
0000
0310
0000
0000
0000
,
0001
1000
0000
1000
0010
0000
0100
0001
0000
0000
0001
0000
0000
0000
0010
0000
,
0100
1000
0000
1000
0010
0000
0001
0100
0000
0000
0100
0000
0000
0000
0001
0000
,
0010
1000
0000
1000
0100
0000
0001
0010
0000
0000
0010
0000
0000
0000
0100
0000
,
0010
0001
0000
0001
1000
0000
0010
0100
0000
0000
0100
0000
0000
0000
0010
0000
,
1001
0000
0000
0000
;

//---------------dance-single - ----------------
#NOTES:
     dance-single:
     :
     Medium:
     5:
     0.306,0.298,0.079,0.113,0.056:
0000
0000
0000
0000
,
0000
0000
0000
0000
,
0000
0000
0000
0000
,
0000
0000
0000
0000
,
1001
0000
0010
0000
1000
0000
1000
0100
,
0001
0000
0000
0000
0010
0000
0000
0000
0100
0000
0000
1000
0000
0000
0100
0000
,
0001
0000
0000
0100
0200
0000
0000
0000
,
0301
0010
0001
1000
,
1100
0000
0010
0000
0100
0000
0001
0010
,
1000
0000
0000
0000
0001
0000
0000
0000
0100
0000
0000
0010
0000
0000
0100
0000
,
1000
0001
1000
0010
,
0200
0000
0000
0301
,
0110
0000
1000
0000
0100
0000
0010
0001
,
1000
0000
0000
0000
0100
0000
0000
0000
0010
0000
0000
0001
0000
0000
0010
0000
,
1000
0000
0000
0010
0020
0000
0000
0000
,
1030
0100
0001
1000
,
0101
0000
0001
0000
1000
0000
0001
0100
,
1000
0000
0000
0000
0010
0000
0000
0000
0100
0000
0000
0001
0000
0000
0010
0000
,
0100
0001
1000
0100
,
0020
0000
0000
1030
,
0001
0100
0001
0000
1000
0010
1000
0000
,
0100
0000
0001
0000
0100
1000
0000
0000
,
0010
0100
0010
0000
0001
1000
0001
0000
,
0010
0000
1000
0000
0010
0100
0000
0001
,
0100
1000
0100
0000
0010
1000
0010
0000
,
0001
0000
0100
0000
0001
0010
0000
1000
,
0100
0001
0100
0000
1000
0010
1000
0000
,
0220
0000
0000
0330
,
0001
0000
1000
0010
1000
0000
0100
0000
,
0001
0000
0010
0100
0010
0000
1000
0000
,
0100
0000
0001
0010
0001
0000
1000
0000
,
0010
0000
0001
0100
0001
0000
0010
0000
,
1000
0000
0001
1000
0001
0000
0100
0000
,
0010
0000
1000
0001
1000
0000
0100
0000
,
0001
0000
0100
0010
0100
0000
1000
0000
,
2002
0000
0000
3003
,
0100
0000
0000
0000
0001
0000
0000
1000
0000
0000
0000
0000
1000
0000
0000
0000
,
0010
0000
0100
0020
0000
0000
1030
0000
,
0100
0000
0000
0000
0001
0000
0000
0100
0000
0000
0000
0000
0001
0000
0000
0000
,
0100
0000
0010
0200
0000
0000
0301
0000
,
1000
0000
0000
0000
0001
0000
0000
1000
0000
0000
0000
0000
0100
0000
0000
0000
,
0010
0000
0000
0000
0100
0000
0000
0010
0000
0000
0000
0000
1000
0000
0000
0000
,
0001
0000
0000
0000
1000
0000
0000
0001
0000
0000
0000
0000
0010
0000
0000
0000
,
0100
0000
0000
0000
0010
0000
0000
0100
0000
0000
0000
0000
0000
0000
0000
0000
,
1001
0000
0000
0000
;

//---------------dance-single - ----------------
#NOTES:
     dance-single:
     :
     Easy:
     3:
     0.240,0.248,0.090,0.011,0.000:
0000
0000
0000
0000
,
0000
0000
0000
0000
,
0000
0000
0000
0000
,
0000
0000
0000
0000
,
0001
0100
0001
0010
,
1000
0010
1000
0001
,
0010
0001
0100
0000
,
1001
0000
0000
0000
,
0010
0001
0010
0001
,
1000
0100
1000
0010
,
0001
0100
0001
1000
,
0110
0000
0000
0000
,
0100
1000
0001
0010
,
0100
0001
1000
0001
,
0010
0001
0100
0010
,
1001
0000
0000
0000
,
0001
1000
0100
1000
,
0001
0010
1000
0001
,
0010
1000
0010
1000
,
0200
0000
0000
0300
,
0001
0010
1000
0100
,
0001
0010
0100
0001
,
1000
0001
0010
0001
,
1000
1000
0001
0100
,
0010
1000
0100
1000
,
0001
0100
0010
0001
,
1000
0010
0001
0100
,
1001
0000
0000
0000
,
0100
1000
0001
0010
,
1000
0001
1000
0100
,
0010
0001
0100
1000
,
0001
0100
1000
0010
,
0001
0010
0100
1000
,
0001
0100
1000
0001
,
0110
0000
0000
0000
,
0001
0010
1000
0001
,
0100
0010
0100
1000
,
0001
1000
1001
0000
,
0100
0001
0100
0001
,
0010
1000
1001
0000
,
0100
0001
0100
0010
,
1000
0001
1000
0100
,
0001
1000
0001
0010
,
0100
1000
0100
0010
,
1001
0000
0000
0000
;

//---------------dance-single - ----------------
#NOTES:
     dance-single:
     :
     Beginner:
     1:
     0.092,0.149,0.090,0.000,0.000:
0000
0000
0000
0000
,
0000
0000
0000
0000
,
0000
0000
0000
0000
,
0000
0000
0000
0000
,
0001
0000
0000
0000
,
1000
0000
0000
0000
,
0110
0000
0000
0000
,
0001
0000
0000
0000
,
0100
0000
0000
0000
,
0001
0000
0000
0000
,
0100
0000
0000
0000
,
1001
0000
0000
0000
,
0010
0000
0000
0000
,
1000
0000
0000
0000
,
0110
0000
0000
0000
,
0001
0000
0000
0000
,
1000
0000
0000
0000
,
0010
0000
0000
0000
,
0100
0000
0000
0000
,
1001
0000
0000
0000
,
0001
0000
1000
0000
,
0001
0000
0000
0000
,
0100
0000
0010
0000
,
0100
0000
0000
0000
,
1000
0000
0001
0000
,
1000
0000
0000
0000
,
0010
0000
0100
0000
,
0110
0000
0000
0000
,
0001
0000
1000
0000
,
0100
0000
0000
0000
,
0010
0000
1000
0000
,
0001
0000
0000
0000
,
0100
0000
1000
0000
,
0010
0000
0100
0000
,
1001
0000
0000
0000
,
1001
0000
0000
0000
,
1000
0000
0000
0000
,
0001
0000
0000
0000
,
0100
0000
0000
0000
,
0010
0000
0000
0000
,
1000
0000
0000
0000
,
0010
0000
0000
0000
,
0100
0000
0000
0000
,
0001
0000
0000
0000
,
1001
0000
0000
0000
;
