#TITLE:Grasslands, all the way;
#SUBTITLE:;
#ARTIST:Yoko Shimomura;
#TITLETRANSLIT:;
#SUBTITLETRANSLIT:;
#ARTISTTRANSLIT:;
#CREDIT:;
#BANNER:;
#BACKGROUND:Grasslands, all the way-bg.png;
#LYRICSPATH:;
#CDTITLE:;
#MUSIC:Grasslands, all the way.mp3;
#OFFSET:-0.100;
#SAMPLESTART:4.760;
#SAMPLELENGTH:15.500;
#SELECTABLE:YES;
#BPMS:0.000=102.000;
#STOPS:;
#BGCHANGES:;

//---------------dance-single - ----------------
#NOTES:
     dance-single:
     :
     Challenge:
     9:
     0.614,0.582,0.397,0.149,0.739:
0000
0000
0000
0000
,
0000
0000
0000
0000
,
0010
1000
0010
0100
0000
0010
0000
0100
0001
0000
0100
0000
0001
0000
0010
0000
,
0110
0000
1000
0001
0000
1000
0000
0100
2000
0000
0001
0000
3001
0000
0010
0000
,
0100
0001
0100
0010
0000
1000
0000
0100
1000
0000
0010
0000
1000
0000
0100
0000
,
1001
0000
0010
0001
0000
0010
0000
0100
0020
0000
1000
0000
1030
0000
0100
0000
,
0110
0000
0000
0101
0000
0000
1100
0000
0010
0001
0000
0100
1000
0000
0010
0000
,
0010
0100
0000
0001
0010
0000
0001
0000
0001
0100
1000
0100
0010
0100
0001
0010
,
1100
0000
0000
1010
0000
0000
0011
0000
0010
0100
0000
0010
0100
0000
1001
0000
,
0000
0001
0000
0100
0001
0000
0101
0000
0000
0010
1000
0010
0100
0001
0100
0010
,
1001
0000
0000
0110
0000
0000
1010
0000
0000
0001
0000
1000
0001
0000
0110
0000
,
0000
0010
0000
1000
0010
0000
1010
0000
0000
0001
1000
0001
0010
0001
0100
0001
,
1010
0000
0000
1100
0000
0000
0011
0000
0100
0000
0010
1000
0000
1000
0100
0000
,
0001
0000
0100
1000
0000
1000
0010
0000
0100
0000
0001
0100
0000
0100
0010
0000
,
0001
0100
0001
0010
0000
1000
0000
0010
0100
0000
0010
0000
0100
0000
0001
0000
,
0101
0000
0001
1000
0000
0100
0000
0010
0200
0000
0001
0000
0301
0000
1000
0000
,
0010
0100
0010
1000
0000
0001
0000
0100
0001
0000
0100
0000
0001
0000
0010
0000
,
0011
0000
1000
0010
0000
0001
0000
0100
0002
0000
1000
0000
1003
0000
0010
0000
,
0110
0000
0000
1010
0000
0000
1100
0000
0001
0100
0000
0010
1000
0000
1000
0000
,
0010
1000
0000
0010
0100
0000
0001
0000
0001
0100
1000
0100
0010
0001
0010
0100
,
1010
0000
0000
0110
0000
0000
0101
0000
1000
0010
0000
0010
0100
0000
1001
0000
,
0001
1000
0000
1000
0010
0000
1100
0000
1000
0010
0100
0010
0001
1000
0001
0100
,
0110
0000
0000
0011
0000
0000
1010
0000
0010
0100
0000
0100
0001
0000
0011
0000
,
0001
1000
0000
1000
0010
0000
0011
0000
0001
0100
0010
0100
0000
1000
0010
1000
,
0110
0000
0000
0101
0000
0000
0011
0000
1000
0000
1000
0010
0000
0010
0100
0000
,
2002
0000
0000
3003
,
0010
0000
0100
0010
0000
0001
1000
0001
0200
0000
0001
0000
0001
0000
0300
0000
,
0010
0000
1000
0010
0000
0100
0001
0100
0002
0000
0010
0000
0100
0000
0013
0000
,
0100
0000
0001
0100
0000
0010
1000
0010
0200
0000
0010
0000
0301
0000
0001
0010
,
0100
0000
1000
0100
0000
0100
1000
0000
0010
0100
0001
0100
0010
1000
0010
1000
,
0100
0000
1000
0100
0000
0001
1000
0001
0020
0000
0100
0000
0100
0000
0030
0000
,
0100
0000
0001
0100
0000
0010
1000
0010
2000
0000
0001
0000
0100
0000
3001
0000
,
0010
0000
0100
0010
0000
0001
1000
0001
0200
0000
0001
0000
0310
0000
0010
1000
,
0100
0000
0010
0100
0000
0100
0010
0000
0001
1000
0001
1000
0100
0001
0100
0001
,
0020
0000
0000
0000
0100
0000
0000
0000
0100
0000
0000
0100
0030
0000
1000
0000
,
0100
0000
0000
0100
0010
0000
0000
0100
0001
0000
0010
0001
0000
0000
0010
0000
,
0100
0000
0000
0010
1000
0000
0000
0010
1000
0000
0100
1000
0000
0000
0100
0000
,
0001
0000
0100
0010
0000
0010
0100
0000
1000
0000
0010
0100
0000
0100
0001
0000
,
0001
0100
0001
0010
0000
0100
0000
1000
0100
0000
0010
0000
0100
0000
0001
0000
,
1001
0000
1000
0010
0000
0100
0000
0010
0002
0000
1000
0000
1003
0000
0010
0000
,
0100
0001
0100
0010
0000
1000
0000
0010
0100
0000
0001
0000
0100
0000
0010
0000
,
1010
0000
0100
0001
0000
0010
0000
1000
0200
0000
0001
0000
0301
0000
1001
0000
;
