#TITLE:Short Break in Toad Town;
#SUBTITLE:(Inside Bowser);
#ARTIST:Yoko Shimomura;
#TITLETRANSLIT:;
#SUBTITLETRANSLIT:;
#ARTISTTRANSLIT:;
#CREDIT:;
#BANNER:Short Break in Toad Town (Inside Bowser)-bn.png;
#BACKGROUND:Short Break in Toad Town (Inside Bowser)-bg.png;
#LYRICSPATH:;
#CDTITLE:;
#MUSIC:Short Break in Toad Town (Inside Bowser).mp3;
#OFFSET:-0.260;
#SAMPLESTART:44.320;
#SAMPLELENGTH:20.000;
#SELECTABLE:YES;
#BPMS:0.000=94.000;
#STOPS:;
#BGCHANGES:;

//---------------dance-single - ----------------
#NOTES:
     dance-single:
     :
     Challenge:
     8:
     0.551,0.466,0.363,0.130,0.350:
0000
0000
0000
0000
,
0001
0000
0100
0000
0001
0010
1000
0000
1001
0000
0010
0100
0001
0000
0000
0000
,
0010
0000
1000
0000
0010
0100
0001
0000
0101
0000
0100
0001
0010
1000
0100
0000
,
1000
0000
0001
0000
1000
0010
0100
0000
0110
0000
0100
0001
0010
0000
0000
0000
,
0001
1000
0001
0100
0010
0000
0100
0000
0110
0000
0010
0000
1001
0000
0000
0000
,
0100
0000
0010
0000
0100
1000
0100
0000
0010
0000
0001
0100
0002
0000
0010
0000
,
0013
0000
0100
0000
0001
0010
1000
0000
0010
0000
0001
0100
0001
0010
1000
0000
,
1000
0000
0100
0000
1000
0010
0001
0000
0010
0000
1000
0100
2000
0000
0001
0000
,
3001
0100
0001
0010
1000
0000
0010
1000
0010
0000
0100
0000
1100
0000
0000
0000
,
1001
0000
0100
0000
0010
0100
0001
0000
1001
0000
0010
1000
0100
0000
0000
0000
,
0110
0000
0001
0000
0010
1000
0100
0000
0110
0000
1000
0100
1000
0010
0100
0001
,
0020
0000
0000
0000
0100
0000
1000
0000
0100
0000
0031
0100
1000
0000
1000
0010
,
0001
0010
0200
0001
1000
0010
0001
0310
,
1000
0000
0100
0000
1000
0100
0001
0000
0010
0000
0001
0010
1000
0000
1000
0000
,
0100
0000
0010
0000
0100
0001
0010
0000
1000
0000
0100
1000
0010
0100
0001
0000
,
0102
0000
0000
0000
0010
0000
1000
0000
0100
0000
1003
0010
0100
0000
0100
0002
,
0000
0010
0100
0010
1000
0010
0103
0000
,
0011
0000
0100
0000
0010
0000
1000
0010
1000
0100
0001
0000
0101
0000
0000
0000
,
1100
0000
0010
0000
0100
0000
0001
1000
0100
1000
0010
0000
0002
0000
0100
0000
,
0103
0000
0010
0000
0100
0000
0001
0100
0001
0010
1000
0000
1010
0000
0000
0000
,
0110
0000
0100
0000
0001
0000
0010
1000
0001
1000
0100
0000
0020
0000
0001
0000
,
0031
0000
0100
0000
0010
0000
1000
0100
1000
0010
0001
0000
0011
0000
0000
0000
,
0110
0000
0010
0000
0100
0000
0001
0100
0010
1000
0010
0000
0110
0000
0100
0000
,
2001
0000
0010
0100
0001
3100
0010
0100
,
0001
0000
0010
0000
0100
0000
0001
0000
0011
0000
0000
1010
0000
0000
0110
0000
,
1002
0000
0100
0010
1000
0010
0103
0000
,
0001
0000
0100
0000
0001
0010
1000
0000
1010
0000
0100
0010
0100
0001
0010
0000
,
0100
0000
1000
0000
0100
0001
0010
0000
0110
0000
0100
1000
0100
0000
0000
0000
,
0010
1000
0010
0100
0001
0000
0010
0000
0110
0000
1000
0000
1001
0000
0000
0000
;

//---------------dance-single - ----------------
#NOTES:
     dance-single:
     :
     Hard:
     7:
     0.456,0.392,0.104,0.247,0.143:
0000
0000
0000
0000
,
0100
0000
0001
0000
0100
0010
0100
0000
0001
0000
0100
1000
0100
0000
0000
0000
,
0001
0000
0100
0000
0001
0010
0001
0000
0100
0000
1000
0100
0001
0000
0010
0000
,
0100
0000
1000
0000
0100
0010
0100
0000
0001
0000
1000
0100
1000
0000
0000
0000
,
0010
0001
0100
1000
0010
0100
1001
0000
,
0100
0000
0001
0000
0100
0010
0100
0000
0010
0000
1000
0100
0002
0000
0000
0000
,
1003
0000
0100
0000
1000
0010
1000
0000
0010
0000
1000
0010
0001
0000
0010
0000
,
0010
0000
1000
0000
0010
0100
0010
0000
0100
0000
0001
0010
2000
0000
0000
0000
,
3001
0100
0010
0100
1000
0001
0101
0000
,
0010
0000
1000
0000
0010
0100
0001
0000
0101
0000
0001
0000
0020
0000
0000
0000
,
1030
0000
0100
0000
0010
0100
1000
0000
1010
0000
0010
0000
0001
0000
0100
0000
,
0020
0000
0100
0000
0130
1000
0100
0010
,
0200
0000
0302
0000
0010
1000
1000
1003
,
0100
0000
0010
0000
0100
0001
0100
0000
0010
0000
0100
0000
1000
0000
1000
0000
,
0010
0000
0001
0000
0100
0001
0100
0000
0010
0000
0100
0000
0001
0000
0100
0000
,
1200
0000
0000
0000
1000
0000
0000
0000
0300
0000
1000
0000
0010
0000
0010
0200
,
0000
0000
0010
0000
0001
0001
0301
0000
,
0010
0001
0010
0100
1000
0100
0002
1000
,
1003
0010
0100
0010
0200
0001
0302
0010
,
0013
1000
0010
0100
1000
0100
2000
0010
,
3010
0001
0010
0100
0020
1000
2030
0100
,
3100
0001
0100
0010
1000
0010
0200
0001
,
0301
0010
0001
0100
2000
0010
3002
0010
,
0023
0000
0100
0000
0100
1030
1000
0100
,
0010
0000
0100
0000
1000
0000
0100
0000
0110
0000
0000
0100
0000
0000
0010
0000
,
2001
0000
0001
0000
0010
0100
3001
0000
,
0010
0000
0100
0000
0010
1000
0010
0000
0100
0000
0001
0010
0100
0000
0100
0000
,
1000
0000
0001
0000
1000
0010
1000
0000
0100
0000
1000
0100
0001
0000
0000
0000
,
0010
1000
0010
0100
0010
1000
1100
0000
;

//---------------dance-single - ----------------
#NOTES:
     dance-single:
     :
     Medium:
     5:
     0.363,0.317,0.234,0.312,0.006:
0000
0000
0000
0000
,
0010
0000
1010
0000
0010
0100
0002
0000
,
0103
0000
0101
0000
0100
0010
1000
1000
,
0100
0000
0110
0000
0010
0001
0200
0000
,
0310
0100
0010
0001
0100
0000
0110
0000
,
1000
0001
1000
0100
0020
0000
0230
0000
,
0301
1000
0001
0010
1000
0100
0010
0010
,
0100
0001
0100
0010
2000
0000
3002
0000
,
0103
0010
1000
0100
1000
0000
1100
0000
,
0100
0001
0100
0010
0001
0100
2000
0000
,
3010
0100
0001
0100
0010
0000
1100
0000
,
0120
0000
0100
0000
0030
0001
0100
0010
,
2000
3200
0001
0301
,
0010
1000
0010
0100
0001
0100
0010
0010
,
0100
0001
0100
1000
0010
0000
0101
0000
,
0210
0000
0001
0000
0301
0000
1000
1000
,
0020
1000
0100
1030
,
0110
0000
0010
1000
0100
0100
0010
0100
,
0002
0023
0230
1300
,
0011
0000
0100
0001
0010
0010
0100
0010
,
2000
3020
0230
0301
,
1001
0000
0100
0010
1000
1000
0010
1000
,
0200
0302
0203
1300
,
1020
0000
0100
0000
0130
0000
1000
0100
,
0010
0000
0000
0000
0110
0000
0000
0000
0010
0000
0000
0100
0000
0000
0010
0000
,
2002
0000
0000
3003
,
0100
0000
0110
0000
0100
0001
0010
0010
,
1000
0000
1100
0000
1000
0001
0100
0000
,
0100
0001
0100
0010
1000
0000
1001
0000
;

//---------------dance-single - ----------------
#NOTES:
     dance-single:
     :
     Easy:
     3:
     0.232,0.205,0.234,0.182,0.000:
0000
0000
0000
0000
,
0100
0100
0010
0110
,
0001
1000
0011
0100
,
0010
0010
1000
1010
,
0010
0100
0010
1001
,
0100
0001
0200
0300
,
0010
1000
0100
0101
,
0010
1000
0200
0300
,
0001
0100
1000
1100
,
0100
0001
0020
0030
,
0100
1000
0100
0001
,
0020
0000
0030
0000
,
0100
0220
0000
0330
,
1000
0100
0010
0110
,
0001
0100
0010
0100
,
2002
0000
3003
0010
,
0220
0000
0000
0330
,
1001
0100
0001
0100
,
1000
0100
0001
0010
,
0110
0010
1000
0010
,
0001
0100
0010
1000
,
1100
0100
0001
0010
,
0100
1000
0100
0010
,
2002
0000
3003
0000
,
0010
0100
0010
0100
,
0220
0000
0000
0330
,
0001
0100
1000
1100
,
0010
0100
0010
1010
,
0100
0001
0100
0101
;

//---------------dance-single - ----------------
#NOTES:
     dance-single:
     :
     Beginner:
     2:
     0.152,0.166,0.104,0.104,0.000: // measure 1
0000
0000
0000
0000
,  // measure 2
0100
0000
0010
0000
,  // measure 3
1000
0000
0110
0000
,  // measure 4
1001
0000
0001
0000
,  // measure 5
0100
0000
0110
0000
,  // measure 6
1000
0001
1000
0000
,  // measure 7
0010
0100
0001
0000
,  // measure 8
1000
0010
1000
0000
,  // measure 9
0100
0010
0000
0110
,  // measure 10
0100
0001
1001
0000
,  // measure 11
0010
1000
0010
0000
,  // measure 12
0020
0000
0030
0000
,  // measure 13
0100
0200
0000
0300
,  // measure 14
0001
1000
0001
0000
,  // measure 15
0010
1000
0010
0000
,  // measure 16
0020
0000
0030
0000
,  // measure 17
2000
0000
3000
0000
,  // measure 18
0010
0100
0010
0000
,  // measure 19
0001
0100
1000
0000
,  // measure 20
0100
0010
0100
0000
,  // measure 21
0010
1000
0100
0000
,  // measure 22
0100
0001
0100
0000
,  // measure 23
0010
0100
0010
0000
,  // measure 24
2002
0000
3003
0000
,  // measure 25
0010
0100
0010
0000
,  // measure 26
2002
0000
3003
0000
,  // measure 27
0001
0000
1000
0000
,  // measure 28
0001
0000
0100
0000
,  // measure 29
0010
0000
1001
0000
;
