#TITLE:Harder, Better, Faster, Stronger;
#SUBTITLE:(BPM Remix);
#ARTIST:Daft Punk;
#TITLETRANSLIT:;
#SUBTITLETRANSLIT:;
#ARTISTTRANSLIT:;
#CREDIT:;
#BANNER:;
#BACKGROUND:Harder, Better, Faster, Stronger (BPM Remix)-bg.png;
#LYRICSPATH:;
#CDTITLE:;
#MUSIC:Harder, Better, Faster, Stronger (BPM Remix).mp3;
#OFFSET:-0.040;
#SAMPLESTART:69.500;
#SAMPLELENGTH:15.000;
#SELECTABLE:YES;
#BPMS:0.000=146.000;
#STOPS:;
#BGCHANGES:;

//---------------dance-single - ----------------
#NOTES:
     dance-single:
     :
     Challenge:
     9:
     0.699,0.673,0.117,0.171,0.493:
0000
0000
0000
0000
,
0000
0000
0000
0000
,
0000
0000
0000
0000
,
0000
0000
0000
0000
,
0100
0000
0010
0000
0100
0000
1000
0000
0100
0000
0010
0000
0100
0001
0000
0001
,
0010
0000
0100
0000
1000
0000
0010
0000
0100
0000
1000
0000
0010
0001
0000
0001
,
0100
0000
0010
0000
0100
0000
1000
0000
0100
0000
0010
0000
0001
0010
0000
0010
,
1000
0000
0100
0000
1000
0000
0010
0000
1000
0000
0100
0000
0010
1000
0000
1000
,
0100
0100
0001
0001
1000
1000
0010
0010
,
0200
0000
0010
0010
0020
0000
0330
0000
,
1000
0010
1000
0010
0100
0000
0001
0000
0100
0000
0010
0000
0100
0000
0001
0000
,
1000
0001
1000
0001
0010
0000
0100
0000
0010
0000
1000
0000
0010
0000
0100
0000
,
0001
0100
0001
0100
0010
0000
1000
0000
0010
0000
0100
0000
0010
0000
1000
0000
,
0100
0001
0100
0001
0010
0000
0100
0000
0010
0000
1000
0000
0010
0000
0100
0000
,
0001
1000
0001
1000
0100
0000
0001
0000
0100
0000
0010
0000
0100
0000
0001
0000
,
0010
1000
0010
1000
0100
0000
0001
0000
0100
0000
1000
0000
0100
0000
0001
0000
,
0010
0100
0010
0100
0001
0000
0001
0000
0100
0000
0100
0000
1000
0000
1000
0000
,
0020
0000
0100
0100
0200
0000
0330
0000
,
2001
0000
0000
0001
0000
0000
0000
0010
0000
0000
3100
0000
0000
0010
0000
0000
,
1020
0000
0000
1000
0000
0000
0000
0100
0000
0000
1030
0000
0000
0001
0000
0000
,
0102
0000
0000
0100
0000
0000
0000
0010
0000
0000
0103
0000
0000
0100
0000
0000
,
0210
0000
0000
0010
0000
0000
0000
0001
0000
0000
0310
0000
0000
1000
0000
0000
,
2010
0000
0000
0010
0000
0000
0000
0100
0000
0000
3010
0000
0000
0001
0000
0000
,
0012
0000
0000
0010
0000
0000
0000
1000
0000
0000
0013
0000
0000
0010
0000
0000
,
0120
0000
0000
0100
0000
0000
0000
0001
0000
0000
0130
0000
0000
0100
0000
0000
,
0201
0000
0000
0001
0000
0000
0000
0010
0000
0000
0301
0000
0000
0001
0000
0000
,
1001
0100
1000
0100
0010
0100
0010
0100
,
0110
0001
1000
0001
0100
0001
0100
0001
,
1001
0010
0001
0010
1100
0010
0100
0010
,
0110
1000
0001
1000
0010
1000
0010
1000
,
0100
0010
0100
0010
0100
0010
0100
0010
,
0001
1000
0001
1000
0001
0000
0010
0000
1000
0010
1000
0010
1000
0000
0100
0000
,
0001
0100
0001
0100
0001
0000
1000
0000
0100
0010
0100
0010
0100
0000
0001
0000
,
2000
0000
0001
0001
0002
0000
3003
0000
,
1000
0010
0000
1000
0100
0000
0001
0000
0100
1000
0000
1000
0010
0000
1000
0000
,
0100
0000
0010
0100
0001
0000
1000
0000
0001
0100
0000
0100
0010
0000
0100
0000
,
0001
0000
1000
0001
0010
0000
1000
0000
0100
0001
0000
0001
0010
0000
0001
0000
,
0100
0000
1000
0100
0001
0000
0010
0000
1000
0010
0000
0010
0100
0000
0010
0000
,
1000
0000
0010
1000
0100
0000
0001
0000
0010
1000
0000
1000
0100
0000
1000
0000
,
0010
0000
1000
0010
0001
0000
0100
0000
0010
0001
0000
0001
0100
0000
0001
0000
,
0100
0000
0010
0100
1000
0000
0010
0000
0001
0100
0000
0100
0010
0000
0100
0000
,
0001
0000
0100
0001
0010
0000
0001
0000
0010
1000
0000
1000
0100
0000
1000
0000
,
0010
0000
0100
0000
0001
0010
0000
0010
0001
1000
0001
1000
0100
0000
0001
0000
,
0100
0000
0001
0000
0100
0010
0000
0010
0100
1000
0100
1000
0001
0000
0010
0000
,
1000
0000
0001
0000
1000
0100
0000
0100
0010
1000
0010
1000
0100
0000
0001
0000
,
0010
0000
1000
0000
0010
0001
0000
0001
0010
0100
0010
0100
0001
0000
0010
0000
,
0100
0000
1000
0000
0100
0010
0000
0010
1000
0001
1000
0001
0100
0000
0010
0000
,
0100
0000
0001
0000
0100
1000
0000
1000
0100
0001
0100
0001
0010
0000
1000
0000
,
0010
0000
0001
0000
0010
0100
0000
0100
0001
1000
0001
1000
0100
0000
0001
0000
,
1001
0001
0100
0100
0010
0010
1000
1000
,
0002
0000
1000
1000
2000
0000
3003
0000
,
1000
0000
0010
1000
0100
0000
0010
0000
0100
0000
0001
0000
0100
0000
0001
0000
,
0010
0001
0010
0001
0010
0100
0010
0100
,
0001
0000
1000
0001
0010
0000
1000
0000
0010
0000
0100
0000
0010
0000
0100
0000
,
0001
0100
0001
0100
0001
0010
0001
0010
,
0100
0000
0001
0100
1000
0000
0010
0000
1000
0000
0010
0000
1000
0000
0010
0000
,
0100
0010
0100
0001
0100
0001
0100
1000
,
0010
0000
0100
0001
0100
0000
1000
0000
0100
0000
1000
0000
0100
0000
0010
0000
,
0100
0010
0001
0100
0001
0100
0001
0010
,
0001
1000
0001
1000
0100
0000
0010
0000
0100
0000
1000
0000
0100
0000
0010
0000
,
1000
0001
1000
0001
0100
0000
0010
0000
0100
0000
0001
0000
0100
0000
0010
0000
,
0100
0001
0100
0001
0010
0000
0010
0000
1000
0000
1000
0000
0001
0000
0001
0000
,
0010
1000
0010
1000
0100
0000
0001
0000
0100
0000
0010
0000
0100
0000
0001
0000
,
0010
0100
0010
0100
0001
0000
1000
0000
0001
0000
0100
0000
0001
0000
1000
0000
,
0010
1000
0010
1000
0100
0000
0001
0000
0100
0000
0010
0000
0100
0000
0001
0000
,
1000
0010
1000
0010
0100
0000
0100
0000
0001
0000
0001
0000
1000
0000
1000
0000
,
0010
0000
0100
0000
1000
0000
1000
0000
0010
0000
0010
0000
0100
0010
0100
0010
,
2000
0010
0000
0001
0000
0010
3000
0001
,
0200
0010
0000
1000
0000
0010
0300
1000
,
0020
0100
0000
1000
0000
0100
0030
1000
,
0002
0010
0000
1000
0000
0010
0003
1000
,
0200
0010
0000
0001
0000
0010
0300
0001
,
0020
0100
0000
0001
0000
0100
0030
0001
,
1000
0100
0010
0100
0001
1000
0000
1000
,
1000
0100
0000
0100
0010
0010
0000
0010
,
0100
1000
1001
0000
0000
0000
0000
0000
;

//---------------dance-single - ----------------
#NOTES:
     dance-single:
     :
     Hard:
     8:
     0.564,0.526,0.140,0.132,0.233:
0000
0000
0000
0000
,
0000
0000
0000
0000
,
0000
0000
0000
0000
,
0000
0000
0000
0000
,
0100
0000
0010
0000
0100
0000
1000
0000
0001
0000
0000
0001
0100
0000
0000
0000
,
0001
0000
0100
0000
0001
0000
0010
0000
1000
0000
0000
1000
0100
0000
0000
0000
,
0010
0000
0001
0000
0010
0000
1000
0000
0100
0000
0000
0100
0001
0000
0000
0000
,
1000
0000
0010
0000
1000
0000
0100
0000
0001
0000
0000
0001
0010
0000
0000
0000
,
0001
0100
0001
0100
0010
0100
0010
0100
,
0002
1000
2000
3003
,
0001
0100
0000
0100
0010
0000
1000
0000
0010
0000
1000
0000
0100
0000
0000
0000
,
0010
1000
0000
1000
0100
0000
0001
0000
0100
0000
0001
0000
1000
0000
0000
0000
,
0100
0001
0000
0001
1000
0000
0010
0000
1000
0000
0010
0000
0100
0000
0000
0000
,
1000
0001
0000
0001
0010
0000
1000
0000
0010
0000
1000
0000
0001
0000
0000
0000
,
0100
0010
0000
0010
1000
0000
0001
0000
1000
0000
0001
0000
0010
0000
0000
0000
,
0001
1000
0000
1000
0100
0000
0010
0000
0100
0000
0010
0000
1000
0000
0000
0000
,
0010
0100
0000
0100
0001
0000
1000
0000
0001
0000
1000
0000
0100
0000
0000
0000
,
0020
0100
0200
0330
,
1002
0000
0000
0100
0000
0100
1003
0000
,
0201
0000
0000
0010
0000
0010
0301
0000
,
2010
0000
0000
0001
0000
0001
3010
0000
,
0102
0000
0000
0010
0000
0010
0103
0000
,
0120
0000
0000
1000
0000
1000
0130
0000
,
0201
0000
0000
0010
0000
0010
0301
0000
,
2010
0000
0000
0001
0000
0001
3010
0000
,
0102
0000
0000
0010
0000
0010
0103
0000
,
0100
0010
0100
0010
0100
0000
1001
0000
,
0001
0100
0001
0100
0001
0000
0011
0000
,
1000
0010
1000
0010
1000
0000
1100
0000
,
0010
1000
0010
1000
0010
0000
1001
0000
,
0001
1000
0001
1000
0001
1000
0001
1000
,
0010
0100
0010
0100
0010
0100
0010
0100
,
0001
0010
0000
0000
0010
0100
0000
0000
0100
1000
0000
0000
1000
0010
0000
0000
,
0020
0100
0200
0330
,
0010
0000
0000
0010
1000
0000
0100
0000
0001
0000
0000
0010
0001
0000
0010
0000
,
0100
0000
0000
0100
1000
0000
0010
0000
0100
0000
0000
0001
0100
0000
0001
0000
,
1000
0000
0000
1000
0010
0000
0100
0000
0001
0000
0000
0100
0001
0000
0010
0000
,
0100
0000
0000
0100
0001
0000
0010
0000
1000
0000
0000
0010
1000
0000
0100
0000
,
0001
0000
0000
0010
0001
0000
0100
0000
0010
0000
0000
0100
0010
0000
0001
0000
,
1000
0000
0000
0100
1000
0000
0010
0000
0100
0000
0000
0001
0100
0000
0010
0000
,
0100
0000
0000
0001
0100
0000
0010
0000
1000
0000
0000
0001
1000
0000
0100
0000
,
0010
0000
0000
0100
0010
0000
0001
0000
0100
0000
0000
0001
0100
0000
0010
0000
,
1000
0000
0001
1000
0000
0000
0001
0000
0010
0000
0000
0100
0010
0000
0100
0000
,
0001
0000
1000
0001
0000
0000
1000
0000
0100
0000
0000
0001
0010
0000
0001
0000
,
0100
0000
0010
0100
0000
0000
0010
0000
1000
0000
0000
0100
0001
0000
0100
0000
,
0010
0000
0001
0010
0000
0000
0001
0000
0100
0000
0000
0010
1000
0000
0010
0000
,
0100
0000
0001
0100
0000
0000
0001
0000
0010
0000
0000
1000
0010
0000
0100
0000
,
0001
0000
1000
0001
0000
0000
1000
0000
0010
0000
0000
0100
0001
0000
0100
0000
,
0010
0000
1000
0010
0000
0000
1000
0000
0010
0000
0000
0001
1000
0000
0001
0000
,
1000
0010
1000
0010
0100
0010
0100
0010
,
2000
0001
0002
3003
,
0010
0001
0100
0010
0100
0001
0100
0000
,
0010
1000
0100
0010
0100
1000
0100
0000
,
1000
0100
0001
0010
0001
0100
0001
0000
,
0100
1000
0010
0001
0010
1000
0010
0000
,
0100
0001
0010
1000
0010
0001
0010
0000
,
0001
0010
1000
0100
1000
0010
1000
0000
,
0100
1000
0001
0100
0001
1000
0001
0000
,
0010
0100
0001
1000
0001
0100
0001
0000
,
1001
0001
0010
0100
0001
0100
0010
0000
,
1100
1000
0010
0100
0001
0100
1000
0000
,
0010
1000
0000
0000
1000
0001
0000
0000
0001
0100
0000
0000
0100
0001
0000
0000
,
1000
0010
0100
0100
0001
0001
0011
0000
,
0101
0001
0010
1000
0100
1000
0001
0000
,
0110
0100
0001
0010
1000
0010
0001
0000
,
0010
0001
1000
1000
0010
0010
0110
0000
,
0100
0001
0000
0000
0001
1000
0000
0000
1000
0010
0000
0000
0010
1000
0000
0000
,
0001
0100
0000
0100
0010
0100
0000
0100
,
0010
1000
0000
1000
0100
1000
0000
1000
,
0100
0010
0000
0010
1000
0010
0000
0010
,
1000
0100
0000
0100
0010
0100
0000
0100
,
0010
0001
0000
0001
0100
0001
0000
0001
,
0100
0010
0000
0010
1000
0010
0000
0010
,
2000
0000
0010
0000
0001
0001
0000
0000
,
0100
0100
0000
0000
0010
0010
0000
0000
,
0100
0100
3001
0000
0000
0000
0000
0000
;

//---------------dance-single - ----------------
#NOTES:
     dance-single:
     :
     Medium:
     6:
     0.390,0.438,0.140,0.148,0.093:
0000
0000
0000
0000
,
0000
0000
0000
0000
,
0000
0000
0000
0000
,
0000
0000
0000
0000
,
0100
0000
0001
0000
0100
1000
0100
0000
,
0010
0000
0001
0000
1000
0001
1000
0000
,
0010
0000
0100
0000
0001
0100
0001
0000
,
0100
0000
0001
0000
1000
0010
1000
0000
,
0020
0000
0000
0000
,
0200
0000
0000
0330
,
0001
0100
1000
0000
1000
0001
0100
0000
,
0010
0100
1000
0000
1000
0010
0100
0000
,
1000
0100
0001
0000
0001
1000
0100
0000
,
0010
0100
0001
0000
0001
0010
0100
0000
,
0001
1000
0100
0000
0100
0001
1000
0000
,
0100
0001
0100
0000
0001
0100
0001
0000
,
0200
0000
0000
0000
,
0020
0000
0000
0330
,
0001
0000
0000
1000
0000
0000
0000
0001
0000
0000
1000
0000
0000
0000
0000
0000
,
0100
0000
0000
0010
0000
0000
0000
0100
0000
0000
0010
0000
0000
0000
0000
0000
,
0010
0000
0000
1000
0000
0000
0000
0010
0000
0000
1000
0000
0000
0000
0000
0000
,
0100
0000
0000
0001
0000
0000
0000
0100
0000
0000
0001
0000
0000
0000
0000
0000
,
1000
0000
0000
0001
0000
0000
0000
1000
0000
0000
0001
0000
0000
0000
0000
0000
,
0010
0000
0000
0100
0000
0000
0000
0010
0000
0000
0100
0000
0000
0000
0000
0000
,
0010
0000
0000
0001
0000
0000
0000
0010
0000
0000
0001
0000
0000
0000
0000
0000
,
0100
0000
0000
1000
0000
0000
0000
0100
0000
0000
1000
0000
0000
0000
0000
0000
,
0020
0000
0100
0130
,
2000
0000
0001
3001
,
0200
0000
0010
0310
,
0002
0000
0100
0103
,
0010
0000
0100
0000
0010
0000
0100
0010
,
1000
0000
0001
0000
1000
0000
0001
0100
,
0010
0100
0010
0100
,
2002
0000
0000
3003
,
0010
0000
0000
0100
0000
0000
1000
0000
0010
0000
1000
0000
0100
0000
0000
0000
,
0001
0000
0000
0100
0000
0000
0010
0000
0001
0000
1000
0000
0001
0000
0000
0000
,
0100
0000
0000
0010
0000
0000
1000
0000
0100
0000
0010
0000
0100
0000
0000
0000
,
0001
0000
0000
0100
0000
0000
0010
0000
0100
0000
0001
0000
0100
0000
0000
0000
,
0010
0000
0000
1000
0000
0000
0010
0000
1000
0000
0001
0000
1000
0000
0000
0000
,
0100
0000
0000
0001
0000
0000
0100
0000
0010
0000
0001
0000
0010
0000
0000
0000
,
1000
0000
0000
0001
0000
0000
1000
0000
0001
0000
0100
0000
0001
0000
0000
0000
,
0100
0000
0000
1000
0000
0000
0001
0000
0100
0000
1000
0000
0100
0000
0000
0000
,
0020
0130
0001
1001
,
2000
3001
0010
0110
,
0200
0301
1000
1100
,
0002
0013
1000
1001
,
0020
1030
0100
0101
,
0002
1003
0100
0110
,
0200
0310
0001
0011
,
0200
0000
0000
0000
,
0020
0000
0000
0330
,
1000
0001
0100
0000
0100
0001
1000
0000
,
0010
0100
0010
0000
0100
0010
0100
0000
,
0001
1000
0010
0000
0010
1000
0001
0000
,
0100
0010
0100
0000
0010
0100
0010
0000
,
1000
0010
0100
0000
0100
0010
1000
0000
,
0001
0100
0001
0000
0100
0001
0100
0000
,
0001
0100
0010
0000
0010
0100
0001
0000
,
1000
0100
1000
0000
0100
1000
0100
0000
,
1001
0000
0110
0000
0100
0010
0100
0000
,
0011
0000
1100
0000
0001
1000
0001
0000
,
0100
0010
0100
0010
,
1000
0001
1000
1001
,
1010
0000
0101
0000
0010
1000
0010
0000
,
0110
0000
1001
0000
0100
0001
0100
0000
,
0001
1000
0001
1000
,
0010
0100
0010
0100
,
1001
0000
0000
0100
0000
0010
0000
0100
,
0000
0001
0000
1000
0000
0001
0000
0010
,
0000
0100
0000
0010
0000
1000
0000
0001
,
0000
1000
0000
0010
0000
0001
0000
0010
,
0000
0100
0000
1000
0000
0100
0000
0001
,
0000
0100
0000
0001
0000
1000
0000
0010
,
0000
1000
0000
0000
0100
0010
0000
0000
,
0001
0100
0000
0000
0010
1000
0000
0000
,
0100
0010
0000
0000
0000
0000
0000
0000
;

//---------------dance-single - ----------------
#NOTES:
     dance-single:
     :
     Easy:
     3:
     0.236,0.291,0.093,0.109,0.000:
0000
0000
0000
0000
,
0000
0000
0000
0000
,
0000
0000
0000
0000
,
0000
0000
0000
0000
,
0100
0000
0001
0000
,
0100
0000
0010
0000
,
1000
0000
0100
0000
,
0001
0000
0100
0000
,
1001
0000
0000
0000
,
0110
0000
0000
0000
,
1000
0001
1000
0001
,
0100
0001
0100
0000
,
0010
1000
0010
1000
,
0010
0001
0100
0000
,
0010
0100
0010
0100
,
0001
1000
0001
0000
,
0100
0001
0100
1000
,
1001
0000
0000
0000
,
0020
0000
0000
0030
,
0200
0000
0000
0300
,
0002
0000
0000
0003
,
0200
0000
0000
0300
,
0020
0000
0000
0030
,
2000
0000
0000
3000
,
0200
0000
0000
0300
,
0002
0000
0000
0003
,
0100
0010
0100
0000
,
0001
1000
0001
0000
,
0010
0100
0010
0000
,
0001
1000
0001
1000
,
0010
0100
0010
0100
,
0001
1000
0001
1000
,
1001
0000
0000
0000
,
0110
0000
0000
0000
,
0100
0001
0100
0010
,
0001
1000
0010
0100
,
0001
1000
0010
0100
,
0010
0100
1000
0100
,
0001
1000
0100
0010
,
0100
0001
1000
0010
,
0100
0010
0001
0100
,
1000
0010
1000
0000
,
0010
0001
0010
0100
,
0001
0100
1000
0100
,
0010
0001
1000
0001
,
0100
0010
1000
0010
,
0001
0100
0010
0100
,
1000
0001
1000
0001
,
0010
1000
0100
1000
,
1001
0000
0000
0000
,
0110
0000
0000
0000
,
0100
0001
0100
1000
,
0100
0001
0100
0000
,
0001
1000
0001
0010
,
0001
1000
0001
0000
,
0010
1000
0010
0001
,
0010
1000
0010
0000
,
1000
0001
1000
0010
,
1000
0001
1000
0000
,
0110
0000
0000
0000
,
1001
0000
0000
0000
,
0100
0010
0100
0010
,
0001
1000
0001
0000
,
0110
0000
0000
0000
,
1001
0000
0000
0000
,
0001
1000
0001
1000
,
0100
0010
0100
0000
,
0020
0000
0000
0030
,
2000
0000
0000
3000
,
0200
0000
0000
0300
,
0020
0000
0000
0030
,
0002
0000
0000
0003
,
0200
0000
0000
0300
,
0010
0100
0010
0000
,
0001
1000
0001
0000
,
1001
0000
0000
0000
;
