#TITLE:Golden Palms;
#SUBTITLE:;
#ARTIST:Dirty Androids;
#TITLETRANSLIT:;
#SUBTITLETRANSLIT:;
#ARTISTTRANSLIT:;
#CREDIT:;
#BANNER:Golden Palms.PNG;
#BACKGROUND:Golden Palms-bg.jpg;
#LYRICSPATH:;
#CDTITLE:;
#MUSIC:Golden Palms.mp3;
#OFFSET:-0.360;
#SAMPLESTART:59.440;
#SAMPLELENGTH:29.500;
#SELECTABLE:YES;
#BPMS:0.000=130.000;
#STOPS:;
#BGCHANGES:-3.120=Golden Palms.avi=1.000=0=0=0,
99999=-nosongbg-=1.000=0=0=0 // don't automatically add -songbackground-
;

//---------------dance-single - ----------------
#NOTES:
     dance-single:
     :
     Challenge:
     8:
     0.526,0.475,0.083,0.248,0.248:
0000
0000
0000
0000
,
0000
0000
0000
0000
,
0000
0000
0000
0000
,
0000
0000
0000
0000
,
1000
0000
0000
0100
1000
0000
0010
0000
0100
0000
0001
0000
1000
0000
0000
0000
,
0010
0000
0000
0100
0001
0000
0010
0000
1000
0000
0010
0000
0100
0000
0000
0000
,
0001
0000
0000
1000
0100
0000
0010
0000
1000
0000
0001
0000
1000
0000
0010
0000
,
0200
0000
0010
0000
0001
1000
1300
0000
,
0100
0000
0001
0100
0000
0000
1000
0010
0000
0010
1000
0000
0000
0000
0100
0000
,
0001
0000
0000
1000
0010
0000
0001
0000
0100
1000
0100
0000
0020
0000
0000
0000
,
1030
0000
0100
0000
0001
0000
0100
1000
0000
1000
0010
0000
0000
0000
0001
0000
,
0100
0000
0000
1000
0010
0000
1000
0000
0100
0000
0001
0000
0100
0000
0000
0000
,
0010
0000
0001
0000
1000
0000
0100
0001
0000
0001
1000
0000
0000
0000
0010
0000
,
0100
0000
0000
0100
0001
0000
1000
0000
0100
0001
0100
0000
2000
0000
0000
0000
,
3010
0000
0100
0000
0001
0000
0100
1000
0000
1000
0010
0000
0000
0000
0100
0000
,
0001
0010
1000
0000
1000
0100
0001
0000
,
0110
0000
0000
1000
0001
0000
0200
0000
0000
0000
0301
0000
0000
0000
0010
0000
,
0100
0000
0010
0000
1000
0000
0100
0000
0001
1000
0000
1000
0200
0000
0000
0000
,
1300
0010
0100
0020
0000
0031
0000
1000
,
0010
0000
1000
0000
0100
0000
0001
0000
0100
1000
0000
1000
0100
0000
0000
0000
,
0101
0000
0000
0001
0100
0000
2000
0000
0000
0000
3010
0000
0000
0000
0100
0000
,
0001
0000
0100
0000
0010
0000
1000
0000
0010
0100
0000
0100
0002
0000
0000
0000
,
0013
0100
1000
0200
0000
0301
0000
0010
,
1200
0000
0001
0000
0001
0000
0301
0100
,
1000
0000
0000
0100
1000
0000
0010
0000
0100
0000
1001
0000
0000
0000
0100
0000
,
0001
0000
0010
0000
0001
0000
0100
0000
0010
0000
0000
0010
1000
0000
0000
0000
,
0100
0000
0000
0001
0100
0000
0010
0000
1000
0000
0101
0000
0000
0000
0010
0000
,
1000
0000
0100
0000
0001
0000
0010
0000
0001
0000
0000
0001
1000
0000
0000
0000
,
0010
0000
0000
0010
1000
0000
0001
0000
1000
0000
0110
0000
0000
0000
0100
0000
,
0001
0000
0010
0000
0001
0000
0100
0000
0010
0000
0000
0100
0001
0000
0000
0000
,
0001
0000
0000
1000
0001
0000
0100
0000
0010
0000
1001
0000
0000
0000
0010
0000
,
0100
1000
0100
0010
0001
0100
0010
0100
,
1000
0000
0000
1000
0100
0000
0010
0000
0100
0000
0001
0000
1000
0000
0100
0000
,
0000
0100
1000
0200
0000
0001
0301
0000
,
0010
0000
0000
0010
1000
0000
0001
0000
0100
0000
0001
0000
0010
0000
1000
0000
,
0000
1000
0100
0002
0000
1000
1003
0000
,
0000
0001
0100
1000
0100
0001
0010
1000
,
0000
1000
0010
0100
0000
0000
0100
0002
,
0000
0000
0010
2003
0000
0000
0001
3200
,
0000
0000
0010
0300
0001
0010
0110
0000
,
0001
0000
0000
1000
0001
0000
0100
0000
0010
0000
1000
0000
0100
0000
0001
0000
,
0000
0001
0010
0200
0000
0001
0301
0000
,
0100
0000
0000
0010
0100
0000
0001
0000
0100
0000
1000
0000
0001
0000
0200
0000
,
0000
0000
0010
0000
0310
0000
0001
1000
,
0001
1000
0010
0001
0010
1000
0100
0001
,
0000
0001
0010
0100
0000
0000
1000
0020
,
0000
0000
0100
0032
0000
0000
0010
2003
,
0000
0000
0100
3000
0010
0100
0001
1000
,
0100
0001
0000
0000
0001
1000
0000
0000
1000
0100
0000
0000
0001
0000
0000
0000
,
0100
0001
0100
1000
0100
0001
0100
0000
,
1000
0100
0000
0000
0100
0001
0000
0000
0001
0010
0000
0000
1000
0000
0000
0000
,
0010
0000
0100
0010
0000
0000
0001
1000
0100
0000
0001
0000
1100
0000
0000
0000
,
0010
0001
0000
0000
0001
1000
0000
0000
1000
0000
0010
0000
0100
0000
0000
0000
,
0100
1000
0100
1000
0001
1000
0001
0000
,
0010
1000
0000
0000
1000
0001
0000
0000
0010
0000
0100
0000
0001
0000
0000
0000
,
1000
0000
0001
0000
1000
0000
0000
0010
0001
0000
0000
1000
0100
0000
0000
0000
,
0010
0001
0000
0001
1000
0000
0200
0000
0000
0000
0301
0000
1000
0000
0020
0000
,
0000
0000
1030
0000
0100
0000
1000
0000
0010
0001
0000
0001
0100
0000
0000
0000
,
0010
1000
0000
1000
0001
0000
0020
0000
0000
0000
0130
0000
0001
0000
2000
0000
,
0000
3100
0001
0100
0020
0000
0130
1000
,
0100
0001
0000
0001
1000
0000
0020
0000
0000
0000
1030
0000
0001
0000
0200
0000
,
0000
0310
1000
0100
1000
0001
1100
0000
,
1000
0010
0000
0010
0100
0000
0002
0000
0000
0000
1003
0000
0010
0000
0100
0000
,
0010
1000
0100
0002
0000
0103
0020
0000
,
1030
0000
0000
0000
;

//---------------dance-single - ----------------
#NOTES:
     dance-single:
     :
     Hard:
     6:
     0.452,0.449,0.330,0.272,0.004:
0000
0000
0000
0000
,
0000
0000
0000
0000
,
0000
0000
0000
0000
,
0000
0000
0000
0000
,
1002
0000
0103
0000
0001
0100
0010
0000
,
0201
0000
1300
0000
0010
0001
1000
0000
,
0120
0000
1030
0000
0100
1000
0001
0000
,
0220
0000
0000
0330
,
0001
1000
0001
0100
0000
0110
0000
0001
,
0200
0000
1300
0000
0100
0010
0100
0000
,
1000
0010
1000
0100
0000
0101
0000
0010
,
2000
0000
3100
0000
0001
0100
0001
0000
,
0010
1000
0010
0100
0000
1100
0000
0010
,
0002
0000
0103
0000
0010
1000
0010
0000
,
0100
0001
0100
0010
0000
1010
0000
0010
,
0200
0001
0301
0110
,
0001
1000
0001
0200
0000
0301
0000
0001
,
0100
1000
0100
0000
0100
0000
1001
0000
,
0010
1000
0010
0002
0000
0103
0000
0100
,
0010
1000
0010
0000
0010
0000
0110
0000
,
0100
0001
0100
0020
0000
1030
0000
1000
,
0100
0001
0100
0000
0100
0000
0101
0000
,
0001
0010
0001
2000
0000
3100
0000
0000
,
0220
0000
0000
0330
,
1001
0000
0010
0100
0000
1001
0000
0001
,
0100
0010
0100
0000
0100
0000
1100
0000
,
0101
0000
0010
0100
0000
0101
0000
0001
,
0010
1000
0010
0000
0010
0000
1010
0000
,
0011
0000
0100
1000
0000
0011
0000
0100
,
0001
0010
0001
0000
0001
0000
1001
0000
,
1001
0000
0100
0010
0000
1001
0000
1000
,
0010
0100
0010
0000
0010
0000
0110
0000
,
0110
0000
0001
0100
0010
0000
0100
2000
,
0000
0000
0010
3020
0000
0000
0130
0000
,
1001
0000
1000
0010
0100
0000
0010
0200
,
0000
0000
0001
0302
0000
0000
1003
0000
,
0000
0010
0001
0100
0001
0000
0001
0200
,
0000
0000
1000
2300
0000
0000
0010
3020
,
0000
0000
0100
0230
0000
0000
0001
0302
,
0000
0000
0100
0000
0000
1000
1003
0000
,
1000
0010
0100
0000
0100
1000
0001
0020
,
0000
0030
0100
0020
0000
0000
1030
0000
,
0100
0001
0100
0001
0010
0000
0010
2000
,
0000
0001
0001
3001
,
0000
0001
0010
1000
0100
0010
0100
0010
,
0000
0100
0010
0100
0000
0010
1000
1001
,
0000
0000
0100
0020
0000
0000
0100
0200
,
0000
0000
0000
0330
,
1000
0001
1000
0000
1001
0000
1001
0000
,
0001
0100
0001
0010
0100
1000
0100
0000
,
0010
0100
0010
0000
1010
0000
1010
0000
,
0100
0001
0100
1000
0010
1000
0100
0000
,
0010
1000
0010
0000
0011
1000
0000
0100
,
0010
1000
0010
0100
0001
0100
0010
0000
,
1000
0001
1000
0000
1100
0001
0000
0001
,
0010
1000
0010
0100
0001
1000
0100
0000
,
0201
0000
0301
0010
0000
0010
1000
0100
,
0000
0100
1000
0100
0001
0010
0100
0000
,
2010
0000
3100
0010
0000
0010
1000
0100
,
0000
0100
0001
1000
0001
0100
0001
0010
,
1020
0000
1030
0100
0000
0100
0001
0100
,
0000
0100
0001
0010
0100
1000
1001
0000
,
0012
0000
1003
0010
0000
0010
0100
1000
,
1000
0000
0000
0010
0000
0000
0100
0000
0001
0000
0100
0000
0010
0000
0000
0000
,
1001
0000
0000
0000
;

//---------------dance-single - ----------------
#NOTES:
     dance-single:
     :
     Medium:
     5:
     0.400,0.423,0.330,0.206,0.004:
0000
0000
0000
0000
,
0000
0000
0000
0000
,
0000
0000
0000
0000
,
0000
0000
0000
0000
,
0100
0000
0100
0000
0100
0001
0100
0000
,
0010
0000
0010
0000
0010
1000
1000
0000
,
0001
0000
0001
0000
0001
0100
0001
0000
,
0220
0000
0000
0330
,
0001
0000
0001
0100
0000
1001
0000
0001
,
0100
0100
0010
0110
,
1000
0000
1000
0010
0000
0110
0000
0100
,
0001
0001
0010
1010
,
0100
0000
0100
0001
0000
0101
0000
0001
,
0100
0100
1000
1100
,
0010
0000
0010
1000
0000
1001
0000
0001
,
0100
0000
0100
0010
0100
0000
0110
0000
,
0002
0000
0103
0000
0101
0000
1000
0100
,
1000
0010
1000
0020
,
0230
0000
1300
0000
0110
0000
0001
1000
,
0001
0100
0010
0200
,
0302
0000
1003
0000
1010
0000
0100
0001
,
0100
0001
0100
0002
,
0023
1030
1100
1000
,
0220
0000
0000
0330
,
1001
0000
0100
0010
0000
0010
0000
0010
,
0100
1000
0100
0000
0100
0000
0101
0000
,
1001
0000
1000
0001
0000
0001
0000
0001
,
0100
0010
0100
0000
0100
0000
1010
0000
,
0101
0000
0010
1000
0000
1000
0000
1000
,
0010
0100
0010
0000
0010
0000
0110
0000
,
1100
0000
0001
0100
0000
0100
0000
0100
,
0010
1000
0010
0000
0100
0010
0100
0000
,
1002
0000
0100
0103
,
0020
0000
0100
0130
,
0000
0100
0010
0100
0000
0100
0001
0001
,
0000
0000
0010
0100
0000
0100
0001
0000
,
0000
0001
0010
0100
0010
0000
1000
0100
,
0000
0000
0010
0100
0000
0000
0100
0001
,
0000
0000
0001
0010
0000
0000
0010
1000
,
0000
0000
1000
0010
0000
0010
0100
0000
,
2001
0000
0010
3010
,
0200
0000
0001
0301
,
0000
0001
1000
0001
0100
0000
0100
0020
,
0000
0000
1000
1030
,
0000
0100
0010
1000
0000
1000
0100
0010
,
0000
0010
0100
0010
0000
0000
0001
0100
,
0000
0000
0100
1000
0000
0000
0010
0200
,
0000
0000
0001
0301
,
1001
1001
0110
1001
,
0100
0010
0100
0000
0001
0010
0100
0000
,
1010
1010
0011
1010
,
0100
0010
0100
0000
1000
0100
0001
0000
,
0110
0110
1001
0110
,
0010
0100
0000
0100
0000
0010
0100
0000
,
0101
0101
1100
0101
,
0001
0100
0001
0000
1000
0010
0100
0000
,
0100
0000
0100
0010
0100
0000
0001
0100
,
0002
0023
2030
3001
,
0100
0001
0100
0010
0000
0010
0100
1000
,
0000
1000
0100
0010
0001
0000
0001
0100
,
1000
0000
1000
0100
0000
0010
0100
0000
,
0002
0203
0320
1030
,
0010
1000
0010
0100
0000
0100
0010
0001
,
1000
0000
0000
0001
0000
0000
0100
0000
0000
0000
0010
0000
0220
0000
0000
0000
,
0330
0000
0000
0000
;

//---------------dance-single - ----------------
#NOTES:
     dance-single:
     :
     Easy:
     3:
     0.235,0.263,0.149,0.157,0.000:
0000
0000
0000
0000
,
0000
0000
0000
0000
,
0000
0000
0000
0000
,
0000
0000
0000
0000
,
0100
0000
0100
0000
,
0100
0000
0001
0000
,
1000
0000
1000
0000
,
0020
0000
0000
0030
,
0100
0001
0100
0000
,
0001
1000
0001
0100
,
0010
1000
0010
0000
,
0001
0100
0001
0010
,
0100
1000
0100
0000
,
0010
0100
0010
1000
,
0001
0100
0001
0000
,
0200
0000
0000
0300
,
0010
1000
0100
0000
,
0001
0100
0010
1001
,
0010
1000
0001
0000
,
0001
0100
1000
0110
,
0001
0100
0010
0000
,
0010
1000
0100
1001
,
1000
0100
0001
0000
,
2000
0000
0000
3000
,
0100
0110
0001
0000
,
0001
1000
0100
0010
,
0100
0110
1000
0000
,
0010
0001
0100
1000
,
0001
1001
1000
0000
,
0001
1000
0010
0100
,
1000
1001
0001
0000
,
0001
1000
0001
0100
,
0200
0000
0000
0300
,
0020
0000
0000
0030
,
0200
0000
0000
0300
,
0002
0000
0000
0003
,
2000
0000
0000
3000
,
0200
0000
0000
0300
,
0020
0000
0000
0030
,
0200
0000
0000
0300
,
0010
1000
0010
0000
,
0100
0001
0200
0300
,
1000
0001
0100
0000
,
0100
0001
2000
3000
,
0100
0001
0100
0010
,
1000
1000
0010
0000
,
0020
0000
0000
0030
,
0200
0000
0000
0300
,
1001
0000
1001
0000
,
0100
0010
0100
0010
,
1001
0000
1001
0000
,
0001
0100
0010
0100
,
0110
0000
0110
0000
,
1000
0010
0001
0010
,
0110
0000
0110
0000
,
1001
0000
1001
0000
,
0100
0000
0010
0100
,
0001
1000
0002
0003
,
0100
0010
0100
0000
,
1000
0001
1000
0100
,
0010
0100
0002
0003
,
0200
0300
0020
0030
,
0100
0001
0100
0010
,
1000
0100
0010
1001
;

//---------------dance-single - ----------------
#NOTES:
     dance-single:
     :
     Beginner:
     1:
     0.086,0.132,0.099,0.000,0.000: // measure 1
0000
0000
0000
0000
,  // measure 2
0000
0000
0000
0000
,  // measure 3
0000
0000
0000
0000
,  // measure 4
0000
0000
0000
0000
,  // measure 5
0010
0000
0000
0000
,  // measure 6
0100
0000
0000
0000
,  // measure 7
0010
0000
0000
0000
,  // measure 8
1001
0000
0000
0000
,  // measure 9
0001
0000
0000
0000
,  // measure 10
1000
0000
0000
0000
,  // measure 11
0010
0000
0000
0000
,  // measure 12
1000
0000
0000
0000
,  // measure 13
0001
0000
0000
0000
,  // measure 14
0100
0000
0000
0000
,  // measure 15
0010
0000
0000
0000
,  // measure 16
1001
0000
0000
0000
,  // measure 17
1000
0000
0000
0000
,  // measure 18
0010
0000
0000
0000
,  // measure 19
1000
0000
0000
0000
,  // measure 20
0001
0000
0000
0000
,  // measure 21
0100
0000
0000
0000
,  // measure 22
0001
0000
0000
0000
,  // measure 23
0010
0000
0000
0000
,  // measure 24
0110
0000
0000
0000
,  // measure 25
0001
0000
0000
0000
,  // measure 26
0001
0000
0000
0000
,  // measure 27
0010
0000
0000
0000
,  // measure 28
1000
0000
0000
0000
,  // measure 29
0010
0000
0000
0000
,  // measure 30
0100
0000
0000
0000
,  // measure 31
0100
0000
0000
0000
,  // measure 32
1000
0000
0000
0000
,  // measure 33
1001
0000
0000
0000
,  // measure 34
1001
0000
0000
0000
,  // measure 35
0100
0000
0000
0000
,  // measure 36
0010
0000
0000
0000
,  // measure 37
0100
0000
0000
0000
,  // measure 38
0001
0000
0000
0000
,  // measure 39
1000
0000
0000
0000
,  // measure 40
0100
0000
0000
0000
,  // measure 41
0110
0000
0000
0000
,  // measure 42
0110
0000
0000
0000
,  // measure 43
0001
0000
0000
0000
,  // measure 44
0100
0000
0000
0000
,  // measure 45
0001
0000
0000
0000
,  // measure 46
1000
0000
0000
0000
,  // measure 47
0010
0000
0000
0000
,  // measure 48
0100
0000
0000
0000
,  // measure 49
1001
0000
0000
0000
,  // measure 50
0100
0000
0000
0000
,  // measure 51
1001
0000
0000
0000
,  // measure 52
0010
0000
0000
0000
,  // measure 53
1001
0000
0000
0000
,  // measure 54
1000
0000
0000
0000
,  // measure 55
1001
0000
0000
0000
,  // measure 56
0001
0000
0000
0000
,  // measure 57
0100
0000
0000
0000
,  // measure 58
1000
0000
0000
0000
,  // measure 59
0100
0000
0000
0000
,  // measure 60
0010
0000
0000
0000
,  // measure 61
0001
0000
0000
0000
,  // measure 62
0100
0000
0000
0000
,  // measure 63
0001
0000
0000
0000
,  // measure 64
0010
0000
0000
0000
,  // measure 65
1001
0000
0000
0000
;
