#TITLE:GOLDEN CROSS;
#SUBTITLE:;
#ARTIST:dj REMO-CON VS dj TAKA;
#TITLETRANSLIT:;
#SUBTITLETRANSLIT:;
#ARTISTTRANSLIT:;
#CREDIT:;
#BANNER:;
#BACKGROUND:GOLDEN CROSS-bg.PNG;
#LYRICSPATH:;
#CDTITLE:;
#MUSIC:Golden Cross.mp3;
#OFFSET:1.230;
#SAMPLESTART:83.560;
#SAMPLELENGTH:11.500;
#SELECTABLE:YES;
#BPMS:0.000=150.000;
#STOPS:;
#BGCHANGES:0.000=GOLDEN CROSS.avi=1.000=0=0=0,
99999=-nosongbg-=1.000=0=0=0 // don't automatically add -songbackground-
;

//---------------dance-single - ----------------
#NOTES:
     dance-single:
     :
     Challenge:
     10:
     0.748,0.746,0.335,0.204,0.687:
0000
0000
0000
0000
,
0000
0000
0000
0000
,
0000
0000
0000
0000
,
1001
0000
0000
0000
0001
0000
0000
0001
0100
0000
0000
0000
0100
0000
0000
0100
,
1000
0000
0000
0000
1000
0000
0000
1000
0010
0000
0000
0000
0010
0000
0000
0010
,
0100
0000
0000
0000
0100
0000
0000
1000
0001
0000
0000
0000
0001
0000
0000
0010
,
1000
0000
1000
0100
0010
0000
0010
0001
,
1000
0000
0000
0000
1000
0000
0000
0100
0001
0000
0000
0000
0100
0000
0010
0000
,
0001
0000
0000
1000
0100
0000
0010
0001
1000
0000
0000
0000
0010
0000
0100
0000
,
1000
0000
0000
0000
1000
0000
0000
0010
0100
0000
1000
0000
0001
0000
1000
0200
,
0000
0000
0000
0000
0000
0000
0000
0000
1300
0000
0001
0000
0100
0000
1000
0100
,
0001
0000
0010
0000
1000
0000
0100
0001
0000
0000
0001
0000
0100
0000
0010
1000
,
0000
0000
0100
0000
0010
0000
0001
1000
0000
0000
0001
0000
1000
0000
0010
0100
,
0000
0000
0001
0000
0100
0000
1000
0001
0000
0000
0100
0000
1000
0000
0010
0001
,
0000
0000
0100
0000
0001
0000
0100
1000
0000
0000
0010
0000
0100
0000
0001
1000
,
0100
0000
0001
0000
1000
0000
0010
0100
0000
0000
0001
0000
0010
0000
0100
0001
,
0000
0000
0100
0000
0010
0000
1000
0001
0000
0000
0100
0000
0010
0000
0001
0100
,
0000
0000
0001
0000
0100
0000
0010
1000
0000
0000
0010
0000
0100
0000
0001
1000
,
0001
0000
0010
0000
0100
0000
0001
0000
1000
0010
0000
0010
0100
0000
0000
0000
,
1002
0000
0000
0000
0013
0000
0000
0100
2000
0000
0000
0000
3100
0000
0000
0010
,
0200
0000
0000
0000
0301
0000
0000
1000
0002
0000
0000
0000
0013
0000
0000
1000
,
0020
0000
0000
0000
0130
0000
0000
0001
0200
0000
0000
0000
1300
0000
0000
0001
,
2000
0000
0000
0000
3100
0000
0000
0001
0020
0000
0000
0000
0031
0000
1000
0000
,
0210
0000
0000
0000
0301
0000
0000
0100
2000
0000
0000
0000
3100
0000
0000
0001
,
0020
0000
0000
0000
0130
0000
0000
1000
0002
0000
0000
0000
0103
0000
0000
0010
,
2000
0000
0000
0000
3100
0000
0000
0001
0020
0000
0000
0000
0130
0000
0001
0000
,
1000
0010
0000
0010
0001
0000
0100
0000
0010
1000
0000
1000
0100
0000
0000
0000
,
0001
0000
0100
0000
1000
0001
1000
0100
0001
0000
0010
0000
0100
0001
0100
1000
,
0010
0000
0001
0000
1000
0010
1000
0100
0001
0000
0010
0000
0001
1000
0001
0010
,
0100
0000
1000
0000
0001
0100
0001
0010
1000
0000
0100
0000
0001
1000
0001
0100
,
0010
0000
0001
0000
1000
0010
1000
0001
0100
0000
0010
0000
0001
1000
0001
0100
,
1000
0000
0001
0000
0010
1000
0000
1000
0100
0000
0001
0000
1000
0010
0000
0010
,
0100
0000
1000
0000
0001
0100
0000
0100
0010
0000
0001
0000
0010
1000
0000
1000
,
0001
0100
0010
0001
0100
0010
0001
0100
,
0010
1000
0100
0010
1000
0100
0010
1000
,
0201
0000
0001
0010
0000
0001
1300
0000
,
0012
0000
0010
0100
0000
0010
1003
0000
,
1020
0000
1000
0100
0000
1000
0031
0000
,
1100
0000
0000
0101
0000
0000
0110
0000
1001
0000
0000
0101
0000
0000
0011
0000
,
2010
0000
0010
0001
0000
0100
3001
0000
,
0210
0000
0010
1000
0000
0001
1300
0000
,
0102
0000
0100
0010
0000
1000
0103
0000
,
1010
0000
0000
1001
0000
0000
1100
0000
0011
0000
0000
0110
0000
0000
1010
0000
,
1000
0000
0001
0000
1000
0000
0010
0000
1000
0000
0100
0000
0001
1000
0000
0000
,
1001
0000
0000
0000
0001
0000
1000
0000
0010
0000
0100
0000
0001
0100
0000
0000
,
1100
0000
0000
0000
0100
0000
1000
0000
0010
0000
0100
0000
1000
0001
0000
0000
,
1001
0000
0000
1010
0000
0000
0011
0000
1100
0000
0000
1001
0000
0000
0110
0000
,
0001
0000
0010
0000
0001
0000
1000
0000
0100
0000
0010
0000
1000
0100
0000
0000
,
0011
0000
0000
0000
0100
0000
0001
0000
0010
0000
1000
0000
0100
1000
0000
0000
,
1010
0000
0000
0000
0100
0000
0001
0000
0010
0000
0001
0000
0100
0010
0000
0000
,
1010
0000
0000
0110
0000
0000
1001
0000
0101
0000
0000
0011
0000
0000
0110
0000
,
1001
0120
0000
0230
,
0000
0020
0300
0000
0000
0002
0030
0000
,
1003
0000
0100
1000
0001
0000
0010
0001
1000
0000
0001
0000
0100
0010
1000
0001
,
1000
0000
0010
1000
0100
0000
0001
0100
1000
0000
0100
0000
0010
1000
0001
1000
,
0100
0000
0010
0100
0001
0000
1000
0001
0010
0000
0100
0000
0001
0010
1000
0010
,
0100
0000
0001
0100
1000
0000
0010
0001
1000
0000
0010
0100
0001
1000
0000
0000
,
1001
0000
0000
0001
1000
0000
0100
1000
0010
0000
0100
0000
0001
1000
0010
1000
,
0100
0000
1000
0010
0001
0000
0100
1000
0010
0000
0001
0000
0100
0001
1000
0001
,
0010
0000
1000
0010
0100
0000
0001
0100
1000
0000
0100
0000
0010
0001
1000
0001
,
0100
0000
0001
1000
0001
1000
0100
0000
0000
0000
1000
0001
1000
0001
0010
0000
,
0100
0000
1000
0100
1000
0100
0000
1000
0010
0000
0001
0100
0001
0100
0000
0001
,
0010
0000
1000
0001
1000
0001
0000
1000
0100
0000
0001
0010
0001
0010
0000
0001
,
1000
0000
0010
1000
0010
1000
0000
0100
0001
0000
0010
0100
0010
0100
0000
0001
,
1000
0000
0100
0001
0100
0001
0000
1000
0100
0000
1000
0010
1000
0010
0000
0100
,
0001
0000
0010
0001
0010
0001
0000
1000
0100
0000
0001
1000
0001
1000
0000
0010
,
0100
0000
1000
0010
1000
0010
0000
0001
0100
0000
0001
1000
0001
1000
0000
0100
,
0001
0000
0010
0100
0010
0100
0000
0001
1000
0000
0100
0001
0100
0001
0000
1000
,
0100
0001
0000
0001
1000
0000
0100
0000
0001
0010
0000
0010
1000
0000
0000
0000
,
0001
0000
0010
0000
0001
0000
0100
1000
0000
0000
0010
0000
0100
0000
0001
1000
,
0000
0000
0010
0000
0100
0000
1000
0001
0000
0000
0010
0000
0001
0000
0100
1000
,
0000
0000
0010
0000
0100
0000
0001
1000
0000
0000
0010
0000
0100
0000
1000
0001
,
0000
0000
0100
0000
0001
0000
0010
1000
0000
0000
1000
0010
0100
0000
0000
0000
,
1001
0000
0000
0000
;

//---------------dance-single - ----------------
#NOTES:
     dance-single:
     :
     Hard:
     9:
     0.645,0.627,0.196,0.245,0.405:
0000
0000
0000
0000
,
0000
0000
0000
0000
,
0000
0000
0000
0000
,
1001
0000
0000
0100
0000
0010
1000
0000
0000
1000
0000
0001
,
0010
0000
0000
0010
0000
0001
0100
0000
0000
0100
0000
1000
,
0010
0000
0000
0010
0000
0100
0001
0000
0000
0001
0000
1000
,
0100
0000
0100
0010
1000
0000
1000
0001
,
0010
0000
0000
0000
0000
0000
0010
0000
0000
0000
0001
0000
1000
0000
0000
0000
0000
0000
1000
0000
0000
0010
0000
0000
,
0001
0000
0000
0000
0100
0000
1000
0000
0000
0000
1000
0000
0001
0000
0000
0000
0000
0000
0010
0000
0000
0100
0000
0000
,
1000
0000
0000
0000
0000
0000
0000
0000
0000
0000
0000
0000
1000
0000
0000
0000
0000
0000
0000
0000
0010
0000
0000
0000
0001
0000
0000
0000
0000
0000
0000
0000
0000
0000
0000
0000
0100
0000
0000
0000
0000
0000
0010
0000
0000
0100
0000
0000
,
2000
0001
3200
0000
,
0301
0000
1000
0000
0010
0000
1000
0001
0000
0000
0010
0000
0100
0000
0010
1000
,
0000
0000
0100
0000
0001
0000
0100
0010
0000
0000
0001
0000
1000
0000
0001
0100
,
0000
0000
0010
0000
1000
0000
0010
0001
0000
0000
1000
0000
0100
0000
1000
0001
,
0000
0000
0010
0000
0100
0000
0010
1000
0000
0000
0001
0000
0010
0000
0001
0100
,
0000
0000
1000
0000
0001
0000
1000
0010
0000
0000
0001
0000
0100
0000
0001
1000
,
0000
0000
0010
0000
0001
0000
0010
1000
0000
0000
0001
0000
1000
0000
0001
0010
,
0000
0000
1000
0000
0100
0000
1000
0010
0000
0000
0001
0000
0100
0000
0001
1000
,
0020
0100
0200
0330
,
0010
0000
0001
0000
0100
1000
0000
1000
0001
0000
0010
0000
0100
0001
0000
0001
,
1000
0000
0010
0000
0001
0100
0000
0100
0001
0000
0010
0000
1000
0001
0000
0001
,
1000
0000
0010
0000
0100
1000
0000
1000
0001
0000
0100
0000
0010
1000
0000
1000
,
0001
0000
0100
0000
0001
0010
0000
0010
1000
0000
0001
0000
1000
0000
0010
0000
,
0102
0000
0013
1000
0020
0000
0130
1000
,
0200
0000
0310
0001
2000
0000
3010
0100
,
0020
0000
0130
0001
2000
0000
3010
0001
,
0100
0000
1000
0000
0001
0100
0000
0100
0010
0000
1000
0000
0001
0000
0010
0000
,
2100
0000
3010
0001
0200
0000
1300
0010
,
0002
0000
0103
0010
2000
0000
3100
0001
,
0020
0000
0130
1000
0002
0000
0013
1000
,
0200
0000
0310
0001
2000
0000
3100
0001
,
0010
0000
1000
0000
0001
0100
0000
0100
0001
0000
1000
0000
0010
0001
0000
0001
,
0100
0000
0010
0000
1000
0100
0000
0100
1000
0000
0001
0000
1000
0010
0000
0010
,
0100
1000
0100
1000
0100
0001
0100
0001
,
0010
1000
0010
1000
0010
0001
0010
0001
,
0200
0000
0000
1000
0000
1000
0301
0000
,
0020
0000
0000
1000
0000
1000
0130
0000
,
0002
0000
0000
0010
0000
0010
1003
0000
,
0110
0000
0000
0001
0000
0000
0101
0000
1000
0000
0000
0011
0000
0000
0100
0000
,
2000
0000
0000
0010
0000
0100
3001
0000
,
0200
0000
0000
0001
0000
1000
0301
0000
,
0020
0000
0000
1000
0000
0001
1030
0000
,
1010
0000
0000
0001
0000
0000
0110
0000
1000
0000
0000
0011
0000
0000
0001
0000
,
0100
1000
0010
1000
0100
0001
1010
0000
,
1000
0010
0100
0001
1000
0010
0101
0000
,
0010
0001
0100
0010
1000
0100
1001
0000
,
0011
0000
0000
0100
0000
0000
1100
0000
0010
0000
0000
1001
0000
0000
0100
0000
,
1000
0010
0100
0001
0100
0010
1100
0000
,
0001
0100
0010
0001
1000
0010
0101
0000
,
1000
0100
1000
0010
0100
0001
1010
0000
,
1001
0000
0000
0010
0000
0000
1100
0000
0001
0000
0000
0101
0000
0000
1000
0000
,
0110
2001
0000
3200
,
0000
0020
0300
0000
0000
0032
0000
0000
,
0103
0000
1000
0000
0100
0000
0010
0100
0000
0000
1000
0010
0001
0000
0000
0001
,
1000
0000
0100
0000
1000
0000
0010
1000
0000
0000
0001
0010
1000
0000
0000
1000
,
0001
0000
0100
0000
0001
0000
0010
0001
0000
0000
0001
0100
1000
0000
0000
1000
,
0010
0000
0100
0000
0010
0000
1000
0010
0000
0000
0100
0010
0001
0000
0000
0000
,
1000
0000
0001
0000
1000
0000
0010
1000
0000
0000
0100
0001
0010
0000
0000
0010
,
0100
0000
1000
0000
0100
0000
0001
0100
0000
0000
0010
1000
0100
0000
0000
0100
,
0001
0000
1000
0000
0001
0000
0100
0001
0000
0000
0010
1000
0001
0000
0000
0001
,
0100
0000
1000
0010
1000
0000
0100
0000
0000
0000
0001
1000
0001
0000
0100
0000
,
0010
0000
1000
0001
1000
0000
0100
0000
1000
0000
0010
0001
0010
0000
0100
0000
,
1000
0000
0001
0100
0001
0000
1000
0000
0010
0000
0100
1000
0100
0000
0001
0000
,
0010
0000
1000
0100
1000
0000
0010
0000
0001
0000
1000
0010
1000
0000
0100
0000
,
0001
0000
0010
1000
0010
0000
0100
0000
1000
0000
0001
1000
0001
0000
0010
0000
,
0100
0000
0001
1000
0001
0000
0010
0000
0100
0000
1000
0010
1000
0000
0100
0000
,
0001
0000
0010
1000
0010
0000
0100
0000
0001
0000
1000
0001
1000
0000
0010
0000
,
0100
0000
0001
1000
0001
0000
0010
0000
0100
0000
1000
0010
1000
0000
0001
0000
,
0200
0000
0001
0000
0000
0020
0300
0000
,
1030
0000
0000
1000
0000
0100
0001
0000
0000
0001
0000
1000
,
0100
0000
0000
0100
0000
0010
1000
0000
0000
1000
0000
0001
,
0100
0000
0000
0100
0000
1000
0001
0000
0000
0001
0000
0010
,
0100
1000
0100
0001
1000
0010
0100
0000
,
1001
0000
0000
0000
;

//---------------dance-single - ----------------
#NOTES:
     dance-single:
     :
     Medium:
     6:
     0.429,0.388,0.074,0.221,0.151:
0000
0000
0000
0000
,
0000
0000
0000
0000
,
0000
0000
0000
0000
,
0001
0000
0000
0000
0001
0000
0000
0100
0000
0000
0000
0000
1000
0000
0000
1000
,
0000
0000
0000
0000
0010
0000
0000
0010
0000
0000
0000
0000
1000
0000
0000
1000
,
0000
0000
0000
0000
0100
0000
0000
0100
0000
0000
0000
0000
0010
0000
0000
0010
,
0000
0000
1000
0100
0001
0000
0001
0100
,
1000
0000
0000
1000
0000
0000
0100
0000
0001
0000
0000
0000
0010
0000
0100
0000
,
0010
0000
0001
1000
0001
0000
0100
0010
,
0100
0000
0000
0000
0001
0000
0000
0100
0000
0000
0000
0000
1000
0000
0001
0000
,
0200
0000
0020
0330
,
1001
0000
0000
0000
0001
0000
0000
0100
0000
0000
0000
0000
0010
0000
0000
1000
,
0000
0000
0000
0000
0100
0000
0000
1000
0000
0000
0000
0000
0100
0000
0000
0001
,
0000
0000
0000
0000
0010
0000
0000
0001
0000
0000
0000
0000
0100
0000
0000
0010
,
0000
0000
0100
0001
1000
0000
0100
1000
,
0001
0000
0000
0000
0100
0000
0000
0010
0000
0000
0000
0000
1000
0000
0000
0100
,
0000
0000
0000
0000
0001
0000
0000
0100
0000
0000
0000
0000
1000
0000
0000
0010
,
0000
0000
0000
0000
0100
0000
0000
1000
0000
0000
0000
0000
0010
0000
0001
0000
,
2000
0000
0002
3003
,
0110
0000
0100
1000
0010
0000
0010
0100
,
0001
0000
0001
0100
1000
0000
1000
0010
,
0100
0000
0100
1000
0001
0000
0001
0100
,
0010
0000
0010
1000
0100
0000
0100
0001
,
1000
0000
1000
0010
0100
0000
0100
1000
,
0001
0000
0001
0100
0010
0000
0010
0001
,
1000
0000
1000
0010
0100
0000
0100
1000
,
0020
0000
0200
0330
,
0002
0103
2000
3100
,
0020
0031
0200
1300
,
0002
0103
0020
0031
,
2000
3100
0020
1030
,
0100
0000
0000
0010
0000
0000
1000
0000
0100
0000
0000
0000
0100
0000
0001
0000
,
1000
0000
0100
0001
0100
0000
0020
0000
,
1000
1000
1000
1000
,
0001
0001
0001
0031
,
0200
0000
0000
0001
0000
0000
0301
0000
,
0020
0000
0000
1000
0000
0000
1030
0000
,
0200
0000
0000
0010
0000
0000
0310
0000
,
0100
0000
0000
0010
0000
0000
1000
0000
0010
0000
0000
0001
0000
0000
0100
0000
,
2000
0000
0000
0001
0000
0000
3010
0000
,
0200
0000
0000
1000
0000
0000
0301
0000
,
0020
0000
0000
0100
0000
0000
0031
0000
,
0100
0000
0000
1000
0000
0000
0100
0000
0010
0000
0000
0100
0000
0000
1000
0000
,
0001
0000
0100
0001
0000
1000
0010
0000
,
1001
0000
0100
1000
0000
0100
0001
0000
,
1100
0000
0100
0001
0000
0010
0001
0000
,
1000
0000
0000
0010
0000
0000
0100
0000
1000
0000
0000
0010
0000
0000
0100
0000
,
0001
0000
0100
0001
0000
0010
1000
0000
,
0011
0000
0100
1000
0000
0010
0001
0000
,
0110
0000
0100
1000
0000
0100
0001
0000
,
0001
0000
0000
0100
0000
0000
0010
0000
1000
0000
0000
0100
0000
0000
0001
0000
,
0100
0000
0000
0000
1001
0000
0000
0000
0000
0000
0000
0220
0000
0000
0000
0000
,
0000
0300
0000
0000
0000
0030
0000
0000
,
0100
0000
0001
0000
0100
0000
0000
1000
0000
0000
0000
0000
0100
0000
0010
0000
,
1000
0000
0100
0001
1000
0000
1000
0010
,
0100
0000
0100
0001
0010
0000
0010
0100
,
0001
0000
0001
0100
1000
0000
1000
0000
,
0100
0000
1000
0000
0100
0000
0000
0001
0000
0000
0000
0000
1000
0000
0001
0000
,
0100
0000
0100
1000
0010
0000
0100
0001
,
1000
0000
1000
0100
0010
0000
0100
1000
,
0002
0000
2000
3003
,
0000
0100
0001
1000
0000
1000
0100
0001
,
0000
0010
0100
0010
0000
1000
0010
0100
,
0000
0100
0001
1000
0000
1000
0010
0001
,
0000
0100
1000
0001
0000
1000
0010
0100
,
0001
0010
1000
0100
0000
0001
1000
0001
,
0000
0100
0010
1000
0000
1000
0010
0100
,
0000
0100
0001
1000
0000
1000
0010
0100
,
0020
0000
0200
0330
,
0001
0000
0000
0000
1000
0000
0000
0001
0000
0000
0000
0000
0010
0000
0000
0100
,
0000
0000
0000
0000
1000
0000
0000
0010
0000
0000
0000
0000
0100
0000
0000
0001
,
0000
0000
0000
0000
0010
0000
0000
1000
0000
0000
0000
0000
0100
0000
0000
1000
,
0000
0000
0010
0001
1000
0010
0100
0000
,
1001
0000
0000
0000
;

//---------------dance-single - ----------------
#NOTES:
     dance-single:
     :
     Beginner:
     1:
     0.099,0.179,0.074,0.000,0.000: // measure 1
0000
0000
0000
0000
,  // measure 2
0000
0000
0000
0000
,  // measure 3
0000
0000
0000
0000
,  // measure 4
0001
0000
0000
0000
,  // measure 5
1000
0000
0000
0000
,  // measure 6
0001
0000
0000
0000
,  // measure 7
1000
0000
0000
0000
,  // measure 8
0010
0000
0000
0000
,  // measure 9
0100
0000
0000
0000
,  // measure 10
0010
0000
0000
0000
,  // measure 11
0110
0000
0000
0000
,  // measure 12
1000
0000
0000
0000
,  // measure 13
1000
0000
0000
0000
,  // measure 14
0001
0000
0000
0000
,  // measure 15
0001
0000
0000
0000
,  // measure 16
1001
0000
0000
0000
,  // measure 17
0100
0000
0000
0000
,  // measure 18
0100
0000
0000
0000
,  // measure 19
1001
0000
0000
0000
,  // measure 20
0010
0000
0000
0000
,  // measure 21
0100
0000
0000
0000
,  // measure 22
0010
0000
0000
0000
,  // measure 23
1000
0000
0000
0000
,  // measure 24
1001
0000
0000
0000
,  // measure 25
0001
0000
0000
0000
,  // measure 26
0100
0000
0000
0000
,  // measure 27
0001
0000
0000
0000
,  // measure 28
0100
0000
0000
0000
,  // measure 29
0010
0000
0000
0000
,  // measure 30
1000
0000
0000
0000
,  // measure 31
0001
0000
0000
0000
,  // measure 32
0100
0000
0000
0000
,  // measure 33
0010
0000
0000
0000
,  // measure 34
1000
0000
0001
0000
,  // measure 35
1000
0000
0010
0000
,  // measure 36
0110
0000
0000
0000
,  // measure 37
1001
0000
0000
0000
,  // measure 38
0110
0000
0000
0000
,  // measure 39
0001
0000
1000
0000
,  // measure 40
0100
0000
0000
0000
,  // measure 41
0010
0000
0000
0000
,  // measure 42
1000
0000
0000
0000
,  // measure 43
0100
0000
0001
0000
,  // measure 44
0010
0000
0000
0000
,  // measure 45
1000
0000
0000
0000
,  // measure 46
0100
0000
0000
0000
,  // measure 47
1000
0000
0010
0000
,  // measure 48
0100
0000
0000
0000
,  // measure 49
0001
0000
0000
0000
,  // measure 50
0100
0000
0000
0000
,  // measure 51
0010
0000
1000
0000
,  // measure 52
0110
0000
0000
0000
,  // measure 53
0000
0000
0000
0000
,  // measure 54
0001
0000
0000
0000
,  // measure 55
0100
0000
0000
0000
,  // measure 56
0100
0000
0000
0000
,  // measure 57
0100
0000
0000
0000
,  // measure 58
1000
0000
0000
0000
,  // measure 59
0100
0000
0000
0000
,  // measure 60
0100
0000
0000
0000
,  // measure 61
0010
0000
0000
0000
,  // measure 62
0001
0000
0000
0000
,  // measure 63
1000
0000
0000
0000
,  // measure 64
0001
0000
0000
0000
,  // measure 65
0100
0000
0000
0000
,  // measure 66
0001
0000
0000
0000
,  // measure 67
0010
0000
0000
0000
,  // measure 68
1000
0000
0000
0000
,  // measure 69
0010
0000
0000
0000
,  // measure 70
1000
0000
0000
0000
,  // measure 71
0001
0000
0000
0000
,  // measure 72
0100
0000
0000
0000
,  // measure 73
0010
0000
0000
0000
,  // measure 74
1001
0000
0000
0000
;

//---------------dance-single - ----------------
#NOTES:
     dance-single:
     :
     Easy:
     3:
     0.222,0.298,0.074,0.139,0.000:
0000
0000
0000
0000
,
0000
0000
0000
0000
,
0000
0000
0000
0000
,
0001
0000
0001
0000
,
1000
0000
1000
0000
,
0001
0000
0001
0000
,
0010
0000
0010
0000
,
0100
0000
0100
0000
,
0010
0000
0010
0000
,
1000
0000
1000
0000
,
0220
0000
0330
0000
,
1000
0000
0010
0000
,
1000
0000
0010
0000
,
0001
0000
0100
0000
,
0001
0000
0100
0000
,
1001
0000
0010
0000
,
0100
0000
0010
0000
,
0100
0000
0001
0000
,
2002
0000
3003
0000
,
0010
0010
0001
0001
,
0100
0100
1000
1000
,
0010
0010
0100
0100
,
1000
1000
0100
0100
,
1001
0100
0100
0001
,
0001
0010
0010
0100
,
0100
1000
1000
0001
,
2002
0000
0000
3003
,
0100
0000
0001
0000
,
0010
0000
0100
0000
,
1000
0000
0100
0000
,
0001
0000
0010
0000
,
0200
0000
0000
0300
,
0020
0000
0000
0030
,
1000
0100
0001
0100
,
1000
0100
0010
1000
,
0200
0000
0000
0300
,
0002
0000
0000
0003
,
2000
0000
0000
3000
,
0001
0000
1000
0000
,
0200
0000
0000
0300
,
0020
0000
0000
0030
,
2000
0000
0000
3000
,
0100
0000
0001
0000
,
0010
0001
0100
0000
,
1000
0010
0001
0000
,
0100
1000
0010
0000
,
1000
0000
0010
0000
,
0100
0001
1000
0000
,
0001
0100
0010
0000
,
0100
0001
1000
0000
,
0010
0000
1000
0000
,
0110
0000
0000
0000
,
1001
0000
0000
0000
,
0001
0100
0010
0001
,
0100
0010
1000
1000
,
0100
0001
0010
1000
,
0100
0010
0001
0100
,
1000
0001
0010
1000
,
0100
0010
1000
0001
,
0100
1000
0001
0100
,
0020
0000
0000
0030
,
0001
0000
0100
0000
,
1000
0000
0010
0000
,
0001
0000
1000
0000
,
0100
0000
0010
0000
,
0001
0000
1000
0000
,
0010
0000
0001
0000
,
1000
0000
0010
0000
,
0220
0000
0000
0330
,
1000
0000
1000
0000
,
0001
0000
0001
0000
,
0100
0000
0100
0000
,
0010
0000
0010
0000
,
1001
0000
0000
0000
;
