#TITLE:Treetop Rock;
#SUBTITLE:;
#ARTIST:David Wise;
#TITLETRANSLIT:;
#SUBTITLETRANSLIT:;
#ARTISTTRANSLIT:;
#CREDIT:;
#BANNER:Treetop Rock.PNG;
#BACKGROUND:Treetop Rock-bg.png;
#LYRICSPATH:;
#CDTITLE:;
#MUSIC:Treetop Rock.mp3;
#OFFSET:0.000;
#SAMPLESTART:70.220;
#SAMPLELENGTH:16.800;
#SELECTABLE:YES;
#BPMS:0.000=102.300;
#STOPS:;
#BGCHANGES:;

//---------------dance-single - ----------------
#NOTES:
     dance-single:
     :
     Edit:
     10:
     0.602,0.636,0.204,0.034,1.000:
0000
0000
0000
0000
,
0000
0000
0000
0000
,
0000
0000
0000
0000
,
0000
0000
0000
0000
,
2100
0000
0000
0000
0000
0000
0010
0000
3000
0000
0001
0000
0100
0000
1000
0000
0000
0000
0010
0000
0000
0000
0000
0010
0100
0000
0001
0000
0000
0000
0100
0000
,
1000
0100
1000
0010
1000
0001
1000
0100
,
0010
0000
0001
0000
0010
0000
1000
0000
0010
0100
0000
0001
0010
0100
1000
0000
,
0011
1000
0001
1000
0001
1000
0001
1000
0001
0000
0100
0010
0100
0010
0001
0100
,
0010
0001
1000
0100
0010
0100
1000
0001
0010
0100
1000
0100
0010
0001
0100
1000
,
0000
0010
0001
0100
0000
1000
0001
1000
0100
0010
0001
0000
0100
0010
0001
1000
,
0000
0010
1000
0001
0000
0100
1000
0100
0000
0001
0010
1000
0000
0100
0010
0001
,
0000
0010
1000
0100
0000
0001
0100
0001
0000
1000
0010
1000
0000
0100
0010
1000
,
0001
0000
0000
0000
0000
0000
0000
0000
0000
0000
0000
0000
0000
0000
0000
0000
0000
0000
0000
0000
0000
0000
0000
0000
0000
0000
0000
0000
0000
0000
0000
0000
0000
0000
0000
0000
0001
0000
0000
0000
0000
0000
0000
0000
0000
0000
0000
0000
0100
0000
0000
0000
0000
0000
0000
0000
0000
0000
0000
0000
0000
0000
0000
0000
0000
0000
0000
0000
0000
0000
0000
0000
0000
0000
0000
0000
0000
0000
0000
0000
0000
0000
0000
0000
1000
0000
0000
0000
0000
0000
0010
0000
0000
0000
0000
0000
0000
0000
0000
0000
0000
0000
0000
0000
0000
0000
0000
0000
0000
0000
0000
0000
1000
0000
0000
0000
0000
0000
0000
0000
0100
0000
0000
0000
0000
0000
0000
0000
0000
0000
0000
0000
0000
0000
0000
0000
0000
0000
0000
0000
0000
0000
0000
0000
1000
0000
0000
0000
0000
0000
0000
0000
0000
0000
0000
0000
0000
0000
0000
0000
0000
0000
0000
0000
0000
0000
0000
0000
0000
0000
0000
0000
0000
0000
0000
0000
0000
0000
0000
0000
0100
0000
0000
0000
0000
0000
0000
0000
0000
0000
0000
0000
,
0001
0000
0000
0000
0000
0000
0000
0000
0000
0001
0000
0000
1000
0000
0000
0000
0000
0000
0000
0000
0000
0100
0000
0000
0010
0000
0000
0000
0000
0000
1000
0000
0000
0100
0000
0000
0000
0000
0000
0010
0100
0000
0000
0000
0000
0001
0000
0000
,
1000
0000
0000
0000
0000
0000
0000
0000
0000
1000
0000
0000
0100
0000
0000
0000
0000
0000
0000
0000
1000
0010
0000
0000
0100
0000
0000
0001
0000
0000
0100
0000
0000
0000
0000
0000
1010
0000
0000
0000
0000
0000
0000
0000
0000
0001
0000
0000
,
0100
0000
0010
0000
1000
0000
0000
0010
0100
1000
0000
0001
0000
0000
0000
0100
,
0001
0010
0100
0010
1000
0100
1000
0001
0010
0100
0000
1001
0000
0000
0000
0010
,
1000
0100
0001
0010
0100
1000
0001
0010
1000
0100
0000
1100
0000
0000
0000
0000
,
0100
1000
0010
0001
0010
0100
1000
0100
0001
0010
0000
0011
0000
0000
0000
0100
,
1000
0010
0001
1000
0100
1000
0010
0100
0001
0010
0100
1000
0000
0000
0000
0100
,
0001
0100
0001
1000
0001
0010
0001
1000
,
0100
0000
0001
0000
0100
0000
0010
0000
0100
1000
0000
0010
0001
0100
0010
1000
,
0000
0100
0010
0001
0000
0010
0100
1000
0000
0001
0100
0001
0000
1000
0010
1000
,
0000
0100
0001
0100
0000
1000
0010
0100
0000
0001
1000
0100
0000
0010
0100
0001
,
1000
0100
0000
1000
0000
0100
0000
1000
0001
0010
0100
1000
0000
0100
0000
0001
,
0010
0100
0000
0010
0000
0100
1000
0100
0010
0000
0000
0000
1001
0000
0000
0010
,
0100
1000
0000
0001
0000
0001
0000
1000
0010
0100
0000
1000
0000
1000
0000
0001
,
0010
0000
0110
0000
0000
1000
0000
0001
0100
0010
0000
1001
0000
1001
0000
0010
,
0100
0001
0000
1100
0000
1100
0000
0010
0100
0010
0000
1001
0000
1001
0000
0010
,
0100
0010
0000
0101
0000
0101
0000
1000
0010
1000
0000
1010
0000
1010
0000
0100
,
0001
0000
0000
0001
0100
0000
1000
0100
1000
0010
0001
0000
1100
0000
0000
0001
,
0100
0000
1000
0000
0001
0000
0000
0100
0010
0001
0000
1000
0000
0000
0000
0000
,
0110
1000
0001
1000
0001
1000
0001
1000
0001
0100
0010
1000
0100
0001
1000
0010
,
0100
0001
0010
1000
0100
0001
1000
0100
0010
1000
0000
1100
0000
1000
0000
0001
,
0100
0000
0010
1000
0000
0100
1000
0001
0010
0100
0001
0000
0100
0000
0000
1000
,
0100
0010
1000
0000
0010
0000
0100
0001
1000
0000
0010
0100
0000
0000
0000
0000
,
0001
0010
0001
0100
1000
0100
0000
0000
0000
0000
0000
0010
0100
1000
0001
0100
,
0000
0001
0010
0001
0000
1000
0100
1000
0000
0100
0010
0001
0000
0100
1000
0000
,
0012
0000
0000
0000
0000
0000
0100
0000
0003
0000
1000
0000
0010
0000
0001
0000
0000
0000
0100
0000
0000
0000
0000
0100
0010
0000
1000
0000
0000
0000
0010
0000
,
0001
0010
0001
0100
0001
1000
0001
0010
,
0100
0000
1000
0000
0100
0000
0001
0000
0100
0010
0000
1000
0100
0010
0001
0000
,
1100
0001
1000
0001
1000
0001
1000
0001
1000
0000
0010
0100
0010
0100
1000
0010
,
0100
1000
0001
0010
0100
0010
0001
1000
0100
0010
0001
0010
0100
1000
0010
0001
,
0000
0100
1000
0010
0000
0001
1000
0001
0010
0100
1000
0000
0010
0100
1000
0001
,
0000
0100
0001
1000
0000
0010
0001
0010
0000
1000
0100
0001
0000
0010
0100
1000
,
0000
0100
0001
0010
0000
1000
0010
1000
0000
0001
0100
0001
0000
0010
0100
0000
,
2002
0000
0000
3003
;

//---------------dance-single - ----------------
#NOTES:
     dance-single:
     :
     Medium:
     5:
     0.343,0.318,0.153,0.060,0.179: // measure 1
0000
0000
0000
0000
,  // measure 2
0000
0000
0000
0000
,  // measure 3
0000
0000
0000
0000
,  // measure 4
0000
0000
0000
0000
,  // measure 5
0102
0000
1003
0000
0000
0001
1000
0000
,  // measure 6
0001
0100
0001
1000
0001
0010
0001
0000
,  // measure 7
0100
0000
0001
0000
0100
0000
1000
0000
0100
0010
0000
0000
1001
0000
0000
0000
,  // measure 8
1002
0000
0000
0000
0003
1000
0100
1000
,  // measure 9
0010
0000
0001
0010
0100
1000
0100
0001
,  // measure 10
0010
0000
0000
1000
0010
0100
0010
0001
,  // measure 11
0000
1000
0100
0001
0000
1000
0010
0100
,  // measure 12
0001
0010
1000
0100
0000
0001
1000
0010
,  // measure 13
0100
0000
1001
0000
1000
0100
1000
0000
,  // measure 14
0100
0000
1001
0000
0001
0100
0001
1000
,  // measure 15
0100
0000
0110
0000
0001
1000
0100
0000
,  // measure 16
0001
0000
0100
0000
0010
0000
0000
0000
0100
0010
0000
1000
0000
0000
0000
0000
,  // measure 17
0001
0000
0010
0000
0001
0000
0100
0000
1000
0000
0000
1001
0000
0000
0000
0000
,  // measure 18
1000
0000
0010
0000
1000
0000
0100
0000
0001
0000
0000
1001
0000
0000
0000
0000
,  // measure 19
0010
0000
1000
0000
0100
0000
0001
0000
1000
0000
0000
1100
0000
0000
0000
0000
,  // measure 20
0100
0000
0001
0000
1000
0000
0010
0000
0100
0000
0000
0101
0000
0000
0000
0000
,  // measure 21
1000
0001
1000
0010
1000
0100
1000
0000
,  // measure 22
0010
0100
0010
0001
0010
0000
0001
1000
,  // measure 23
0000
0001
0100
1000
0000
0010
0100
0001
,  // measure 24
1000
0100
0001
0010
0000
0100
1000
0001
,  // measure 25
1000
0000
0000
0010
0000
0100
0000
0000
0001
1000
0001
0000
0000
0100
0000
0000
,  // measure 26
0000
0001
0000
0100
0000
0000
1000
0001
1000
0000
0000
0000
0110
0000
0000
0000
,  // measure 27
0001
0000
0000
0010
0000
0100
0000
0001
0000
1000
0000
0100
0000
0010
0000
0000
,  // measure 28
0001
0000
0001
0000
0000
0100
0000
1000
0000
0100
0000
0001
0000
0010
0000
0000
,  // measure 29
0000
0100
0000
0010
0000
0100
0000
0001
0000
1000
0000
0010
0000
0100
0000
0000
,  // measure 30
0000
0010
0000
1000
0000
0100
0000
0001
0000
0010
0000
1000
0000
0100
0000
0000
,  // measure 31
0110
0000
1000
0100
0001
0010
0100
0000
,  // measure 32
0001
0000
0100
0000
0010
0000
0000
0000
1000
0100
0000
1000
0000
0000
0000
0000
,  // measure 33
2001
0000
0000
0000
3000
0001
0100
0010
,  // measure 34
1000
0100
0001
0010
0100
1000
0001
0000
,  // measure 35
0110
0000
0000
0100
0001
0010
1000
0100
,  // measure 36
0001
0010
1000
0100
0001
0010
0000
0000
,  // measure 37
1000
0100
1000
0000
0000
0010
0001
0100
,  // measure 38
0000
0001
0100
1000
0000
0010
0100
0001
,  // measure 39
2010
0000
3001
0000
0000
1000
0001
0000
,  // measure 40
1000
0010
1000
0001
1000
0100
1000
0000
,  // measure 41
0010
0000
1000
0000
0010
0000
0001
0000
0010
0100
0000
0000
1001
0000
0000
0000
,  // measure 42
2001
0000
0000
0000
3000
0001
0010
0001
,  // measure 43
0100
0000
1000
0100
0010
0001
0010
1000
,  // measure 44
0100
0000
0000
0001
0100
0010
0100
1000
,  // measure 45
0000
0001
0010
1000
0000
0001
0100
0010
,  // measure 46
1000
0100
0001
0010
0000
1000
0001
0000
,  // measure 47
2002
0000
0000
3003
;

//---------------dance-single - ----------------
#NOTES:
     dance-single:
     :
     Easy:
     2:
     0.198,0.219,0.128,0.128,0.000:
0000
0000
0000
0000
,
0000
0000
0000
0000
,
0000
0000
0000
0000
,
0000
0000
0000
0000
,
0001
0001
0100
0001
,
1000
0100
1000
0010
,
0100
0010
0100
0001
,
2002
0000
3003
0010
,
0100
0001
1000
0010
,
0100
0000
1001
1001
,
0000
0001
0000
1000
0000
0010
0000
0100
,
0000
1000
0000
0100
0000
0010
0000
0100
,
0000
1000
0001
1000
,
0001
0100
0010
0000
,
1001
0110
0001
0100
,
1000
0100
1000
0010
,
0002
0000
0000
0000
0000
0000
0000
0000
0000
0000
0000
0003
0000
0000
0000
0000
,
2000
0000
0000
0000
0000
0000
0000
0000
0000
0000
0000
3000
0000
0000
0000
0000
,
0020
0000
0000
0000
0000
0000
0000
0000
0000
0000
0000
0030
0000
0000
0000
0000
,
0200
0000
0000
0000
0000
0000
0000
0000
0000
0000
0000
0300
0000
0000
0000
0000
,
0001
0100
1000
0100
,
0001
0010
0100
1000
,
0000
0100
0000
0001
0000
0100
0000
1000
,
0000
0010
0000
0100
0000
0001
0000
0000
,
1001
0000
0110
0000
,
0100
0000
1001
1001
,
0000
0001
0000
0001
0000
0100
0000
0000
,
0200
0300
0000
0000
0100
0000
1000
0000
,
0100
0000
0000
0001
0000
1000
0000
0100
,
0000
0010
0000
0100
0000
0000
0001
0000
,
1000
0100
1000
0100
,
0010
0100
1001
0000
,
2002
0000
3003
0010
,
0100
1000
0001
0010
,
0100
0000
0001
1000
,
0100
0010
0100
0001
,
2000
0000
3000
0000
0000
0002
0000
0003
,
0000
0000
0000
1000
0000
0010
0000
0000
,
1000
1000
0010
1000
,
0001
0010
0001
0100
,
0010
0100
0010
1000
,
2002
0000
3003
0100
,
0010
1000
0001
0100
,
0010
0000
1001
1001
,
0000
1000
0000
0001
0000
0100
0000
0010
,
0000
0001
0000
0010
0000
0100
0000
0000
,
2002
0000
0000
3003
;

//---------------dance-single - ----------------
#NOTES:
     dance-single:
     :
     Hard:
     8:
     0.430,0.418,0.111,0.060,0.400:
0000
0000
0000
0000
,
0000
0000
0000
0000
,
0000
0000
0000
0000
,
0000
0000
0000
0000
,
0210
0000
0000
0300
0000
0000
0100
0000
0010
0001
0000
1000
0001
0000
0000
0010
,
0001
0100
0001
0010
0100
1000
0100
0001
,
1000
0000
0010
0000
1000
0000
0100
0000
0001
1000
0000
1000
0010
0000
0100
0000
,
2001
0000
0000
0000
0001
0000
0000
0000
0001
0000
0000
0000
3001
0000
0000
0100
0000
0000
0001
0000
0000
0010
0000
0000
,
0100
0001
0100
1000
0010
0100
0001
0100
,
0110
0000
0000
0000
0100
0000
0001
0000
0100
0000
1000
0000
0100
0000
0010
0100
,
0000
0001
0100
0001
0001
0010
1000
0010
,
0010
1000
0100
1000
1000
0100
0001
0100
,
0100
0000
0010
0000
1000
0000
0000
1000
0001
0000
1000
0000
0001
0000
0000
0001
,
0100
0000
0000
0100
0010
0000
1000
0000
0100
0000
0010
0100
0000
0010
0000
1000
,
0010
0000
0010
0000
0100
0000
0000
0010
0001
0000
0001
0000
0100
0000
0000
0010
,
1000
0000
0100
0000
0001
0000
0000
0001
0100
0010
0000
0100
0000
0000
0000
0100
,
0010
0000
0001
0000
0100
0000
1000
0000
0010
0000
0000
0110
0000
0000
0000
0000
,
0100
0000
0001
0000
0100
0000
1000
0000
0010
0000
0000
0101
0000
0000
0000
0000
,
0001
0000
0100
0000
1000
0000
0100
0000
0010
0000
0000
1001
0000
0000
0000
0001
,
0100
0000
0001
0000
0100
0000
0010
0000
1000
0001
1000
0100
0000
0000
0000
0010
,
1000
0100
1000
0010
0100
0001
0100
0010
,
0001
0000
1000
0000
0001
0000
0100
0000
0010
1000
0000
0010
0100
0000
0001
0000
,
0001
1000
0001
1000
1000
0100
0010
0100
,
0100
0001
0010
0001
0001
1000
0010
1000
,
1000
0010
0000
1000
0000
0010
0000
0010
1000
0100
1000
0000
1000
0000
0010
0000
,
0100
0010
0000
0100
0000
0001
0010
0001
0010
0000
0100
0000
1001
0000
0000
0001
,
0000
0100
0000
0001
0000
0100
0000
1000
0000
0010
0000
1000
0000
1000
0000
0100
,
0010
0000
0100
0000
0000
0100
0000
0001
0000
0100
0000
0010
0000
0100
0000
0010
,
0000
1000
0000
0001
0000
1000
0000
0100
0000
0001
0000
0100
0000
0010
0000
0001
,
0000
0010
0000
1000
0000
0100
0000
0010
0000
0100
0000
1000
0000
0010
0000
0100
,
0010
0000
0100
0000
0010
0000
0000
0010
0100
0000
1000
0000
0100
0000
0000
0001
,
0100
0000
0100
0000
1000
0000
0000
1000
0010
0000
0000
1001
0000
0000
0000
0000
,
1002
0000
0000
0000
1000
0000
0000
0000
1000
0000
0000
0000
1003
0000
0000
0010
0000
0000
1000
0000
0000
0100
0000
0000
,
0001
0000
1000
0000
0001
0000
0100
0000
0010
0100
0000
0010
0000
0100
0000
0010
,
1000
0000
0100
0000
1000
0000
0000
0010
0100
0000
0001
0000
0100
0000
0000
0010
,
0100
0000
1000
0000
0010
0000
0010
0000
0100
0000
0001
0100
0000
0000
0010
0000
,
0100
0010
1000
0000
1000
0001
0000
0000
0001
0000
0000
0001
1000
0000
1000
0100
,
0000
0100
0010
0100
0100
0001
1000
0001
,
2001
0000
0000
3000
0000
0000
0010
0000
0001
1000
0000
0001
0010
0000
0000
0100
,
0010
0001
0010
0100
1000
0100
1000
0001
,
0100
0000
0001
0000
0010
0000
0100
0000
0001
0100
0000
0100
0001
0000
0010
0000
,
1200
0000
0000
0000
0010
0000
0000
0000
0010
0000
0000
0000
0310
0000
0000
0100
0000
0000
0001
0000
0000
0100
0000
0000
,
1000
0010
1000
0100
0001
0010
0100
0010
,
1001
0000
0000
0000
0001
0000
0100
0000
0001
0000
1000
0000
0001
0000
0100
0001
,
0000
0001
0100
0001
0001
0010
0100
0010
,
0010
0100
0001
0100
0100
1000
0001
1000
,
2002
0000
0000
3003
;
