#TITLE:Around The Galaxy;
#SUBTITLE:;
#ARTIST:NISH;
#TITLETRANSLIT:;
#SUBTITLETRANSLIT:;
#ARTISTTRANSLIT:;
#CREDIT:;
#BANNER:Around The Galaxy.PNG;
#BACKGROUND:Around The Galaxy-bg.jpg;
#LYRICSPATH:;
#CDTITLE:;
#MUSIC:Around The Galaxy.mp3;
#OFFSET:-0.860;
#SAMPLESTART:108.480;
#SAMPLELENGTH:13.200;
#SELECTABLE:YES;
#BPMS:0.000=145.000;
#STOPS:;
#BGCHANGES:;

//---------------dance-single - ----------------
#NOTES:
     dance-single:
     :
     Hard:
     9:
     0.554,0.592,0.104,0.188,0.431:
0000
0000
0000
0000
,
0000
0000
0000
0000
,
0000
0000
0000
0000
,
0000
0000
0000
0000
,
0001
0000
0100
0000
0001
0010
0000
1000
0000
0000
0100
0001
0000
0000
0001
0000
,
1000
0000
0010
0000
1000
0100
0000
0001
0000
0000
0010
1000
0000
0000
0100
0000
,
0010
0000
1000
0000
0010
0100
0000
0001
0000
0000
0100
1000
0000
0000
0010
0000
,
0100
0000
0001
0000
0100
1000
0000
0010
0000
0000
0100
0000
1001
0000
0000
0000
,
0010
0000
0001
0100
0000
0000
0010
0000
1000
0000
0100
0000
1000
0000
0010
0000
,
0001
0000
1000
0000
0001
0100
0000
0000
0010
0000
0001
0000
0100
0000
1000
0000
,
0001
0000
1000
0100
0000
0000
0010
0000
0001
0000
1000
0000
0100
0000
0001
0000
,
0010
0000
1000
0000
0010
0100
0000
0000
0001
0000
0100
0000
1000
0000
0010
0000
,
0100
0000
0001
1000
0000
0000
0100
0000
0001
0000
0100
0000
0010
0000
0001
0000
,
1000
0000
0001
0000
1000
0100
0000
0000
0001
0000
0100
0000
1000
0000
0001
0000
,
0010
0000
0100
0001
0000
0000
1000
0000
0010
0000
1000
0000
0001
0000
0010
0000
,
0100
0000
0001
0000
0100
1000
0000
0000
0010
0000
0001
0000
0100
0000
0001
0000
,
1000
0000
0010
2000
0000
0000
0001
0000
3001
0000
0000
0000
1000
0000
0010
0000
,
0100
0000
0010
0000
0100
1000
0000
0000
0001
0000
0100
0000
0001
0000
0100
0000
,
0010
0000
0001
0020
0000
0000
0100
0000
0130
0000
0000
0000
1000
0000
0010
0000
,
0001
0000
1000
0000
0001
0100
0000
0000
0100
0000
0010
0000
1000
0000
0010
0000
,
0001
0000
1000
0002
0000
0000
0010
0000
0013
0000
0000
0000
0100
0000
0010
0000
,
1000
0000
0010
0000
1000
0100
0000
0000
0001
0000
0100
0000
0001
0000
0010
0000
,
0210
0000
0000
0000
1000
0000
0000
1000
0000
0000
0000
0000
0001
0000
0000
0001
,
0000
0000
0000
0000
0010
0000
0000
0010
0300
0000
0000
0000
0110
0000
0000
0000
,
1000
0000
0010
0000
0002
0000
0000
0103
0000
0000
0010
0000
2000
0000
0000
3100
,
0000
0000
0001
0000
0020
0000
0000
0130
0000
0000
1000
0000
0100
0000
0001
0000
,
1000
0000
0010
0000
0200
0000
0000
1300
0000
0000
0010
0000
0200
0000
0000
0301
,
0000
0000
1000
0000
0020
0000
0000
1030
0000
0000
0100
0000
0001
0000
0010
0000
,
1000
0000
0100
0000
0002
0000
0000
0013
0000
0000
1000
0000
0200
0000
0000
1300
,
0000
0000
0001
0000
0020
0000
0000
0130
0000
0000
1000
0000
0100
0000
0001
0000
,
0010
0000
0100
0000
2000
0000
0000
3100
0000
0000
0010
0000
0002
0000
0000
0103
,
0000
0000
1000
0000
0020
0000
0000
1030
0000
0000
0001
0000
0100
0000
1000
0000
,
0201
0000
0000
0000
1000
0000
0000
1000
0000
0000
0000
0000
0010
0000
0000
0010
,
0000
0000
0000
0000
0001
0000
0000
0001
0300
0000
0010
0000
0100
0000
0001
0000
,
2010
0000
0000
0000
0100
0000
0000
0100
0000
0000
0000
0000
0001
0000
0000
0001
,
0000
0000
0000
0000
0010
0000
0000
0010
3000
0000
0100
0000
0001
0000
0010
0000
,
0102
0000
0000
0000
1000
0000
0000
1000
0000
0000
0000
0000
0100
0000
0000
0100
,
0000
0000
0000
0000
0010
0000
0000
0010
0003
0000
0100
0000
0001
0000
1000
0000
,
1020
0000
0000
0000
0001
0000
0000
0001
0000
0000
0000
0000
0100
0000
0000
0000
,
0200
0000
0000
0330
,
0001
0100
0001
0010
0000
0010
0100
1000
,
0100
0010
0100
0001
0000
0001
0010
0100
,
1000
0001
1000
0100
0000
0100
0010
0100
,
0001
0000
0010
0000
1000
0000
0000
0000
0010
0000
0000
0100
0000
0000
1000
0000
,
0001
0010
0001
0100
0000
0100
1000
0010
,
0100
0001
0100
0010
0000
0010
0100
0001
,
1000
0010
1000
0100
0000
0100
0001
0010
,
0100
0001
0100
1000
0000
1000
0010
0000
,
0201
0000
0000
0000
0000
0000
0000
0001
0000
0001
0000
0000
0000
0000
0000
1000
,
0000
1000
0000
0000
0000
0000
0000
0010
0000
0010
0000
0000
0000
0000
0000
0020
,
0300
0000
0000
0000
0000
0000
0000
1000
0000
1000
0000
0000
0000
0000
0000
0001
,
0000
0001
0000
0000
0000
0000
0000
0100
0000
0100
0000
0000
0000
0000
0000
2000
,
0030
0000
0000
0000
0000
0000
0000
0010
0000
0010
0000
0000
0000
0000
0000
0001
,
0000
0001
0000
0000
0000
0000
0000
0100
0000
0100
0000
0000
0000
0000
0000
0002
,
3000
0000
0000
0000
0000
0000
0000
0010
0000
0010
0000
0000
0003
0000
0000
0000
,
1001
0000
0000
0000
,
0000
0000
0000
0000
,
1000
0010
1000
0000
0001
0000
0100
0000
0010
1000
0010
0000
0001
0000
0100
0000
,
1000
0001
1000
0000
0100
0000
0010
0000
0001
1000
0001
0000
0100
0000
0010
0000
,
1000
0100
1000
0000
0001
0000
0010
0000
0100
0001
0100
0000
1000
0000
0010
0000
,
0001
0100
0001
0000
1000
0000
0010
0000
0100
1000
0100
0000
0010
0000
0001
0000
,
1000
0010
1000
0000
0100
0000
0001
0000
0010
1000
0010
0000
0001
0000
1000
0000
,
0100
0001
0100
0000
0010
0000
1000
0000
0001
0100
0001
0000
0010
0000
0100
0000
,
1000
0001
1000
0000
0010
0000
0100
0000
0001
0100
0001
0000
0010
0000
0100
0000
,
2000
0000
0100
3200
0000
0001
0301
0000
,
1000
0000
0000
1000
0100
0000
0000
0010
0100
0000
0000
0100
0001
0000
0000
0001
,
0100
0000
0000
0100
0010
0000
0000
0001
0010
0000
0000
0010
0001
0000
1000
0000
,
0100
0000
0000
0100
0001
0000
0000
1000
0001
0000
0000
0001
0100
0000
0000
0100
,
1000
0000
0000
1000
0010
0000
0000
0010
0001
0000
0000
0100
0000
0000
0010
0000
,
1000
0000
0000
1000
0100
0000
0000
0010
0100
0000
0000
0100
0001
0000
0000
1000
,
0001
0010
0001
0100
0000
0100
1000
0000
,
0001
0100
0001
0010
0100
0010
1000
0100
,
0011
0000
1010
0000
1100
0000
0101
0000
1001
0000
0000
0000
,
0010
0001
0010
0000
0100
0000
1000
0000
0010
1000
0010
0000
0100
0000
0001
0000
,
1000
0001
1000
0000
0010
0000
1000
0000
0100
0001
0100
0000
0010
0000
0100
0000
,
1000
0001
1000
0000
0100
0000
0010
0000
0001
0100
0001
0000
0010
0000
0100
0000
,
1000
0010
1000
0000
0010
0000
0001
0000
0100
0000
0000
0010
0000
0000
0001
0000
,
1000
0000
0000
0100
1000
0000
0000
1000
0100
0000
0000
0100
0010
0000
0000
0001
,
0010
0100
0010
1000
0000
1000
0100
0010
,
0001
0000
0010
0000
0100
0000
0000
0100
1000
0000
0000
1000
0001
0000
0000
0010
,
0100
0001
0010
1000
0000
1000
0010
0000
,
1001
0000
0000
0000
;
