#TITLE:lil' freak;
#SUBTITLE:;
#ARTIST:bbno$;
#TITLETRANSLIT:;
#SUBTITLETRANSLIT:;
#ARTISTTRANSLIT:;
#GENRE:;
#CREDIT:RxSteps;
#MUSIC:lil' freak.ogg;
#BANNER:lil' freak.png;
#BACKGROUND:lil' freak-bg.png;
#CDTITLE:cdtitle.png;
#SAMPLESTART:26.680;
#SAMPLELENGTH:26.591;
#SELECTABLE:YES;
#OFFSET:1.275;
#BPMS:0.000=110.000;
#STOPS:;
#BGCHANGES:;
#FGCHANGES:;

//--------------- dance-single - RxSteps ----------------
#NOTES:
     dance-single:
     RxSteps:
     Beginner:
     3:
     0,0,0,0,0:
0000
0000
0000
0000
,
1000
0000
0010
0000
,
0100
0000
0100
0000
,
0001
0000
0010
0000
,
0001
0000
1000
0010
,
1000
0000
0001
0000
,
0100
0000
0100
0001
,
0100
0000
0010
0000
,
1000
0000
0100
0000
,
0010
0000
0001
0000
,
1000
0000
0010
1000
,
0010
0000
0100
0000
,
0001
0000
0010
0000
,
0001
0010
0000
0010
,
0001
0000
0100
0000
,
0010
1000
0000
1000
,
0010
0000
0100
0000
,
0100
0001
0000
1000
,
0010
0000
0010
0000
,
0100
0001
0000
0001
,
0100
0000
0010
0000
,
1000
0000
0001
0000
,
0010
0000
0100
0000
,
1000
0100
1000
0000
,
0001
0000
0100
0001
,
0100
0000
0010
0000
,
1000
0000
0100
0000
,
0010
0000
0001
0000
,
1000
0001
1000
0000
,
0010
0000
0100
0000
,
0001
0010
0001
0000
,
1000
0000
0100
0000
,
1000
0001
1000
0000
,
0010
0000
0010
0000
,
0100
0000
0001
0000
,
0010
0000
0001
0000
,
1000
0010
1000
0000
,
1000
0100
0000
0100
,
1000
0000
0010
0000
,
0100
0001
0000
0001
,
0100
0000
0010
0000
,
0010
1000
0000
0001
,
0100
0000
0100
0000
,
0010
1000
0000
1000
,
0010
0000
0100
0000
,
0001
0000
0010
0000
,
0100
0000
1000
0000
,
0001
1000
0001
0000
,
0100
0000
0010
0100
,
0010
0000
1000
0000
,
0001
0000
0010
0001
,
0001
0000
1000
0000
,
0010
0000
0100
0010
,
0100
0000
0001
0100
,
0001
0000
1000
0100
,
1000
0000
0001
0000
,
0100
0001
1000
0010
,
1000
0000
0001
0000
,
0010
0000
0001
0000
,
1000
0000
0001
0000
,
0010
0001
0010
0000
,
0001
0100
0000
0100
,
0001
0000
0010
0000
,
0100
1000
0000
1000
,
0100
0000
0010
0000
,
0010
0001
0000
1000
,
0100
0000
0100
0000
,
0010
0001
0000
0001
,
0010
0000
0100
0000
,
1000
0000
0001
0000
,
1000
0000
0010
0000
,
0010
0000
0100
0001
,
0100
0000
0010
0000
,
0010
0000
1000
0100
,
1000
0000
0001
0000
,
0001
0000
0010
0001
,
0010
0000
0200
0000
,
0300
0000
0000
0000
;

//--------------- dance-single - Rxsteps ----------------
#NOTES:
     dance-single:
     Rxsteps:
     Easy:
     6:
     0,0,0,0,0:
0000
0000
0000
0000
,
1000
0000
0010
0000
0100
0010
0100
0000
,
0001
0000
0010
0001
0010
0000
0100
0000
,
1000
0000
0001
0000
0100
0001
0100
0010
,
1000
0000
1000
0010
0100
0001
0100
0000
,
0001
0100
0001
0000
0010
0001
0010
0001
,
1000
0000
0010
0000
0100
0000
0001
0100
,
0001
1000
0100
0010
,
0001
1000
0001
0000
0100
0000
0010
1000
,
0010
1000
0001
0010
,
0001
0000
0100
0001
0100
0000
0010
1000
,
0010
0000
0100
0000
0001
0000
1000
0100
,
1000
0000
0001
0010
0002
0000
0003
0000
,
1000
0000
0010
0000
0100
0000
0001
0100
,
0001
0000
1000
0010
1000
0000
0001
0100
,
0010
0000
1000
0000
0001
0000
0010
0100
,
1000
0000
1000
0100
0010
0000
0001
1000
,
0001
0000
0100
0000
0010
0000
1000
0010
,
1000
0000
0001
0100
0001
0000
1000
0100
,
1000
0000
0100
0000
0010
0000
0001
0010
,
0001
0000
1000
0001
1000
0000
0010
0100
,
0010
1000
0001
0100
,
0010
0000
0010
0000
0100
0010
0100
0000
,
0001
0010
0100
1000
,
0100
0000
0010
0000
0001
0010
0001
0000
,
1000
0010
0010
1000
,
0001
0010
0001
0000
1000
0100
0010
0000
,
0001
1000
0010
0100
,
0010
0000
1000
0000
0001
0000
1000
0010
,
1000
0000
0010
0000
0100
0000
0001
0100
,
0010
1000
0001
0000
0001
1000
0001
0100
,
0010
0100
0001
0100
,
0010
1000
0010
0000
1000
0000
0001
0000
,
0010
0001
1000
0100
,
1000
0100
0010
0000
0001
0000
1000
0000
,
0001
0000
0010
0000
0001
0010
0001
0000
,
1000
0010
1000
0001
0100
0010
1000
0000
,
0001
0000
0100
0000
0010
0000
1000
0010
,
1000
0000
0001
0100
0001
0000
1000
0010
,
0100
0000
0001
0000
1000
0000
0100
0010
,
0001
0000
0001
0010
0100
0000
1000
0001
,
1000
0000
0010
0000
0100
0000
0001
0100
,
0001
0000
1000
0010
1000
0000
0001
0010
,
0001
0000
0010
0000
0100
0000
1000
0100
,
1000
0000
0001
1000
0001
0000
0100
0010
,
0100
0001
0010
0100
,
0010
0000
0001
0000
1000
0001
1000
0000
,
0010
1000
0001
0100
,
0010
0100
0010
0000
1000
0000
0100
0000
,
1000
0000
0100
0000
0010
0000
0001
0010
,
0001
0000
1000
0000
0010
1000
0010
0100
,
0001
0100
0100
0001
,
0010
0001
1000
0010
,
0100
0010
0100
0000
0001
0000
0010
0001
,
0010
0000
0100
0000
1000
0100
1000
0000
,
0001
0100
0010
0100
,
0001
0100
0001
1000
0010
1000
0010
1000
,
0001
0001
0100
0010
,
1000
0000
0001
0000
0010
0000
0100
0010
,
0100
1000
0001
0100
,
0001
1000
0001
1000
0001
0100
0000
0000
,
0100
0000
0001
0000
0010
0000
0001
0010
,
0001
0000
1000
0100
1000
0000
0001
0010
,
0100
0000
1000
0000
0001
0000
0100
0010
,
1000
0000
1000
0010
0100
0000
0001
1000
,
0001
0000
0010
0000
0100
0000
1000
0100
,
1000
0000
0001
0010
0001
0000
1000
0010
,
1000
0000
0010
0000
0100
0000
0001
0100
,
0001
0000
1000
0001
1000
0000
0100
0010
,
0100
1000
0001
0100
,
0010
0000
0100
0000
0001
0000
1000
0100
,
1000
0100
0010
0001
,
1000
0000
0010
0000
1000
0000
0001
0100
,
0001
0010
0100
1000
,
0001
0000
1000
0000
0100
0000
0010
0001
,
0010
0000
0001
0000
0100
0000
0010
0100
,
0010
0000
1000
0020
2000
0000
0000
0000
,
3030
0000
0000
0000
;

//--------------- dance-single - RxSteps ----------------
#NOTES:
     dance-single:
     RxSteps:
     Medium:
     8:
     0,0,0,0,0:
0000
0000
0000
0000
,
0001
0000
0000
1000
0010
0000
0100
0000
0001
0000
1000
0000
0100
0010
0002
0000
,
0010
0003
0000
0010
0100
0000
1000
0000
0200
0000
0010
0300
1000
0000
0001
0000
,
0100
0000
0000
0010
1000
0000
0010
0000
0100
0000
0001
0000
1000
0001
0200
0000
,
0010
0300
0000
0010
0100
0000
0001
0000
1000
0000
0100
0000
0010
0000
0100
0000
,
1100
1000
0001
0010
0001
1000
0010
2000
,
0100
3000
0001
0100
0010
0100
0001
1000
,
1200
0300
0010
0000
0001
0000
0100
0000
0010
0000
1000
0000
0020
0000
0100
0030
,
1000
0000
0001
0000
0010
0000
0001
0000
1000
0000
0100
0000
0020
0000
0001
0030
,
0100
1000
0010
0100
0001
1000
0100
1000
,
0001
0010
0100
0010
0001
0100
0001
0010
,
0001
1000
0001
0010
0100
1000
0001
0010
,
0001
0000
1000
0000
0010
0000
0100
0000
0020
0000
0000
0030
0000
0000
0010
0000
,
1000
0000
0000
0001
0010
0000
0100
0000
1000
0000
0001
0000
0100
0010
0100
0000
,
0001
0000
0000
1000
0100
0000
0010
0000
0001
0000
0010
0000
0100
0000
1000
0000
,
0001
0000
0000
0100
0010
0000
1000
0000
0001
0000
0100
0000
0001
1000
0200
0000
,
0010
0300
0000
0010
0100
0000
1000
0000
0001
0000
0010
0000
0100
0000
1000
0000
,
0001
0000
0000
0010
0100
0000
0010
0000
0001
0000
0100
0000
0010
1000
0001
0000
,
0010
0000
0000
0100
1000
0000
0001
0000
1000
0000
0100
0000
0010
0000
0001
0000
,
0100
0000
0000
0010
1000
0000
0100
0000
0010
0000
0001
0000
1000
0100
0020
0000
,
0001
0030
0000
0001
1000
0000
0010
0000
0100
0000
0001
0000
0100
0000
0010
0000
,
0100
0000
0000
0000
0001
0000
1000
0000
0010
0000
1000
0000
0001
0010
0001
0000
,
1000
0000
0001
0000
0100
0000
0002
0000
0103
0000
1010
0000
0021
0030
0100
0000
,
1020
0030
0000
0100
0001
0000
1000
0000
0100
0000
0010
0000
0100
0000
0010
0000
,
0001
0000
0100
0020
1000
0030
1000
0010
0100
0000
0001
0000
0010
0000
0100
0000
,
1000
0010
1000
0001
0021
0000
0230
0300
,
1000
0000
0010
0000
1000
0000
0001
0000
0100
0000
1100
0000
0202
0303
0000
0000
,
1000
0000
0100
0000
0010
0000
0001
0000
0010
0001
0000
0000
1020
0000
0000
0000
,
0130
0000
0000
0000
1100
0000
0000
0000
0110
0000
0000
0000
0021
0030
0100
0000
,
1100
0000
1000
0010
0100
0001
0100
0010
,
1000
0100
0010
0001
1000
0001
0100
0010
,
0100
0001
1000
0010
0100
0010
1000
0100
,
0010
0001
1000
0010
0100
0010
1000
0100
,
0010
0001
0010
0001
1000
0010
0100
0001
,
1000
0010
1000
0000
0001
0000
0100
0000
0010
0000
1000
0000
0100
0000
0010
0000
,
0001
0000
0100
0000
0001
0000
1000
0000
0010
0000
1000
0000
0001
0100
0001
0000
,
1000
0000
0010
1000
0010
0000
0100
0010
0100
0000
0001
0000
1000
0000
0100
0000
,
0010
0000
0000
0001
0100
0000
0010
0000
1000
0000
0001
0000
0010
0100
0010
0000
,
0001
0000
0000
1000
0010
0000
0100
0000
0001
0000
0010
0000
0100
0000
1000
0000
,
0100
0000
0000
1000
0010
0000
0100
0000
0001
0000
0010
0000
0001
1000
0020
0000
,
0100
0030
0000
0100
0010
0000
1000
0000
0001
0000
0010
0000
0100
0000
1000
0000
,
0001
0000
0000
0100
0010
0000
0100
0000
0001
0000
0010
0000
0100
1000
0001
0000
,
0100
0000
0000
0010
1000
0000
0001
0000
1000
0000
0100
0000
0010
0000
0001
0000
,
0010
0000
0000
0100
1000
0000
0010
0000
0100
0000
0001
0000
1000
0010
0200
0000
,
0001
0300
0000
0001
1000
0000
0100
0000
0010
0000
0100
0000
1000
0000
0100
0000
,
0100
0000
1000
0000
0010
0000
0100
0001
0100
0000
0010
0000
0100
0000
0001
0000
,
1000
0010
0100
0020
1030
0101
1200
0300
,
1000
0000
0001
0000
0010
0000
0001
0000
1000
0000
0020
0000
0100
0030
0000
0000
,
0100
0010
1000
0000
0001
0000
0010
0000
0100
0000
0010
0000
0001
0000
0000
0000
,
1000
0010
0100
0010
1000
0001
0010
0100
,
0010
0001
0010
0100
1000
0010
0100
0001
,
0101
0000
0000
0001
0200
0010
0300
0000
0010
0100
0001
0000
1000
0010
0100
0000
,
0001
1000
0100
1000
0001
0010
0100
1000
,
0001
0010
0100
0010
0100
1000
0100
0010
,
0001
0000
1000
0000
0010
0000
0100
0000
0001
0000
0020
0000
0100
0030
0001
0000
,
0010
0100
1000
0010
0100
0001
0100
0020
,
1000
0000
0000
0200
0000
0330
0000
0000
0011
0000
0000
1020
0000
0000
0030
0000
,
0100
0000
0001
0000
0010
0000
0001
0000
0100
0000
0010
0000
1000
0010
1000
0000
,
0001
0100
0001
0000
1000
0000
0100
0000
0010
0000
0001
0000
1000
0001
2000
0000
,
0010
3000
0010
0000
1000
0000
0100
0000
0010
0000
0001
0000
0100
0000
0010
0000
,
0100
0001
1000
0010
0200
0002
0303
0000
,
1100
0000
0000
0001
0100
0000
0010
0000
1000
0000
0001
0000
0010
0100
0010
0000
,
0001
0000
0000
1000
0010
0000
0100
0000
0001
0000
0010
0000
0100
0000
1000
0000
,
0100
0000
0000
1000
0010
0000
0100
0000
0001
0000
0100
0000
0010
1000
0020
0000
,
0100
0030
0000
0100
0010
0000
1000
0000
0001
0000
0010
0000
0100
0000
1000
0000
,
0001
0000
0000
0100
0010
0000
0100
0000
0001
0000
0010
0000
0100
1000
0001
0000
,
0100
0000
0000
0010
1000
0000
0001
0000
1000
0000
0100
0000
0010
0000
0001
0000
,
0010
0000
0000
0100
1000
0000
0010
0000
0100
0000
0001
0000
1000
0010
0200
0000
,
0001
0300
0000
0001
1000
0000
0100
0000
0010
0000
0001
0000
0010
0000
0100
0000
,
0100
0000
0000
1000
0100
0000
0010
0000
0100
0000
1000
0000
0100
0000
0010
0000
,
0021
0030
0000
0100
1000
0000
0001
0000
1000
0000
0100
0000
0010
0000
0001
0000
,
1000
0000
0000
0010
0100
0000
0001
0000
0010
0000
0100
0000
0010
0000
0001
0000
,
1200
0300
0000
0010
0001
0000
1000
0000
0001
0000
0010
0000
0100
0000
1000
0000
,
0001
0000
0000
0010
0100
0000
1000
0000
0010
0000
0100
0000
0001
0000
0020
0000
,
0001
0030
0000
0001
0010
0000
0100
0000
1000
0000
0100
0000
0010
0000
0001
0000
,
0010
0000
0000
0001
0100
0000
0010
0000
0100
0000
0001
0000
1000
0000
0100
0000
,
1000
0001
0100
0020
2000
0000
0000
0000
,
3030
0000
0000
0000
;

//--------------- dance-single - RxSteps ----------------
#NOTES:
     dance-single:
     RxSteps:
     Hard:
     10:
     0,0,0,0,0:
0000
0000
0000
0000
,
0001
0000
0000
1000
0010
0000
0100
0000
0001
0000
1000
0000
0100
0010
0002
0000
,
0010
0003
0000
0010
0100
0000
1000
0000
0200
0000
0010
0300
1000
0000
0001
0000
,
0100
0000
0000
0010
1000
0000
0100
0000
0010
0000
0100
0000
1000
0001
0200
0000
,
0010
0300
0000
0010
0100
0000
0001
0000
1000
0100
0010
0001
0010
0000
0100
0000
,
1100
0000
1000
0000
0001
0100
0010
0100
0002
0003
1000
0010
0100
0010
2000
0000
,
0100
0000
3000
0000
0001
0010
0100
1000
0100
1000
0100
0010
0002
0003
1000
0000
,
1200
0300
0010
0001
0020
0030
0100
1000
0001
0100
0001
1000
0020
0000
0100
0030
,
1000
0000
0001
0000
0100
0000
0010
0100
0002
0003
1000
0100
0020
0000
0001
0030
,
0100
0000
1000
0000
0010
0000
0100
0000
0001
0000
0020
0030
1000
0000
0010
0000
,
0001
0000
1000
0000
0010
0100
0001
0000
1000
0000
0200
0000
0010
0300
1000
0000
,
0001
0000
1000
0010
0100
0000
0010
0000
1000
0000
0001
0000
0010
0100
1000
0000
,
0001
0000
0100
0000
0010
1000
0001
0100
0020
0000
0000
0030
0000
0000
0010
0000
,
1000
0000
0000
0001
0010
0000
0100
0000
1000
0000
0001
0000
0100
0010
0100
0000
,
0001
0000
0000
1000
0100
0000
0010
0000
0001
0000
0200
0300
1000
0000
0001
0000
,
0010
0000
0000
1000
0100
0000
0010
0000
0001
0000
0100
0000
0010
1000
0200
0000
,
0010
0300
0000
0010
0100
0000
1000
0000
0020
0030
0001
0000
1000
0000
0100
0000
,
0001
0000
0000
0010
0100
0000
0010
0000
0001
0000
0100
0000
0010
1000
0001
0000
,
0010
0000
0000
0100
1000
0000
0200
0300
0001
0000
1000
0000
0010
0000
0001
0000
,
0100
0000
0000
0010
1000
0000
0100
0000
0010
0000
0001
0000
1000
0100
0020
0000
,
0001
0030
0000
0001
1000
0000
0010
0000
0100
0001
1000
0010
0200
0000
0001
0000
,
0010
0000
0300
0000
0010
0000
0200
0300
1000
0000
0100
0000
0001
0100
0010
0000
,
0100
0000
0001
0000
1000
0000
0002
0000
0103
0000
1010
0000
0021
0030
0100
0000
,
1020
0030
0000
0100
0001
0000
1000
0000
0200
0300
0001
0000
1000
0000
0010
0000
,
0001
0000
0100
0020
1000
0030
1000
0010
0100
0000
0001
0000
1000
0100
0020
0000
,
0001
0030
0100
0000
1000
0000
0001
0000
0021
0000
0000
0000
0230
0000
0300
0000
,
1000
0000
0010
0000
1000
0000
0001
0000
0100
0000
1100
0000
0202
0303
0000
0000
,
1000
0010
0100
0000
0001
0000
0010
0000
0001
0010
0000
0000
1020
0000
0000
0000
,
0130
0000
0000
0000
1100
0000
0000
0000
0110
0000
0000
0000
0021
0030
0100
0000
,
1100
0000
0000
0000
1000
0100
0010
0001
1000
0001
0010
0000
0200
0300
0001
0000
,
0100
0000
1000
0000
0010
1000
0001
0100
0010
0000
1000
0000
0001
0000
0020
0000
,
0100
0030
0001
0000
1000
0000
0010
0000
0100
0000
0010
1000
0001
0000
0200
0300
,
1000
0000
0100
0000
0001
0000
0100
0010
1000
0001
0100
0010
1000
0000
0100
0000
,
0010
0000
0100
0000
1000
0000
0010
0100
0001
0100
0010
0000
1000
0000
0001
0000
,
0010
0100
1000
0001
0010
0100
0010
0001
0010
0100
1000
0010
0200
0300
0001
0000
,
1000
0000
0010
0000
0100
0001
0100
0010
1000
0000
0010
0000
1000
0001
0100
0010
,
1000
0000
1000
0020
0130
0000
0100
0010
1000
0001
0100
0010
1000
0000
0001
0000
,
0010
0000
0000
0001
0100
0000
0010
0000
1000
0000
0001
0000
0010
0100
0010
0000
,
0001
0000
0000
1000
0010
0000
0100
0000
0001
0000
0020
0030
1000
0000
0001
0000
,
0100
0000
0000
1000
0010
0000
0100
0000
0001
0000
0010
0000
0100
1000
0020
0000
,
0100
0030
0000
0100
0010
0000
1000
0000
0200
0300
0001
0000
1000
0000
0010
0000
,
0001
0000
0000
0100
0010
0000
0100
0000
0001
0000
0010
0000
0100
1000
0001
0000
,
0100
0000
0000
0010
1000
0000
0020
0030
0001
0000
1000
0000
0100
0000
0001
0000
,
0010
0000
0000
0100
1000
0000
0010
0000
0100
0000
0001
0000
1000
0010
0200
0000
,
0001
0300
0000
0001
1000
0000
0100
0000
0010
0001
1000
0100
0020
0000
0001
0000
,
0130
0000
1000
0000
0010
0000
0100
0001
0200
0300
1000
0000
0100
0000
0001
0000
,
1000
0010
0100
0020
1030
0101
1200
0300
,
1000
0000
0200
0300
0001
0000
0100
0000
1000
0000
0020
0000
0100
0030
0000
0000
,
0100
0010
1000
0000
0001
0000
0010
0000
0100
0000
0010
0000
0001
0000
0000
1000
,
0010
0100
0001
1000
0010
0000
0100
0001
1000
0000
0010
0100
0001
1000
0010
1000
,
0100
0010
0001
0010
0100
1000
0001
0010
0100
0010
0001
1000
0010
0100
0001
0000
,
0101
0000
0000
0001
0200
0010
0300
0000
0010
0100
0001
0000
1000
0010
0100
0001
,
1000
0001
0100
0010
1000
0100
1000
0100
0010
0001
1000
0100
0010
0001
1000
0000
,
0001
0010
0100
0010
0001
0000
0200
0300
1000
0000
0100
0010
0100
0000
0001
0000
,
0010
0000
0100
0010
0001
0010
0100
1000
0100
0000
0020
0000
0001
0030
0100
0000
,
1000
0100
0010
0001
1000
0000
0010
0200
0301
0000
0001
0100
0020
0000
1030
0000
,
0200
0000
0010
0300
0001
0000
0200
0300
1000
0000
0001
0000
0010
0000
1000
0000
,
0200
0000
0010
0300
1000
0000
0001
0000
0100
0000
0010
0000
1000
0010
0100
0000
,
0001
0100
0010
0000
1000
0000
0001
0000
1000
0000
0100
0000
0010
0001
2000
0000
,
0010
3000
0010
0000
1000
0001
0100
0010
1000
0000
0100
0000
0010
0001
1000
0000
,
0200
0300
0001
0000
0100
0000
1000
0000
0020
0000
0002
0000
0033
0000
0000
0000
,
1100
0000
0000
0001
0100
0000
0010
0000
1000
0000
0001
0000
0010
0100
0010
0000
,
0001
0000
0000
1000
0010
0000
0100
0000
0001
0000
0020
0030
1000
0000
0001
0000
,
0100
0000
0000
1000
0010
0000
0100
0000
0001
0000
0010
0000
0100
1000
0020
0000
,
0100
0030
0000
0100
0010
0000
1000
0000
0200
0300
0001
0000
1000
0000
0010
0000
,
0001
0000
0000
0100
0010
0000
0100
0000
0001
0000
0010
0000
0100
1000
0001
0000
,
0100
0000
0000
0010
1000
0000
0020
0030
0001
0000
1000
0000
0100
0000
0001
0000
,
0010
0000
0000
0100
1000
0000
0010
0000
0100
0000
0001
0000
1000
0010
0200
0000
,
0001
0300
0000
0001
1000
0000
0100
0000
0010
0001
1000
0100
0020
0000
0001
0000
,
0130
0000
0000
1000
0200
0300
0001
0000
0100
0000
1000
0000
0100
0000
0010
0000
,
0021
0030
0000
0100
1000
0000
0200
0300
0010
0000
1000
0000
0001
0000
0100
0000
,
1000
0000
0000
0010
0100
0000
0001
0000
0010
0000
0100
0000
0010
0000
0001
0000
,
1200
0300
0000
0010
0001
0000
0100
0000
0020
0030
0001
0000
1000
0000
0100
0000
,
0001
0000
0000
0010
0100
0000
1000
0000
0010
0000
0100
0000
0001
0000
0020
0000
,
0001
0030
0000
0001
0010
0000
0100
0000
1000
0000
0200
0300
0001
0000
1000
0000
,
0010
0000
0000
0001
0100
0000
0010
0000
0100
0000
0001
0000
0010
0100
1000
0100
,
0010
0000
0000
0001
0100
0000
0020
0000
2000
0000
0000
0000
0000
0000
0000
0000
,
3030
0000
0000
0000
;
