#TITLE:greedy;
#SUBTITLE:;
#ARTIST:Tate McRae;
#TITLETRANSLIT:;
#SUBTITLETRANSLIT:;
#ARTISTTRANSLIT:;
#GENRE:;
#CREDIT:RxSteps;
#MUSIC:greedy.ogg;
#BANNER:greedy.png;
#BACKGROUND:greedy-bg.png;
#CDTITLE:cdtitle.png;
#SAMPLESTART:19.487;
#SAMPLELENGTH:25.946;
#SELECTABLE:YES;
#OFFSET:2.135;
#BPMS:0.000=111.000;
#STOPS:;
#BGCHANGES:;
#FGCHANGES:;

//--------------- dance-single - RxSteps ----------------
#NOTES:
     dance-single:
     RxSteps:
     Beginner:
     3:
     0,0,0,0,0:
0000
0000
0000
0000
,
0001
0010
0100
1000
,
1000
0010
0100
0001
,
1000
0001
0100
0100
,
0001
1000
0001
0100
,
0100
0001
1000
1000
,
0001
0100
0010
0010
,
1000
0000
0001
0000
1000
0001
1000
0001
,
1000
0001
0100
0100
,
0001
0010
0001
1000
,
0010
0010
0200
0300
,
0101
0000
2000
3000
,
0001
0100
0010
0010
,
1010
0000
2000
3000
,
0001
0100
0001
0001
,
0110
0000
0002
0003
,
1000
0010
0100
0100
,
0110
0000
0000
1000
0000
0000
0001
0000
,
0100
0001
0001
0100
,
0010
1000
0100
0000
,
1001
0000
0001
0100
,
0001
1000
0010
0010
,
1000
0100
0010
0001
,
0010
0001
0010
0100
,
1000
0000
0001
0000
1000
0001
1000
0001
,
1000
0010
0100
0001
,
0001
1000
0100
0010
,
0100
1000
0020
0030
,
1010
0000
0002
0003
,
1000
0010
0100
0100
,
0101
0000
0002
0003
,
1000
0010
1000
1000
,
0110
0000
2000
3000
,
0001
0100
0010
0010
,
0110
0000
0000
0001
0000
0000
1000
0000
,
0010
1000
1000
0010
,
0100
0001
0010
0001
,
1000
1000
0001
0100
,
0100
0000
0010
0000
1000
0010
0000
0010
,
1000
0001
0200
0000
,
0301
0000
0001
0000
1000
0001
1000
0001
,
1000
0010
1000
0001
,
1000
0010
0100
0002
,
0000
0103
0001
0001
,
0011
0000
2000
3000
,
0001
0010
0100
0100
,
1100
0000
2000
3000
,
0001
0010
0001
0001
,
0110
0000
0002
0003
,
1000
0100
0010
0010
,
0110
0000
0000
1000
0000
0000
0001
0000
,
0010
0001
0001
1000
,
0010
0100
0010
1000
,
1000
0100
0010
0001
,
0001
0100
0010
1000
,
1000
0000
0010
0000
1000
0010
1000
0010
,
1000
0001
0100
0010
,
0010
1000
0001
0100
,
0010
1000
0100
0010
,
0001
0001
0010
0100
,
1000
0000
0001
1000
0001
1000
0000
0000
;

//--------------- dance-single - RxSteps ----------------
#NOTES:
     dance-single:
     RxSteps:
     Easy:
     4:
     0,0,0,0,0:
0000
0000
0000
0000
,
1000
0000
0100
0000
0010
0000
0001
0010
,
0001
0100
0010
1000
,
1001
0000
1000
0010
1000
0010
0200
0300
,
0001
0100
0001
0100
0001
1000
0010
1000
,
0010
0000
1000
0000
0001
0000
0001
0100
,
0010
0000
0010
0000
1000
0001
1000
0001
,
1000
0000
0110
0000
0000
0001
1000
0001
,
1000
0000
0010
1000
0010
0100
0010
1000
,
0010
0100
0001
0010
,
0100
0000
0100
0000
1000
0100
1000
0100
,
1000
1001
0002
0003
,
0100
0001
0100
0010
0100
0001
1000
0001
,
1000
0011
0002
0003
,
1000
0000
0100
0000
1000
0001
0100
0001
,
1000
0110
2000
3000
,
0001
0000
0100
0000
0100
0010
0100
0010
,
1000
0000
1100
0000
1000
0000
0001
0200
,
0000
0000
0300
0001
0100
0001
0100
0010
,
1000
0100
0010
0001
,
1001
0000
1000
0000
0010
0100
0010
0100
,
0010
0000
1000
0000
0010
1000
0010
1000
,
0001
0000
0010
0000
0100
0010
0100
0010
,
0100
1000
0001
0100
,
0010
0000
1001
0000
1000
0001
1000
0001
,
0100
0000
0010
0000
1000
0100
1000
0100
,
1000
0001
0010
0100
,
0010
0000
0001
0000
0001
0010
0001
0010
,
0001
1001
2000
3000
,
0010
1000
0010
0100
0010
1000
0001
1000
,
0001
1100
2000
3000
,
0001
0000
0010
0000
0001
1000
0010
1000
,
0001
0110
0002
0003
,
1000
0000
0010
0000
0010
0100
0010
0100
,
0001
0000
0011
0000
0001
0000
1000
0020
,
0000
0000
0030
1000
0010
1000
0010
0100
,
0001
0010
0100
1000
,
0001
0100
0001
0000
1000
0000
0010
1000
,
0010
0000
0100
0000
0001
0100
0000
0100
,
0001
0000
1000
0000
0010
0100
0010
0100
,
0001
0000
1000
0000
0001
1000
0001
1000
,
0010
0000
0100
0000
0001
1000
0010
1000
,
0010
0012
0003
2000
,
0000
3010
1001
1001
,
0001
0100
0002
0003
,
0010
0001
0010
0100
0010
0001
0010
0001
,
0010
0101
0002
0003
,
1000
0000
0010
0000
1000
0001
0010
0001
,
1000
0110
2000
3000
,
0002
0000
0013
0000
0010
0100
0010
0100
,
1000
0000
1010
0000
1000
0000
0001
0020
,
0000
0000
0030
0001
0010
0001
1000
0010
,
1000
0010
0100
0001
,
0001
0010
0100
1000
,
1000
0000
0010
0000
0100
0000
0001
1000
,
0001
0000
0100
0000
0001
1000
0001
1000
,
0010
0000
0010
1000
0010
0000
0100
0000
,
0001
1000
1000
0010
,
0100
0001
0010
0100
,
1000
0100
1000
0000
0100
0000
0010
0000
,
0001
0000
0100
0001
0100
0001
0000
0000
;

//--------------- dance-single - RxSteps ----------------
#NOTES:
     dance-single:
     RxSteps:
     Medium:
     7:
     0,0,0,0,0:
0000
0000
0000
0000
,
0001
0010
0100
1000
0010
0100
0001
0010
,
0001
0100
0010
1000
0100
0010
0001
0000
,
1010
0000
0001
0100
0010
1000
0100
1000
,
0001
0010
0001
1000
0010
0100
0010
1000
,
0100
0010
0100
1000
0010
0100
0001
0010
,
0100
0010
0001
0100
0010
0100
0010
1000
,
0012
0000
0103
0010
0100
0001
1000
0001
,
0001
0100
0010
1000
0100
0010
0100
1000
,
0010
0000
1010
0010
0100
0001
0010
0001
,
1000
0100
0010
0001
1000
0100
0010
0001
,
2010
0000
3001
0100
0010
1000
0010
0100
,
0001
0010
0100
1000
0001
0100
0010
1000
,
0011
0000
1010
0010
0100
0001
1000
0100
,
1000
0010
0100
0001
0010
0100
0010
0001
,
1020
0000
0130
0001
0010
0100
0010
0010
,
0001
1000
0010
0100
0001
1000
0001
1000
,
0110
0000
0011
0010
0100
1000
0010
1000
,
0001
0100
0010
1000
0001
0010
0100
0010
,
0100
1000
0100
0010
0010
0001
0010
0000
,
1020
0130
0001
0010
0100
1000
0010
1000
,
1001
0000
1100
0100
0010
0010
0001
0100
,
1010
0010
0100
0001
0010
0001
1000
0010
,
1000
0100
0010
0100
1000
0001
0100
0010
,
2000
0000
3100
0010
0001
1000
0001
1000
,
1000
0010
0100
0010
0100
0001
1000
0010
,
0021
0000
0130
0010
0001
0010
0100
1000
,
0010
0100
0001
0010
0001
0010
0100
1000
,
0102
0000
1003
0010
0100
0001
0100
0010
,
1000
0100
0010
0001
1000
0010
0100
0001
,
1100
0000
0101
0100
0010
1000
0001
0010
,
0001
0100
0010
1000
0100
0010
0100
1000
,
0201
0000
0310
1000
0100
0010
0100
0100
,
1000
0001
0100
0010
1000
0001
1000
0001
,
0110
0000
1100
0100
0010
0001
0100
0001
,
1000
0010
0100
0001
1000
0100
0010
0100
,
0010
0001
0010
0100
0100
1000
0100
0010
,
0001
1000
0010
0100
0001
1000
0100
0010
,
0100
0010
0001
1000
0100
0100
0010
0001
,
0010
0100
1000
0010
0100
0001
1000
0001
,
0100
0000
1100
0000
1000
0001
1000
0001
,
0010
0001
0010
0100
0010
0001
0100
0010
,
2010
3000
0001
0020
0000
0000
0130
1000
,
0020
0130
1001
1001
,
2010
0000
3001
0100
0010
1000
0010
0100
,
0001
0010
0100
1000
0001
0100
0010
1000
,
0011
0000
1010
0010
0100
0001
1000
0100
,
1000
0010
0100
0001
0010
0100
0010
0001
,
1020
0000
0130
0001
0010
0100
0010
0010
,
0001
1000
0010
0100
0001
1000
0001
1000
,
0110
0000
0011
0010
0100
1000
0010
1000
,
0001
0100
0010
1000
0001
0010
0100
0010
,
0100
1000
0100
0010
0001
0100
0010
1000
,
0001
1000
0010
1000
0100
1000
0001
0100
,
0100
0001
1000
0010
1000
0100
1000
0001
,
1000
0100
0010
0001
0100
0010
1000
0100
,
1000
0000
1001
0001
0100
0001
0010
0001
,
0100
0010
1000
0001
1000
0010
0100
0010
,
0100
0001
0100
0010
0100
0001
0100
0010
,
1000
0100
0010
0001
0010
0100
1000
0001
,
1000
0100
0010
0001
0001
0100
0000
0000
;

//--------------- dance-single - RxSteps ----------------
#NOTES:
     dance-single:
     RxSteps:
     Hard:
     8:
     0,0,0,0,0:
0000
0000
0000
0000
,
1000
0100
0010
0001
0100
0010
1000
0100
,
1000
0010
0100
0001
0010
0100
1000
0000
,
0102
0003
0100
1000
0100
0001
0010
0001
,
1000
0100
1000
0001
0200
1300
0100
0001
,
0010
0100
0010
0001
0100
0010
1000
0100
,
0001
0100
1000
0010
0100
0010
0100
0001
,
1100
0000
0100
0001
0100
1000
0100
1000
,
0100
0001
0100
1000
0010
0100
0001
1000
,
0100
0000
0101
0100
0010
1000
0100
1000
,
0001
0010
0100
1000
0001
0010
0100
1000
,
0102
0003
0200
1300
0001
0010
0100
0010
,
1000
0100
0010
0001
1000
0010
0100
0001
,
1100
0000
0101
0100
1000
0100
0001
0100
,
1000
0100
0010
1000
0100
0010
0100
1000
,
0201
0000
0310
1000
0100
0010
0100
0100
,
1000
0001
0100
0010
1000
0001
1000
0001
,
0110
0000
1100
0100
0010
0001
0100
0001
,
1000
0010
0100
0001
0020
1030
0001
0100
,
0010
0001
0010
0100
0100
1000
0100
0000
,
0201
0310
1000
0100
0010
0001
0100
0010
,
1001
0110
1100
0100
0001
0100
1000
0010
,
0101
0100
0010
1000
0100
1000
0001
0100
,
0001
0010
0100
0010
0001
1000
0010
0100
,
0002
0000
1003
0001
0100
1000
0100
0001
,
0010
0001
1000
0100
1000
0001
0100
0001
,
1200
0000
0310
0100
1000
0100
0010
0001
,
0100
0010
1000
0100
1000
0100
0010
0001
,
2010
3000
0020
0031
1000
0100
0010
0100
,
0001
0010
0100
1000
0001
0100
0010
1000
,
0011
0000
1010
0010
0001
0010
1000
0010
,
0001
0010
0100
0001
0010
0100
0010
0001
,
1020
0000
0130
0001
0010
0100
0010
0010
,
0001
1000
0010
0100
0001
1000
0001
1000
,
0110
0000
0011
0010
0100
1000
0010
1000
,
0001
0100
0010
1000
0200
0301
1000
0010
,
0100
1000
0100
0010
0010
0001
0010
0100
,
1000
0001
0100
0010
1000
0001
0010
0100
,
0010
0100
1000
0001
0100
1000
0100
0001
,
0100
0010
1000
0100
1000
0200
0301
1000
,
0020
0000
0032
0103
0010
1000
0001
1000
,
0100
1000
0100
0010
0100
1000
0010
0100
,
0102
0003
1000
0200
0000
0000
0310
0001
,
0200
1300
1001
1001
,
0101
0000
0200
1300
0001
0010
0100
0010
,
1000
0100
0010
0001
1000
0010
0100
0001
,
1100
0000
0101
0100
1000
0100
0001
0100
,
1000
0100
0010
1000
0100
0010
0100
1000
,
0201
0000
0310
1000
0100
0010
0100
0100
,
1000
0001
0100
0010
1000
0001
1000
0001
,
0110
0000
1100
0100
0010
0001
0100
0001
,
1000
0010
0100
0001
0020
1030
0001
0100
,
0010
0001
0010
0100
1000
0010
0100
0001
,
1000
0100
0001
0100
1000
0010
0001
0010
,
1000
0100
0001
0100
1000
0020
0031
1000
,
0100
0010
1000
0100
0010
0100
1000
0020
,
0130
0000
1001
0101
0100
1000
0100
0001
,
0010
0100
1000
0100
0001
0100
1000
0100
,
0010
0001
0100
0010
1000
0100
1000
0001
,
0010
0001
0100
0010
1000
0100
1000
0001
,
0200
1300
0001
0010
0100
0001
0000
0000
;
