#TITLE:girl EDM;
#SUBTITLE:;
#ARTIST:Ninajirachi;
#TITLETRANSLIT:;
#SUBTITLETRANSLIT:;
#ARTISTTRANSLIT:;
#GENRE:;
#CREDIT:RxSteps;
#MUSIC:girl EDM.ogg;
#BANNER:girl EDM.png;
#BACKGROUND:girl EDM-bg.png;
#CDTITLE:cdtitle.png;
#SAMPLESTART:53.996;
#SAMPLELENGTH:17.391;
#SELECTABLE:YES;
#OFFSET:1.656;
#BPMS:0.000=138.000;
#STOPS:;
#BGCHANGES:;
#FGCHANGES:;

//--------------- dance-single - RxSteps ----------------
#NOTES:
     dance-single:
     RxSteps:
     Beginner:
     5:
     0,0,0,0,0:
0000
0000
0000
0000
,
1000
0001
0010
0010
,
0001
1000
0100
0100
,
1000
0010
0100
0100
,
0002
0003
0100
0001
,
0100
0001
1000
1000
,
0010
0100
0010
0010
,
1000
0001
0010
0010
,
0002
0003
1000
0010
,
0010
0100
0001
0001
,
0010
0100
1000
1000
,
0001
0100
0010
0010
,
0200
0300
0002
0003
,
1000
0100
0010
0001
,
1000
0001
0010
0100
,
1000
0001
0100
0010
,
2000
3000
0100
0010
,
0020
0000
0030
0000
,
2002
3003
0000
0000
,
0220
0330
0000
0000
,
2020
3030
0000
0000
,
1000
0001
0100
0001
,
0100
0001
0100
0001
,
1000
0010
1000
0010
2000
0000
3000
0000
,
0001
0000
0000
0000
0100
0000
0000
0001
0000
0000
0100
0000
0000
0000
0000
0000
,
2002
3003
0000
0000
,
2200
3300
0000
0000
,
0022
0033
0000
0000
,
0220
0330
0000
0000
,
0001
0000
0100
0000
0000
0001
0000
0000
0200
0000
0000
0000
0300
0000
0000
0000
,
0010
0000
1000
0000
0000
0010
0000
0000
2000
0000
0000
3000
0000
0000
0000
0000
,
0100
0000
1000
0000
0000
0100
0000
0000
2000
0000
0000
0000
3000
0000
0000
0000
,
0001
0000
1000
0000
0000
0010
0000
0000
0200
0000
0000
0000
0300
0000
0000
0000
,
0001
0100
0010
0100
,
0001
0010
0100
1000
,
0001
0010
0001
0010
,
0200
0300
1000
0001
,
1000
0010
1000
0010
,
0100
0001
0100
0001
,
1000
0010
0100
0001
,
0020
0000
0030
0000
0001
0010
0001
0010
,
0001
1000
0001
0100
,
0010
1000
0100
1000
,
0010
0100
0001
0100
,
0020
0030
1000
0001
,
0010
0001
0010
0100
,
1000
0001
0010
0100
,
1000
0001
0100
0010
,
2000
0000
3000
0000
0020
0000
0100
0030
,
0100
0010
0200
0000
0300
0000
0000
0000
,
0001
1000
0002
0000
0003
0000
0000
0000
,
1000
0010
2000
0000
3000
0000
0000
0000
,
0001
0100
0001
0000
2000
0000
3000
0000
,
0001
1000
0002
0000
0003
0000
0000
0000
,
0100
0010
0200
0000
0300
0000
0000
0000
,
0001
0010
0002
0000
0003
0000
0000
0000
,
1000
0100
2000
0000
3002
0000
0003
0000
,
1000
0000
0100
0000
,
1000
0000
0001
0000
,
0010
0000
0001
0000
,
0100
0000
0010
0000
,
1000
0000
0100
0000
,
0010
0000
0001
0000
,
1000
0000
0010
0000
,
0100
0000
0010
0000
,
1000
0000
0000
0000
0001
0100
0001
0000
,
0200
0000
0300
0000
,
0001
0100
0002
0000
0003
0000
0000
0000
,
2000
0000
3000
0000
,
0001
0000
0000
0000
0100
0001
0100
0000
,
0001
0000
1000
0010
0000
1000
0000
0000
,
0002
0000
0003
0000
,
0010
0000
0000
0000
0001
0000
1000
0001
,
0000
1000
0000
0000
0010
0000
0100
0010
,
0000
1000
0000
0000
0001
0000
0010
0001
,
0000
0010
0000
0000
0002
0000
0003
0000
,
1000
0000
0010
0000
2000
3000
0000
0010
,
0000
1000
0000
0000
0001
0000
0100
0001
,
0000
1000
0000
0000
0010
0000
0100
0010
,
0000
0100
0000
0000
0002
0000
0003
0000
,
2000
3000
0000
0010
,
1000
0010
2000
0000
3000
0000
0000
0000
,
0001
0100
0002
0000
0003
0000
0000
0000
,
1000
0100
2000
0000
3000
0000
0000
0000
,
0001
0100
0002
0000
1000
0000
0003
0000
,
1000
0010
1000
1000
,
0100
0010
0001
0001
,
1000
0010
0100
0100
,
0020
0030
2000
3000
,
0001
0010
0100
1000
,
0001
1000
0100
0010
,
0001
1000
0010
0100
,
0002
0003
1000
0001
,
0001
1000
0010
1000
,
0010
1000
0010
1000
,
0001
0100
0001
0100
0002
0000
0003
0000
,
0010
0000
0001
0000
0000
0010
0000
0000
0002
0000
0000
0000
0003
0000
0000
0000
,
1000
0010
0100
0010
,
1000
0100
0010
0001
,
1000
0100
1000
0100
,
0020
0030
0001
1000
,
0001
0100
0001
0100
,
0010
1000
0010
1000
,
0001
0100
0010
1000
,
0200
0000
0300
0000
1000
0100
1000
0100
,
1000
0001
1000
0010
,
0100
0001
0010
0001
,
0100
0010
1000
0010
,
0200
0300
0001
1000
,
0100
1000
0100
0010
,
0001
1000
0100
0010
,
0001
1000
0010
0100
,
0002
0000
0003
0000
0200
0000
0010
0300
,
0010
0100
0020
0000
0030
0000
0000
0000
,
1000
0001
2000
0000
3000
0000
0000
0000
,
0001
0100
0002
0000
0003
0000
0000
0000
,
1000
0010
1000
0000
0002
0000
0003
0000
,
1000
0001
2000
0000
3000
0000
0000
0000
,
0010
0100
0020
0000
0030
0000
0000
0000
,
1000
0100
2000
0000
3000
0000
0000
0000
,
0001
0010
0002
0000
2003
0000
3000
0000
,
0001
0100
0020
0030
,
1000
0010
0200
0300
,
0001
0010
0200
0300
,
1000
0001
0100
0010
,
1000
0001
0200
0300
,
0001
1000
0200
0300
,
1000
0100
0020
0030
,
0001
0000
1000
0000
0000
0010
0000
0000
1000
0000
0000
0001
0000
0000
0200
0000
,
0000
0000
0000
0000
,
0000
0300
0000
0000
0000
0000
0000
0000
0000
0000
0000
0000
0000
0000
0000
0000
;

//--------------- dance-single - RxSteps ----------------
#NOTES:
     dance-single:
     RxSteps:
     Easy:
     7:
     0,0,0,0,0:
0000
0000
0000
0000
,
1000
0100
0010
0001
,
0100
0010
0000
0000
0100
0000
0000
0000
0001
0000
0000
0000
0100
0000
0000
0000
,
0010
1000
0000
0000
0010
0000
0000
0000
0100
0000
0000
0000
0001
0000
0000
0000
,
0010
0001
0000
0000
1000
0000
0000
0001
1000
0000
0000
0020
0100
0030
0000
0000
,
0100
0010
0000
0000
1000
0000
0000
0000
0001
0000
0000
0000
0010
0000
0000
0000
,
0001
0010
0000
0000
0100
0000
0000
0000
1000
0000
0000
0000
0010
0000
0000
0000
,
0100
0010
0000
0000
1000
0000
0000
0000
0001
0000
0000
0000
0010
0000
0000
0000
,
0100
0010
0000
0000
0100
0000
0000
1000
0200
0000
0000
0000
0010
0000
0300
0000
,
1000
0100
0000
0000
1000
0000
0000
0000
0001
0000
0000
0000
0100
0000
0000
0000
,
0010
1000
0000
0000
0010
0000
0000
0000
0100
0000
0000
0000
0001
0000
0000
0000
,
0010
0001
0000
0000
0010
0000
0000
0000
0100
0000
0000
0000
1000
0000
0000
0000
,
0001
1000
0000
0000
0010
0000
0000
0100
0010
0000
0000
0000
1000
0000
0000
0000
,
0001
0100
0000
0000
0001
0000
0000
0000
0010
0000
0000
0000
0001
0000
0000
0000
,
1000
0010
0000
0000
1000
0000
0000
0000
0001
0000
0000
0000
0100
0000
0000
0000
,
0010
0100
0000
0000
0010
0000
0000
0000
1000
0000
0000
0000
0100
0000
0000
0000
,
0010
0001
0000
0000
0010
0000
0000
0100
0020
0000
0000
0000
0001
0000
0030
0000
,
0001
0010
0001
1000
0010
0000
0100
0000
,
0001
1000
0001
0100
0010
0000
1000
0000
,
0100
0010
0001
0000
0010
0000
0100
0000
,
1000
0000
0100
0000
1000
0000
0000
0000
0001
0000
0000
0100
0001
0000
0100
0000
,
0001
0100
0010
1000
0001
1000
0010
0100
,
0001
0100
0010
1000
0001
0100
0010
1000
,
0100
0010
0001
0010
0200
0000
1000
0300
,
0010
0000
0000
0000
0001
0000
1000
0001
0000
0000
1000
0000
0010
0000
0200
0000
,
0002
0000
0303
0000
,
2020
0000
3030
0000
,
0220
0000
0330
0000
,
1002
0000
0000
0000
0003
0000
0000
0100
0001
0000
0000
0000
0000
0000
0000
0000
,
1000
0000
0100
0000
0000
0010
0000
0000
0001
0000
0000
0100
0000
0000
0010
0000
,
0100
0000
0010
0000
0000
1000
0000
0000
0001
0000
0000
0100
0000
0000
0010
0000
,
1000
0000
0010
0000
0000
0100
0000
0000
0001
0000
0000
0010
0000
0000
0001
0000
,
1000
0000
0010
0000
0000
1000
0000
0000
0100
0000
0000
0000
0010
0000
0000
0000
,
0001
0000
0010
0000
0000
0100
0000
0000
1000
0000
0000
0100
0000
0000
0020
0000
,
0001
0030
0100
0000
1000
0000
0000
0000
0010
0000
0000
0100
0000
0000
0020
0000
,
1000
0030
0100
0000
0000
0010
0000
0000
1000
0000
0000
0001
0000
0000
0200
0000
,
0010
0000
0301
0000
0000
0100
0000
0000
0020
0000
0000
0000
1000
0000
0030
0000
,
0100
0000
0010
0000
0000
0100
0000
0000
0001
0000
0000
0100
0000
0000
0002
0000
,
1000
0000
0103
0000
0000
0001
0000
0000
1000
0000
0000
0100
0000
0000
2000
0000
,
0100
0000
3001
0000
0000
1000
0000
0000
0010
0000
0000
0100
0000
0000
0002
0000
,
0100
0000
1003
0000
0000
0001
0000
0000
1000
0000
0100
0000
0010
0000
0100
0000
,
1000
0000
0001
0000
0000
0100
0000
0000
0001
0000
0000
0010
0000
0000
0001
0000
,
0010
0000
0100
0000
0000
1000
0000
0000
0100
0000
0000
0010
0000
0000
0001
0000
,
1000
0000
0001
0000
0000
0100
0000
0000
0010
0000
0000
0100
0000
0000
0010
0000
,
1000
0000
0001
0000
0000
0200
0000
0000
0010
0000
0000
0000
0002
0300
0000
0000
,
0100
0000
1003
0000
0000
0001
0000
0000
0100
0000
0000
0001
0000
0000
2000
0000
,
0010
0000
3001
0000
0000
1000
0000
0000
0001
0000
0000
0010
0000
0000
0200
0000
,
0010
0000
1300
0000
0000
0100
0000
0000
0010
0000
0000
0001
0000
0000
1000
0000
,
0010
0000
1000
0000
0000
0020
0000
0000
1000
0000
0000
0000
0130
0000
0000
0000
,
2002
3003
0001
0010
,
0001
0010
0100
0000
1000
0000
0100
0000
,
0010
0001
0010
0000
0100
0000
1000
0000
,
0010
0000
1000
0000
0001
0000
0000
0000
0100
0000
0000
0010
0000
0000
1000
0000
,
0010
1000
0001
0000
0010
0000
0001
0000
,
1000
0100
0010
0000
0001
0000
1000
0000
,
0010
0100
0001
0000
1000
0000
0100
0000
,
1000
0000
0001
0000
0100
0000
0000
0000
0010
0000
0000
0100
0000
0000
0000
0000
,
0002
0000
0023
0000
,
0100
0000
0032
0000
,
2003
0000
3020
0000
,
0100
0000
2030
0000
,
3200
0000
0320
0000
,
0230
0000
2300
0000
,
3002
0000
0023
0000
,
0130
1000
0100
0010
,
0002
0000
0003
0000
0100
0001
0200
0000
,
0310
0000
1000
0010
0000
0100
0000
0000
,
0010
1000
0020
0000
0000
0000
0130
0000
,
0010
1000
0001
0010
,
0001
0000
1000
0000
0010
1000
0010
0000
,
0100
0000
0001
0100
0000
0010
0000
1000
,
0001
0100
0020
0000
0030
0000
1000
0000
,
0001
0000
0100
0000
0001
0000
1000
0010
,
0000
2000
0000
3000
0010
0000
0100
0010
,
0000
2000
0000
3000
0001
0000
0010
0001
,
0000
0200
0300
0000
0010
1000
0001
0000
,
0100
0000
0001
0100
0001
0000
1000
0100
,
0000
0020
0030
0000
0001
0000
0010
0100
,
0000
2000
0000
3000
0001
0000
0100
0010
,
0000
2000
3000
0000
0100
0010
0002
0000
,
2000
0000
0000
0003
0000
0000
3010
0000
,
1000
0000
0010
0000
0000
1000
0000
0000
0001
0000
0000
0100
0000
0000
0010
0000
,
0100
0000
0010
0000
0000
1000
0000
0000
0001
0000
0000
0100
0000
0000
0001
0000
,
0010
0000
0001
0000
0000
0010
0000
0000
0100
0000
0000
1000
0000
0000
0100
0000
,
1000
0000
0100
0000
0000
0010
0000
0000
0100
0000
0000
1000
0000
0000
0001
0000
,
1000
0100
1000
0000
0100
0000
0010
0000
,
0001
1000
0001
0000
0020
0000
0100
0030
,
0001
0010
0001
0000
1000
0000
0010
0000
,
0100
0000
0010
0000
0000
1000
0000
0000
0001
0000
0000
0100
0000
0000
0020
0000
,
2000
0000
3030
0000
,
0202
0000
0303
0000
,
0220
0000
0330
0000
,
2002
0000
3003
0000
,
1000
0100
0010
0001
,
1000
0001
0010
0001
,
1000
0010
0100
0001
0200
0000
0310
0000
,
1002
0000
0000
0000
0000
0003
0000
1000
0010
0000
0000
0000
0000
0000
0000
0000
,
1000
0000
0100
0000
0000
0010
0000
0000
0001
0000
0000
0010
0000
0000
0200
0000
,
1000
0300
0010
0000
0001
0000
0000
0000
0100
0000
0000
0010
0000
0000
0200
0000
,
0001
0300
0010
0000
0000
0100
0000
0000
0001
0000
0000
1000
0000
0000
0020
0000
,
0100
0000
1030
0000
0000
0010
0000
0000
0200
0000
0000
0000
0001
0000
0300
0000
,
0010
0000
0100
0000
0000
0010
0000
0000
1000
0000
0000
0010
0000
0000
2000
0000
,
0001
0000
3010
0000
0000
1000
0000
0000
0001
0000
0000
0010
0000
0000
0002
0000
,
0010
0000
1003
0000
0000
0001
0000
0000
0100
0000
0000
0010
0000
0000
2000
0000
,
0010
0000
3001
0000
0000
1000
0000
0000
0001
0000
0010
0000
0100
0000
0010
0000
,
0001
0000
1000
0000
0000
0010
0000
0000
1000
0000
0000
0100
0000
0000
1000
0000
,
0100
0000
0010
0000
0000
0001
0000
0000
0010
0000
0000
0100
0000
0000
1000
0000
,
0001
0000
1000
0000
0000
0010
0000
0000
0100
0000
0000
0010
0000
0000
0100
0000
,
0001
0000
1000
0000
0000
0020
0000
0000
0100
0000
0000
0000
2000
0030
0000
0000
,
0010
0000
3001
0000
0000
1000
0000
0000
0010
0000
0000
1000
0000
0000
0002
0000
,
0100
0000
1003
0000
0000
0001
0000
0000
1000
0000
0000
0100
0000
0000
0020
0000
,
0100
0000
0031
0000
0000
0010
0000
0000
0100
0000
0000
1000
0000
0000
0001
0000
,
0100
0000
0001
0000
0000
0200
0000
0000
0001
0000
0000
0000
0310
0000
0000
0000
,
2002
3003
1000
0100
,
1000
0100
0010
0000
0001
0000
0010
0000
,
0100
1000
0100
0000
0010
0000
0001
0000
,
0100
0000
0001
0000
2000
0000
3000
0000
0010
0000
0000
0100
0000
0000
0001
0000
,
0100
0001
1000
0000
0100
0000
1000
0000
,
0001
0010
0100
0000
1000
0000
0001
0000
,
0100
0010
1000
0000
0001
0000
0010
0000
,
0001
0000
1000
0000
0020
0000
0030
0000
0100
0000
0000
0010
0000
0000
1000
0000
,
0001
0100
0010
1000
,
0001
0100
0010
0000
1000
0000
0100
0000
,
0010
0001
1000
0000
0001
0000
0010
0000
,
0001
0000
1000
0000
0020
0000
0030
0000
0100
0000
0000
0001
0000
0000
0100
0000
,
0001
0100
0010
0000
1000
0000
0100
0000
,
0010
0100
1000
0000
0001
0000
0100
0000
,
0001
1000
0010
0000
1000
0000
0001
0000
,
0100
0000
0010
0000
0000
1000
0000
0000
0001
0000
0000
0200
0000
0000
0020
0000
,
0000
0000
0000
0000
0000
0000
0000
0000
0000
0000
0000
0000
0030
0300
0000
0000
,
0010
0100
0000
0000
0000
0000
0000
0000
0000
0000
0000
0000
0000
0000
0000
0000
;

//--------------- dance-single - RxSteps ----------------
#NOTES:
     dance-single:
     RxSteps:
     Medium:
     9:
     0,0,0,0,0:
0000
0000
0000
0000
,
0001
0100
0000
0000
0001
0000
0000
0000
1000
0000
0000
0000
0010
0000
1000
0000
,
0100
1000
0000
0000
0010
0000
0000
0000
0100
0000
0000
0000
0001
0000
0010
0000
,
0100
0010
0000
0000
0001
0000
0000
0000
1000
0000
0000
0000
0100
0000
1000
0000
,
0100
0010
0200
0000
0000
1000
0300
0010
0001
0000
0000
1000
0001
0000
1000
0000
,
0010
0100
0010
0000
1000
0000
0001
0000
0100
0000
0010
0000
1000
0000
0001
0000
,
0010
0100
0010
0000
0001
0000
1000
0000
0001
0000
0100
0000
0010
0000
0100
0000
,
0001
1000
0001
0000
0100
0000
0001
0000
2000
3000
0000
0200
0300
0000
0010
0000
,
0001
0010
0200
0000
0000
1000
0300
0010
0001
0000
0000
0000
0102
0000
0003
0000
,
0010
0001
0010
0000
0100
0000
1000
0000
0010
0000
0100
0000
0010
0000
1000
0000
,
0001
0100
0001
0000
1000
0000
0001
0000
0010
0000
0100
0000
0010
0000
0001
0000
,
0010
0100
0010
0000
0001
0000
1000
0000
0100
0000
0010
0000
0100
0000
1000
0000
,
0100
0010
0200
0000
0000
1300
0000
0100
0010
0000
0001
0000
1000
0000
0010
0000
,
0100
0001
0100
0000
0010
0000
1000
0000
0001
0000
0010
0000
0100
0000
1000
0000
,
0010
1000
0010
0000
0100
0000
0001
0000
1000
0000
0100
0000
0010
0000
0001
0000
,
0100
0010
0100
0000
0001
0000
1000
0000
0010
0000
0100
0000
0001
0000
1000
0000
,
0010
1000
0020
0000
0000
0100
0030
1000
0010
0000
0000
0000
1100
0000
0000
0000
,
0001
0100
0010
1000
,
0021
0030
0000
0000
0100
0000
0000
0000
1000
0000
0000
0000
0100
0000
0000
0000
,
0102
0003
0010
0000
0100
0000
1000
0000
,
0110
0000
0001
0000
0010
0000
0100
1000
,
0010
1000
0100
0010
0001
0100
0010
0100
,
0001
1000
0100
1000
0001
0010
0100
1000
,
0010
0000
0100
0000
0001
0000
1000
0000
0200
0000
0000
0000
0010
0300
0000
0000
,
0100
0000
1000
0000
0001
0100
0000
0010
1000
0000
0001
0000
0010
0000
0001
0000
,
1200
0000
0010
0000
0000
1000
0000
0000
0010
0000
0000
0010
0300
0000
1000
0000
,
0201
0000
0010
0000
0000
0001
0000
0000
0010
0000
0000
0010
0300
0000
0001
0000
,
1200
0000
0010
0000
0000
1000
0000
0000
0010
0000
0000
1000
0300
0000
1000
0000
,
0201
0000
0010
0000
0000
0001
0000
0000
0010
0000
0300
0000
0100
0000
0010
0000
,
0101
0000
1000
0000
0000
0010
0000
0000
0100
0000
0000
0001
0000
0000
0100
0000
,
2001
0000
3100
0000
0000
0010
0000
0000
0001
0000
0000
1000
0000
0000
0010
0000
,
1001
0000
0110
0000
0000
1001
0000
0000
0110
0000
0000
0001
0000
0000
0001
0000
,
1020
0030
0100
0001
0000
1000
0010
0000
1000
0200
0000
0000
0310
0000
0000
0000
,
0201
0300
0010
0000
1000
0000
0100
0000
1000
0000
0010
0000
1000
0000
0001
0000
,
0110
1000
0001
0100
0001
1000
0001
0010
,
1200
0300
0010
0000
0001
0000
0100
0000
0010
0000
1000
0000
0100
0000
1000
0000
,
0101
0000
1000
0010
0000
0100
0001
0000
1000
0010
0000
0000
0110
0000
0000
0000
,
0201
0300
0010
0000
0000
2000
3000
0000
0001
0000
0000
0010
0000
0000
0100
0000
,
1200
0300
0010
0000
0000
0002
0003
0000
0100
0000
0000
0010
0000
0000
0100
0000
,
0201
0300
0010
0000
0000
1000
0000
0000
0100
0000
0000
1000
0000
0000
0001
0000
,
0110
0000
0001
1000
0000
0010
0100
0000
0001
0000
0010
0000
0200
0000
1300
0000
,
0010
0001
0010
0100
0010
0001
0010
0100
,
1000
0100
0010
0100
1000
0100
0010
0100
,
1000
0000
0001
0000
0100
0000
0010
0000
2000
0000
0000
0100
3000
0000
0100
0000
,
1000
0000
0001
0010
0000
0100
1000
0001
0010
0000
0000
0000
1010
0000
0000
0000
,
0001
0100
0010
0100
0001
1000
0100
1000
,
0001
0010
0100
1000
0001
0010
0100
1000
,
0001
0000
1000
0000
0010
0000
0100
0000
0002
0000
0000
0010
0003
0000
0010
0000
,
0001
0000
1000
0100
0000
0010
0001
2000
0100
3000
0000
0100
0010
0001
0010
0000
,
0100
1000
0100
1000
0001
0100
0001
0010
,
0100
0010
0100
1000
0001
0010
0001
0100
,
0010
1000
0010
0100
0001
1000
0100
0010
,
0001
0000
0200
0000
0010
0000
0000
0300
0010
0000
0000
1000
0000
0000
0100
0000
,
0010
0001
0100
0001
1000
0010
1000
0100
,
0010
0100
1000
0001
1000
0100
1000
0001
,
0010
0001
0100
0010
1000
0001
0100
0010
,
1000
0000
0020
0000
0100
0000
0000
0030
0100
0000
0000
0001
0000
0000
0010
0000
,
0001
0100
0010
1000
0100
1000
0010
0100
,
0001
0010
0100
0010
0001
1000
0010
0100
,
0010
1000
0001
0100
0010
1000
0001
0100
,
0010
1000
0100
0010
0001
1000
0100
0010
,
0001
0100
0010
0100
0001
1000
0100
0010
,
0100
0010
0001
1000
0010
0100
0001
0010
,
0001
0000
2000
0000
0010
3000
0002
0000
0100
0003
2000
0000
0100
3000
0020
0000
,
0100
0030
2000
0000
0010
0000
3002
0000
0010
0003
0200
0000
0010
0300
0001
0000
,
1000
0000
0100
0000
1000
0100
0020
0000
,
0001
0000
0000
0030
0200
0000
1000
0000
0000
0000
0010
0000
0300
0000
0010
0000
,
0001
0000
0100
0000
0020
0000
0000
0000
1000
0000
0000
0030
0100
0000
0010
0000
,
1000
0000
0000
0000
0001
0000
0000
0000
0020
0000
0000
0000
0100
0000
0000
0030
,
0001
0000
1000
0000
0010
0100
0020
0000
,
1000
0000
0030
0000
1000
0000
0002
0000
0000
0000
0010
0003
0000
0000
0001
0000
,
0010
0000
0100
0000
2000
0000
0000
0000
0001
0000
0000
3000
0010
0000
1000
0000
,
0010
0100
0001
1000
0010
0000
0100
0001
,
0000
0010
0000
0000
0100
0000
1000
0020
,
0000
0100
0000
0000
1030
0000
0010
0100
,
0000
0002
0000
0003
0010
0100
1000
0000
,
0001
0000
0100
0010
0100
0000
0001
1000
,
0000
0010
0000
0000
0100
0000
0010
1000
,
0000
0100
0000
0000
0010
0000
0100
0010
,
0000
0001
0000
0000
1000
0010
0100
0000
,
0010
1000
0001
0020
0001
0030
0100
0000
,
0010
0001
0010
0000
0000
0001
0000
0000
0010
0000
0000
0100
0000
0000
0010
0000
,
0001
0010
0001
0000
0000
1000
0000
0000
0010
0000
0000
0100
0000
0000
0010
0000
,
1000
0001
1000
0000
0000
0010
0000
0000
0100
0000
0000
0010
0000
0000
1000
0000
,
0001
1000
0002
0000
0000
0100
0000
0003
2000
0000
0000
3200
0000
0300
0010
0000
,
0100
1000
0100
0000
0010
0000
0001
0000
0100
0000
0010
0000
0100
0000
0001
0000
,
0010
0100
0010
0000
0001
0000
0100
0000
0010
0000
1000
0000
0001
0000
0100
0000
,
0010
1000
0010
0000
0100
0000
0001
0000
1000
0000
0010
0000
1000
0000
0001
0000
,
0100
0010
0200
0000
0000
0001
0300
0000
0010
0000
0000
1000
0000
0000
0100
0000
,
1000
0001
0010
0100
1000
0010
0100
0010
,
1000
0001
0010
0001
1000
0010
1000
0100
,
0010
0100
0010
0001
0100
0010
1000
0001
,
0010
0000
0001
0000
0100
0000
0020
0000
0000
1000
0000
0030
0100
0000
0010
0000
,
1000
0001
0010
0100
1000
0010
0100
0010
,
1000
0100
0010
0100
1000
0100
0010
0001
,
0100
0000
0010
0000
1000
0000
0001
0000
0020
0000
0000
0000
0100
0030
0000
0000
,
0010
0000
0001
0000
1000
0010
0000
0100
0001
0000
1000
0000
0100
0000
0000
0000
,
1020
0030
0100
0000
0001
0000
0010
0000
0001
0000
0100
0000
0001
0000
1000
0000
,
0110
0001
1000
0010
1000
0001
1000
0100
,
0021
0030
0100
0000
1000
0000
0010
0000
0100
0000
0001
0000
0010
0000
0001
0000
,
1010
0000
0001
0100
0000
0010
1000
0000
0001
0100
0000
0000
0110
0000
0000
0000
,
1020
0030
0100
0000
0000
0002
0003
0000
0010
0000
0000
0100
0000
0000
0010
0000
,
0021
0030
0100
0000
0000
1000
0000
0000
0001
0000
0000
0100
0000
0000
0010
0000
,
1020
0030
0100
0000
0000
0001
0000
0000
0010
0000
0000
0100
0000
0000
1000
0000
,
0110
0000
1000
0001
0000
0100
0010
0000
1000
0000
0100
0000
0020
0000
0031
0000
,
0100
1000
0100
0010
0100
1000
0100
0010
,
0001
0010
0100
0010
0001
0010
0100
0010
,
0001
0000
1000
0000
0010
0000
0100
0000
0002
0000
0000
0010
0003
0000
0010
0000
,
0001
0000
1000
0100
0000
0010
0001
1000
0100
0000
0000
0000
0101
0000
0000
0000
,
1000
0010
0100
0010
1000
0001
0010
0001
,
1000
0100
0010
0001
1000
0100
0010
0001
,
1000
0000
0001
0000
0100
0000
0010
0000
2000
0000
0000
0100
3000
0000
0100
0000
,
1000
0000
0001
0010
0000
0100
1000
0002
0010
0003
0000
0010
0100
1000
0100
0000
,
0010
0001
0010
0001
1000
0010
1000
0001
,
0100
0010
0100
0001
1000
0100
1000
0010
,
0100
0001
1000
0001
0010
0100
1000
0001
,
1000
0000
0020
0000
0100
0000
0000
0030
0100
0000
0000
0001
0000
0000
0010
0000
,
0100
1000
0010
1000
0001
0100
0001
1000
,
0100
1000
0010
0100
0001
0010
0001
0100
,
0010
0100
0001
1000
0100
0010
0001
1000
,
0001
0000
0200
0000
0010
0000
0000
0300
0010
0000
0000
1000
0000
0000
0100
0000
,
1000
0010
0100
0001
0010
0001
0100
0010
,
1000
0100
0010
0100
1000
0001
0100
0010
,
0100
0001
1000
0010
0100
0001
1000
0010
,
0100
0001
0010
0100
1000
0001
0010
0100
,
1000
0010
0100
0010
1000
0001
0010
0100
,
0010
0100
1000
0001
0100
0010
1000
0100
,
1000
0001
0010
0001
1000
0100
0010
0001
,
0100
0000
0010
0000
0000
1000
0000
0000
0100
0000
0000
0010
0000
0000
0200
0000
,
2000
0000
0000
0000
0000
0000
0300
3000
,
0001
0100
0000
0000
0000
0000
0000
0000
0000
0000
0000
0000
0000
0000
0000
0000
;

//--------------- dance-single - RxSteps ----------------
#NOTES:
     dance-single:
     RxSteps:
     Hard:
     10:
     0,0,0,0,0:
0000
0000
0000
0000
,
0001
0100
0000
0000
0001
0000
0000
0000
1000
0000
0000
0000
0010
0000
0100
0000
,
0010
1000
0000
0000
0100
0000
0000
0000
0010
0000
0000
0000
0001
0000
0010
0000
,
0100
1000
0000
0000
0001
0000
0000
0000
0100
0000
0000
0000
0010
0000
1000
0000
,
0001
0010
0200
0000
0000
1000
0300
0010
0001
0000
0000
1000
0100
0000
1000
0000
,
0010
0100
0010
0000
1000
0000
0001
0000
0100
0000
0010
0000
1000
0000
0001
0000
,
0010
0100
1000
0000
0100
0000
0010
0000
0001
0000
1000
0000
0010
0000
0100
0000
,
0001
1000
0010
0000
0100
0000
0001
0000
2000
3000
0000
0200
0300
0000
0010
0000
,
0001
0010
0200
0000
0000
1000
0300
0010
0001
0000
0000
0000
0102
0000
0003
0000
,
0010
0001
0010
0000
0100
0000
1000
0000
0010
0000
0100
0000
0010
0000
1000
0000
,
0001
0100
0010
0000
0100
0000
0001
0000
0020
0030
1000
0000
0010
0000
0001
0000
,
0010
0100
0010
0000
0001
0000
1000
0000
0200
0300
0001
0000
0200
0300
1000
0000
,
0100
0010
0200
0000
0000
1300
0000
0100
0010
0000
0001
0000
0100
0000
0010
0000
,
1000
0001
0100
0000
0010
0000
0100
0000
0001
0000
0010
0000
0100
0000
1000
0000
,
0001
1000
0010
0000
0100
0000
0010
0000
1000
0000
0100
0000
0010
0000
0001
0000
,
0100
0010
1000
0000
0001
0000
0100
0000
0010
0000
1000
0000
0001
0000
0100
0000
,
0001
1000
0020
0000
0000
0100
0030
1000
0010
0000
0000
0000
1100
0000
0000
0000
,
0001
0100
0010
1000
,
0021
0030
0000
0000
0100
0000
0000
0000
1000
0000
0000
0000
0100
0000
0000
0000
,
0102
0003
0010
0000
0100
0000
1000
0000
,
0110
0000
0001
0000
0010
0000
0100
1000
,
0010
0000
1000
0000
0100
0000
0010
0000
0001
0000
0200
0300
1000
0000
0100
0000
,
0001
0000
0020
0030
1000
0000
0010
0000
0001
0000
0010
0000
0100
0000
1000
0000
,
0010
0000
0100
0000
0001
0000
0020
0000
0230
0000
0000
0000
0001
0300
0000
0000
,
0100
0000
1000
0000
0001
0100
0000
0010
1000
0000
0001
0000
0010
0000
0001
0000
,
1200
0000
0010
0000
0000
1000
0000
0000
0001
0000
0000
0010
0300
0000
1000
0000
,
0201
0000
0010
0000
0000
0001
0000
0000
1000
0000
0000
0010
0300
0000
0001
0000
,
1200
0000
0010
0000
0000
0001
0000
0000
0010
0000
0000
0010
0300
0000
1000
0000
,
0201
0000
0010
0000
0000
0001
0000
0000
1000
0000
0300
0000
0100
0000
0010
0000
,
0101
0000
1000
0000
0000
0020
0000
0000
0001
0030
0000
0010
0000
0000
0100
0000
,
2001
0000
3100
0000
0000
0020
0000
0000
1000
0030
0000
0010
0000
0000
0100
0000
,
1001
0000
0110
0000
0000
1001
0000
0000
0110
0000
0000
0001
0000
0000
0001
0000
,
1020
0030
0100
0001
0000
1000
0010
0000
1000
0200
0000
0000
0310
0000
0000
0000
,
0201
0300
0010
0000
1000
0000
0100
0000
1000
0000
0010
0000
1000
0000
0001
0000
,
0110
1000
0001
0100
0001
1000
0001
0010
,
1200
0300
0010
0000
0001
0000
0100
0000
0010
0000
1000
0000
0100
0000
1000
0000
,
0101
0000
1000
0010
0000
0100
0001
0000
1000
0010
0000
0000
0110
0000
0000
0000
,
0201
0300
0010
0000
0000
2000
3000
0000
0200
0000
0000
0301
0000
0000
0100
0000
,
1200
0300
0010
0000
0000
0002
0000
0003
0200
0000
0000
1300
0000
0000
0100
0000
,
0201
0300
0010
0000
0000
1000
0000
0000
0100
0000
0000
1000
0000
0000
0001
0000
,
0110
0000
1000
0001
0000
1000
0010
0000
0200
0000
1300
0000
0001
0000
0010
0000
,
1000
0000
0200
0300
0001
0000
0100
0000
1000
0000
0200
0300
0001
0000
0100
0000
,
1000
0000
0020
0030
0001
0000
0010
0000
1000
0000
0020
0030
0001
0000
0010
0000
,
1000
0000
0100
0000
0010
0000
0100
0000
2000
0000
0000
0100
3000
0000
0100
0000
,
1000
0000
0001
0010
0000
0100
1000
0001
0100
0000
0000
0000
1100
0000
0000
0000
,
0001
0000
0200
0300
1000
0000
0100
0000
0001
0000
0200
0300
1000
0000
0100
0000
,
0001
0000
0020
0030
1000
0000
0010
0000
0001
0000
0020
0030
1000
0000
0010
0000
,
0001
0000
0010
0000
0100
0000
0010
0000
0002
0000
0000
0010
0003
0000
0010
0000
,
0001
0000
1000
0100
0000
0010
0001
2000
0010
3000
0000
0010
1000
0001
0100
0000
,
0010
0000
1000
0000
0100
0000
1000
0000
0001
0000
0100
0000
0001
0000
0020
0030
,
1000
0000
0001
0000
0100
0000
1000
0000
0001
0000
0010
0000
0001
0000
0200
0300
,
1000
0000
0001
0000
0010
0000
1000
0000
0100
0000
0010
0000
0001
0000
0200
0300
,
1000
0000
0200
0000
0010
0000
0000
0300
0010
0000
0000
1000
0000
0000
0100
0000
,
0010
0000
0001
0000
0100
0000
0001
0000
1000
0000
0010
0000
1000
0000
0200
0300
,
0001
0000
1000
0000
0010
0000
0001
0000
1000
0000
0100
0000
1000
0000
0020
0030
,
0001
0000
1000
0000
0100
0000
0001
0000
0010
0000
0100
0000
1000
0000
0020
0030
,
0001
0000
0020
0000
0100
0000
0000
0030
0100
0000
0000
0001
0000
0000
0010
0000
,
0001
0100
0010
1000
0100
1000
0010
0100
,
0001
0010
0100
0010
0001
1000
0010
0100
,
0010
1000
0001
0100
0010
1000
0001
0100
,
0010
1000
0100
0010
0001
1000
0100
0010
,
0001
0100
0010
0100
0001
1000
0100
0010
,
0100
0010
0001
1000
0010
0100
0001
0010
,
0001
0000
2000
0000
0010
3000
0002
0000
0100
0003
2000
0000
0100
3000
0020
0000
,
0100
0030
2000
0000
0010
0000
3002
0000
0010
0003
0200
0000
0010
0300
0001
0000
,
1000
0000
0100
0000
1000
0100
0020
0000
,
0001
0000
0000
0030
0200
0000
1000
0000
0000
0000
0010
0000
0300
0000
0010
0000
,
0001
0000
0100
0000
0020
0000
0000
0000
1000
0000
0000
0030
0100
0000
0010
0000
,
1000
0000
0000
0000
0001
0000
0000
0000
0020
0000
0000
0000
0100
0000
0000
0030
,
0001
0000
1000
0000
0010
0100
0020
0000
,
1000
0000
0030
0000
1000
0000
0002
0000
0000
0000
0010
0003
0000
0000
0001
0000
,
0010
0000
0100
0000
2000
0000
0000
0000
0001
0000
0000
3000
0010
0000
1000
0000
,
0010
0100
0001
1000
0010
0000
0100
0001
,
0000
0010
0000
0000
0100
0000
1000
0020
,
0000
0001
0000
0000
1030
0000
0010
0100
,
0000
0002
0000
0003
0010
0100
1000
0000
,
0001
0000
0100
0010
0100
0000
0001
1000
,
0000
0010
0000
0000
0100
0000
0010
1000
,
0000
0100
0000
0000
0010
0000
0100
0010
,
0000
0001
0000
0000
1000
0010
0100
0000
,
0010
1000
0001
0100
0010
0200
1000
0300
,
0100
0010
0100
0000
0000
0001
0000
0000
0010
0000
0000
0100
0000
0000
0010
0000
,
0001
0010
0001
0000
0000
1000
0000
0000
0010
0000
0000
0100
0000
0000
0010
0000
,
1000
0001
0100
0000
0000
0010
0000
0000
1000
0000
0000
0100
0000
0000
0010
0000
,
0001
1000
0020
0000
0000
0100
0000
0000
2030
0000
0000
3200
0000
0300
0010
0000
,
0100
1000
0100
0000
0010
0000
0001
0000
0100
0000
0010
0000
0100
0000
0001
0000
,
0010
0100
1000
0000
0010
0000
0100
0000
0010
0000
1000
0000
0001
0000
0100
0000
,
0010
1000
0100
0000
0010
0000
0001
0000
0010
0000
0100
0000
0010
0000
0001
0000
,
1000
0010
0200
0000
0000
0001
0300
0000
0010
0000
0000
1000
0000
0000
0100
0000
,
1000
0000
0001
0000
0010
0000
0100
0000
1000
0000
0020
0030
0001
0000
0010
0000
,
1000
0000
0200
0300
0001
0000
0100
0000
1000
0000
0010
0000
1000
0000
0200
0300
,
0001
0000
1000
0000
0010
0000
0001
0000
0100
0000
0010
0000
1000
0000
0020
0030
,
0001
0000
1000
0000
0100
0000
0020
0000
0000
1000
0000
0030
0100
0000
0010
0000
,
1000
0000
0001
0000
0010
0000
0100
0000
1000
0000
0020
0030
0001
0000
0010
0000
,
1000
0000
0200
0300
0001
0000
0100
0000
1000
0000
0100
0000
0010
0000
0001
0000
,
0100
0000
0010
0000
1000
0000
0200
0000
0320
0000
0000
0000
1000
0030
0000
0000
,
0010
0000
0001
0000
1000
0010
0000
0100
0001
0000
1000
0000
0100
0000
0000
0000
,
1020
0030
0100
0000
0001
0000
0010
0000
0001
0000
0100
0000
0001
0000
1000
0000
,
0110
0001
1000
0010
1000
0001
1000
0100
,
0021
0030
0100
0000
1000
0000
0010
0000
0100
0000
0001
0000
0010
0000
0001
0000
,
1010
0000
0001
0100
0000
0010
1000
0000
0001
0100
0000
0000
0110
0000
0000
0000
,
1020
0030
0100
0000
0000
0002
0003
0000
0020
0000
0000
1030
0000
0000
0010
0000
,
0021
0030
0100
0000
0000
2000
0000
3000
0020
0000
0000
0031
0000
0000
0010
0000
,
1020
0030
0100
0000
0000
0001
0000
0000
0010
0000
0000
0100
0000
0000
1000
0000
,
0110
0000
0001
1000
0000
0001
0100
0000
0020
0000
0031
0000
1000
0000
0100
0000
,
0001
0000
0020
0030
1000
0000
0010
0000
0001
0000
0020
0030
1000
0000
0010
0000
,
0001
0000
0200
0300
1000
0000
0100
0000
0001
0000
0200
0300
1000
0000
0100
0000
,
0001
0000
0010
0000
0100
0000
0010
0000
0002
0000
0000
0010
0003
0000
0010
0000
,
0001
0000
1000
0100
0000
0010
0001
1000
0010
0000
0000
0000
0011
0000
0000
0000
,
1000
0000
0020
0030
0001
0000
0010
0000
1000
0000
0020
0030
0001
0000
0010
0000
,
1000
0000
0200
0300
0001
0000
0100
0000
1000
0000
0200
0300
0001
0000
0100
0000
,
1000
0000
0100
0000
0010
0000
0100
0000
2000
0000
0000
0100
3000
0000
0100
0000
,
1000
0000
0001
0010
0000
0100
1000
0002
0100
0003
0000
0100
0001
1000
0010
0000
,
0100
0000
0001
0000
0010
0000
0001
0000
1000
0000
0010
0000
1000
0000
0200
0300
,
0001
0000
1000
0000
0010
0000
0001
0000
1000
0000
0100
0000
1000
0000
0020
0030
,
0001
0000
1000
0000
0100
0000
0001
0000
0010
0000
0100
0000
1000
0000
0020
0030
,
0001
0000
0020
0000
0100
0000
0000
0030
0100
0000
0000
0001
0000
0000
0010
0000
,
0100
0000
1000
0000
0010
0000
1000
0000
0001
0000
0100
0000
0001
0000
0020
0030
,
1000
0000
0001
0000
0100
0000
1000
0000
0001
0000
0010
0000
0001
0000
0200
0300
,
1000
0000
0001
0000
0010
0000
1000
0000
0100
0000
0010
0000
0001
0000
0200
0300
,
1000
0000
0200
0000
0010
0000
0000
0300
0010
0000
0000
1000
0000
0000
0100
0000
,
1000
0010
0100
0001
0010
0001
0100
0010
,
1000
0100
0010
0100
1000
0001
0100
0010
,
0100
0001
1000
0010
0100
0001
1000
0010
,
0100
0001
0010
0100
1000
0001
0010
0100
,
1000
0010
0100
0010
1000
0001
0010
0100
,
0010
0100
1000
0001
0100
0010
1000
0100
,
1000
0000
0200
0300
0001
0000
0100
0000
1000
0000
0100
0000
0010
0000
0001
0000
,
0100
0000
0010
0000
0000
1000
0000
0000
0100
0000
0000
0010
0000
0000
0200
0000
,
2000
0000
0000
0000
0000
0000
0300
3000
,
0001
0100
0000
0000
0000
0000
0000
0000
0000
0000
0000
0000
0000
0000
0000
0000
;
