#TITLE:World Is Mine;
#SUBTITLE:Rhythm Heaven Custom Remix;
#ARTIST:Ryo, Hatsune Miku, Angry Tapper;
#TITLETRANSLIT:;
#SUBTITLETRANSLIT:;
#ARTISTTRANSLIT:;
#GENRE:;
#CREDIT:RxSteps;
#MUSIC:World Is Mine (Rhythm Heaven Custom Remix).ogg;
#BANNER:World Is Mine (Rhythm Heaven Custom Remix).png;
#BACKGROUND:World Is Mine (Rhythm Heaven Custom Remix)-bg.png;
#CDTITLE:cdtitle.png;
#SAMPLESTART:61.107;
#SAMPLELENGTH:27.636;
#SELECTABLE:YES;
#OFFSET:-0.016;
#BPMS:0.000=165.000
,658.000=140.000
,662.000=139.000
,663.000=56.000
,669.500=54.000
;
#STOPS:;
#BGCHANGES:0.000=World Is Mine (Rhythm Heaven Custom Remix).avi=1.000=0=0=0=StretchNoLoop====;
#FGCHANGES:;

//--------------- dance-single - RxSteps ----------------
#NOTES:
     dance-single:
     RxSteps:
     Beginner:
     4:
     0,0,0,0,0:
0000
0000
0000
0000
,
0000
0000
0000
0000
,
1000
0000
0000
0000
,
0010
0000
0000
0000
,
0100
0000
0000
0000
,
0001
0000
0000
0000
,
0001
0000
0010
0000
,
0100
0000
1000
0000
,
0001
0000
0000
0000
0000
0000
0000
0000
0000
0000
0000
0000
0000
0000
0000
0000
0000
0000
0000
0010
0000
0000
0000
0000
0000
0000
0000
0000
0000
0000
0000
0000
,
0000
0000
0000
0000
0000
0100
0000
0000
0000
0000
0000
0000
0000
0000
0000
0000
0000
0000
0000
0000
0000
0000
0000
0000
0000
0000
0000
2000
0000
0000
0000
0000
,
0000
0000
0000
0000
,
0000
0000
0000
0000
,
3000
0000
0000
0000
,
0000
0010
0000
1000
,
0000
0001
0000
0100
,
0001
0100
0000
0001
,
0000
0000
0000
0100
0000
0000
0010
0000
,
0000
1000
0000
0010
,
0000
0100
0000
0000
0000
0000
0010
0000
,
0000
1000
0000
0001
,
0000
0010
0000
0001
,
0000
0000
0100
0000
,
0100
0000
0000
0100
0000
0000
0000
0000
,
0100
0000
0000
0001
,
0010
0000
0001
0000
,
0000
1000
0000
0000
0010
0000
0000
0000
,
0010
0000
0010
0000
,
0100
0000
0000
0000
0001
0000
0000
0001
,
0000
0000
1000
0010
,
0000
1000
0010
1000
,
0000
0001
0000
0010
,
0000
0001
0000
0100
,
0000
0010
0100
0010
,
0000
1000
0000
0001
,
0000
0100
0000
0010
,
0000
1000
0010
0000
,
0010
0000
0010
1000
,
0010
1000
0000
0001
,
0000
0100
0000
0010
,
0000
0000
0100
0000
0001
0000
0000
1000
,
0000
0000
0010
0100
,
0100
0000
0000
1001
,
0000
0000
0000
0110
,
0000
0000
1000
0000
,
0001
0000
0010
0000
,
0001
0000
1000
0010
,
0000
0100
0000
0010
,
0000
2000
0000
3000
,
0000
1000
0000
0010
,
0100
0010
0000
1000
,
0000
0001
0000
0010
,
0000
0001
0000
0010
,
0000
0100
0000
1000
,
0000
0000
0001
0000
0100
0000
0000
0100
,
0000
0100
0001
0100
,
0001
0000
2000
0000
0000
3000
0000
0000
,
0010
0000
0000
0100
,
0000
0010
0000
1000
,
0000
0001
0100
0001
,
0100
0010
0000
1000
,
0000
0100
0000
0010
,
0000
0001
0000
0010
,
0000
0100
0000
2000
,
0000
0000
3000
0000
,
0000
0001
0000
0100
,
0000
0010
0000
1000
,
0010
1000
0000
0001
,
0000
0100
0000
0001
,
0100
0001
0000
0010
,
0000
0001
0000
1000
,
0000
0020
0000
0000
,
0000
0000
0000
0030
,
0000
1000
0010
0000
,
0010
0000
0000
0010
0000
0000
0010
0000
,
0000
0010
0000
0000
1000
0000
0001
0000
,
1000
0000
0010
0000
,
1000
0010
0000
0100
,
0000
0100
0000
0000
0100
0000
0000
0000
,
0100
0000
0000
0000
0001
0000
0000
0001
,
0000
0000
0000
0000
0000
0100
0000
0001
,
0000
0000
0000
1000
0000
0000
0000
0010
,
0000
1000
0000
0000
0000
0000
0001
0000
,
0000
1000
0000
0100
,
0000
1000
0100
1000
,
0000
0001
0000
0010
,
0000
0001
0000
1000
,
0000
0000
0010
0000
,
0100
0000
0001
0001
,
0100
0001
0000
0010
,
0000
0001
0000
1000
,
0000
0000
0010
0000
0000
1000
0000
0000
,
0001
0000
0100
0001
,
0100
0000
0000
0110
,
0000
0000
0000
1001
,
0000
0001
0000
1000
,
0000
0100
0000
0010
,
0000
0001
0010
0001
,
0000
1000
0000
0010
,
0000
0200
0000
0300
,
0000
0001
0000
0100
,
0000
0010
0000
1000
,
0010
1000
0000
0001
,
0000
0100
0000
0010
,
0000
1000
0000
0001
,
0000
0100
0001
0100
,
0001
0000
0000
0000
0000
1000
0000
0000
,
0010
2000
0000
3000
,
0000
0010
0000
0100
,
0000
0001
0000
1000
,
0000
0100
0000
0010
,
0000
0001
0000
0010
,
0000
0100
0000
1000
,
0000
0002
0000
0003
,
0000
0200
0000
0300
,
0000
0010
0000
0010
,
0000
1000
0000
0001
,
0000
0100
0000
0100
,
0000
0001
0000
1000
,
0000
1000
0000
0010
,
0000
0200
0300
0000
,
0001
0000
0010
0000
,
0200
0300
0000
1000
,
0000
0001
0000
0100
,
0000
0001
0000
0001
,
0000
0010
0000
0001
,
0000
2000
0000
3000
,
0000
0010
0000
0100
,
0000
0001
0100
0001
,
0000
1000
0000
0010
,
0000
2000
3000
0020
,
0030
0100
0000
0001
,
0000
0100
0000
0010
,
0000
1000
0000
0001
,
0000
0010
0001
0010
,
0000
0001
0000
1000
,
0000
0000
0010
0000
0000
2000
0000
0000
,
0000
0000
0000
0002
0000
0000
0000
0000
,
0000
0000
3000
0003
,
0000
1000
0000
0100
,
0000
0010
0000
0001
,
0000
1000
0010
1000
,
0000
0001
0100
0010
,
0000
0020
0000
0030
,
0000
1000
0000
0001
,
0000
0100
0000
0010
,
0000
1000
0000
0100
,
0000
0010
0000
0001
,
0000
0010
0000
0001
,
0000
1000
0010
0000
,
0010
0000
0000
0000
0000
0100
0000
0000
,
0010
0100
0000
0001
,
0000
1000
0001
1000
,
0000
0010
0000
0100
,
0000
0001
0000
0010
,
0000
0001
0000
0010
,
0000
0100
0000
1000
,
0000
0001
0000
0100
,
0000
0010
0000
2000
,
0000
0000
3000
0000
,
0000
0010
0000
0100
,
0000
0001
0000
0010
,
0000
0001
0000
0100
,
0001
0100
0000
0010
,
1000
0000
1000
0010
,
0100
0010
0000
2000
,
0000
3000
0000
0001
,
0200
0000
0020
0000
,
0000
0000
0330
0000
,
1001
0000
0000
0000
;

//--------------- dance-single - RxSteps ----------------
#NOTES:
     dance-single:
     RxSteps:
     Easy:
     7:
     0,0,0,0,0:
0000
0000
0000
0000
,
0000
0000
0000
0000
,
0001
0000
0100
0010
,
1000
0000
0100
1000
,
0001
0010
0100
1000
,
0010
0100
0010
1000
,
0002
0003
0020
0030
,
0200
0300
1000
0010
,
2000
0000
0000
0000
0000
0000
0000
0000
0000
0000
0000
0000
0000
0000
0000
0000
0000
0000
0000
0200
0000
0000
0000
0000
3000
0000
0000
0000
0000
0000
0000
0000
,
0000
0000
0000
0000
0000
0020
0000
0000
0000
0000
0000
0000
0000
0000
0000
0000
0300
0000
0000
0000
0000
0000
0000
0000
0000
0000
0000
0002
0000
0000
0000
0000
,
0000
0000
0000
0000
,
0000
0000
0000
0000
0003
0000
0000
0000
0000
0000
0000
0000
0000
0200
0000
0000
,
0330
1001
0000
0000
,
1000
0000
0001
0100
0001
0000
1000
0000
,
0010
0100
0001
1000
,
1000
0000
0001
0100
0001
0000
2000
0000
,
0010
0000
0000
3010
0000
0000
1010
0000
,
1000
0000
0001
0100
0001
0000
0010
0000
,
0000
0001
0000
1000
0010
0000
0100
0000
,
0010
1000
0001
0010
,
0100
1000
0100
0010
,
0001
0100
0010
0100
,
0010
0100
0000
0010
0100
0000
0100
0000
,
0010
1000
0001
0100
,
0100
0000
0001
0100
0001
0100
0000
0100
,
0000
0001
0100
0000
0010
0000
1000
0000
,
0010
0100
0010
1000
,
0010
0000
0100
0000
0001
0100
0000
0100
,
0001
0100
0000
0010
0000
1000
0000
0010
,
0000
0100
0010
0000
1000
0000
0001
0000
,
0010
0100
1000
0001
,
0100
0010
1000
0010
,
0100
0001
0001
2000
,
3000
0010
0100
0001
,
0010
0100
1000
0001
,
0010
0100
1000
0001
,
1000
0010
0100
0100
,
0001
1000
0010
2000
,
3000
0001
0010
0200
,
0300
0010
0001
0010
,
0100
1000
0001
0100
,
0100
0001
0010
0001
,
0001
1000
0100
1000
,
1000
0001
0100
0010
,
0100
0001
1000
0010
,
0100
0001
0001
0100
,
0010
1000
0010
1010
,
0000
1000
0001
0010
,
0001
0010
0001
0000
0010
0000
0100
0000
,
1000
0000
0001
0000
0100
0001
0100
0000
,
0001
1000
0010
0100
,
0100
0010
1000
0001
,
0100
0010
1000
0001
,
0100
0000
0010
0000
1000
0010
0000
0010
,
1000
0001
0100
0100
,
0001
1000
0100
0010
,
0001
0010
0001
0000
0010
0000
0100
0000
,
0100
1000
0001
0100
,
0010
0100
0001
0001
,
0010
0100
0100
1000
,
1000
0000
0010
0000
0020
0000
0200
0330
,
0000
1001
0000
0001
,
0000
0100
0001
0000
0000
0001
0200
0000
,
0000
0000
0000
0000
,
0300
0000
0010
1000
0010
0000
0100
0000
,
0001
0010
0100
1000
,
1100
0000
1000
0100
0010
0000
0001
0000
,
0010
0001
1000
0010
,
0010
0000
0100
0001
0100
0000
0010
0000
,
0000
0100
0000
0001
0000
0000
1000
0000
,
0010
0100
0010
1000
,
0001
0100
0010
1000
,
0001
0100
0100
0010
,
1000
0010
0000
0010
1000
0000
1000
0010
,
0000
0010
1000
0000
0001
0000
0100
0000
,
0001
0000
0100
0010
0100
0010
0000
0010
,
0100
0010
0100
0000
0002
0000
0010
0000
,
0000
0010
0000
0003
0010
0000
0001
0000
,
0010
0000
0100
0000
0100
1000
0000
0100
,
0000
0010
0000
0001
0000
0100
0000
0100
,
0000
0001
0200
0000
0000
0300
0000
0010
,
0100
0010
0100
0000
0001
0000
1000
0000
,
0010
0000
1000
0000
0001
0000
0100
0001
,
0100
0001
0100
0000
0010
0000
1000
0000
,
0100
1000
1000
0010
,
0010
0100
0100
0001
,
0001
1000
1000
0010
,
0100
0001
0010
0010
,
0100
1000
0001
0001
,
0010
0100
1000
1000
,
0020
0000
0100
0000
0000
0100
0000
0030
,
0100
0010
1000
0100
,
0100
0010
0001
0010
,
0010
0100
1000
0001
,
0001
1000
0010
0100
,
0001
0001
0100
0010
,
1000
0010
0100
0001
,
0020
0000
0200
0330
0000
0000
1001
0000
,
0000
1000
0010
0100
,
0010
1000
0010
0000
0100
0000
0001
0000
,
0100
0000
0010
0000
1000
0010
1000
0000
,
1000
0001
0010
0100
,
1000
0020
0030
0200
,
0300
0002
0003
0020
,
0030
0001
0010
0100
,
1000
0000
0100
1000
0000
1000
0100
0000
,
0010
0002
0000
0003
,
0100
0001
0200
0000
0310
0000
1001
0000
,
1000
0010
0100
0001
,
0100
0010
0010
1000
,
1000
0001
0001
0010
,
0010
0100
0100
1000
,
1000
0000
0001
0000
0000
0100
0000
0010
,
0000
2000
0000
0000
0000
3000
0000
0000
,
0001
0200
0002
0303
0000
0000
1100
0000
,
0000
0001
0010
0001
,
1000
0000
0100
1000
0100
0000
0010
0000
,
0002
0000
2000
3003
0000
0000
0110
0000
,
0000
1000
1000
0010
,
0010
0100
0200
0300
,
0002
0003
0020
0030
,
0200
0300
2000
3000
,
0001
0000
1000
0000
0010
0100
0010
0000
,
1000
0000
0001
1000
0001
0000
0100
0000
,
0001
0010
0100
1000
,
0001
0000
1000
0100
0000
0000
0100
0010
,
0001
0020
0030
0200
,
0300
1000
1000
0002
,
0003
0200
0300
0020
,
0030
0000
1000
0010
1000
0000
0001
0100
,
0001
2000
3000
0020
,
0030
0000
0100
0010
0100
0000
0002
0000
,
0003
0200
0300
0020
,
0030
1000
1000
0200
,
0300
0000
1000
0100
1000
0000
0002
0000
,
0003
0000
0100
0000
0000
0010
0000
0000
,
0000
0000
0010
1000
0000
0000
0001
0100
,
0002
0000
0000
0000
,
0003
0020
0030
0200
,
0300
2000
3000
0002
,
0003
0000
0100
0001
0100
0000
0010
0000
,
2000
0000
0002
3003
0000
0000
0110
0000
,
0000
1000
0001
0010
,
0001
0010
0001
0000
0010
0000
0100
0000
,
1000
0001
0100
0010
,
0100
0001
0010
0100
,
1000
0020
0030
0200
,
0300
0002
0003
0010
,
0001
1000
0001
0100
,
0001
0000
0010
0001
0000
0001
0010
0000
,
0100
1000
0100
0100
,
0010
0001
0010
0001
0010
0000
0100
0000
,
1000
0001
1000
0010
,
0100
0001
1000
0010
,
0100
0002
0003
0020
,
0030
0200
0300
2000
,
3000
0000
0100
0000
0010
0001
0010
0000
,
0001
0000
1000
0000
0200
0000
0020
0330
,
0000
0000
0022
0000
0000
0000
0000
0003
,
0030
0000
0001
0010
0000
0000
0001
0010
,
0001
0000
1000
0001
1000
0000
0010
0000
,
0100
0001
0010
0100
,
1000
0000
1000
0100
0010
0000
0001
0000
,
0010
0001
0010
0010
,
0011
0000
0001
0010
0001
0000
1000
0000
,
0000
0010
0000
1000
0010
0000
0100
0001
,
0010
0000
0000
0000
0001
0000
0000
0000
0020
0000
0000
0000
0000
0200
0000
0000
,
0000
0000
0000
0330
,
1001
0000
0000
0000
;

//--------------- dance-single - RxSteps ----------------
#NOTES:
     dance-single:
     RxSteps:
     Medium:
     9:
     0,0,0,0,0:
0000
0000
0000
0000
,
0000
0000
0000
0000
,
1000
0000
0000
0000
0010
0000
1000
0020
,
0100
0000
0000
0030
0000
0000
0000
0100
0010
0000
0000
0000
1000
0000
0001
0000
,
0010
0000
0100
0010
0001
0000
1000
0000
,
0010
0100
0001
0010
,
0200
0000
1000
0300
0020
0000
0001
0030
,
0100
0000
1000
0000
0001
0000
0100
0010
,
2000
0000
0000
0000
0000
0000
0000
0000
0000
0000
0000
0000
0000
0000
0000
0000
0000
0000
0000
0200
0000
0000
0000
0000
3000
0000
0000
0000
0000
0000
0000
0000
,
0000
0000
0000
0000
0000
0020
0000
0000
0000
0000
0000
0000
0000
0000
0000
0000
0300
0000
0000
0000
0000
0000
0000
0000
0000
0000
0000
0002
0000
0000
0000
0000
,
0000
0000
0000
0000
,
0000
0000
0000
0000
0003
0000
0000
0000
0000
0000
0000
0000
0000
0200
0000
0000
,
0330
1001
0000
0000
,
0100
0001
0010
0200
1000
0000
0010
0300
,
1000
0201
0010
0301
,
1200
0300
0010
0001
0100
0000
0010
0000
,
1000
0001
0000
0100
0010
0000
1200
0300
,
0010
0000
0001
1000
0010
0000
0021
0030
,
0200
1000
0300
1000
0200
0000
0310
0000
,
0100
0000
1000
0010
0100
0001
0010
0100
,
0010
0001
0100
0010
1000
0010
0100
0001
,
1000
0100
1000
0100
0010
0100
1000
0100
,
0010
0100
1000
0020
0100
0030
0100
0000
,
0001
0010
0100
0011
,
1010
0000
1000
0010
0100
0002
0000
0013
,
0000
0100
1000
0100
0010
0100
1000
0100
,
0010
0100
1000
0001
0010
0001
1000
0100
,
0010
0100
1000
0010
0100
0010
1000
0001
,
0020
0100
0030
0001
0000
0110
0000
1200
,
0300
0010
0100
1000
0001
0100
0010
0100
,
0001
0010
0100
0010
0100
1000
0001
0200
,
0010
0300
0010
0100
0001
1000
0010
0100
,
0010
2000
0100
3000
0001
0000
0010
0100
,
1000
0001
0010
0001
1000
0010
0100
0001
,
1000
0010
1000
0001
0010
0200
1000
0300
,
0010
0001
1000
0010
0100
0001
0010
0001
,
1000
0001
0010
0100
1000
0100
1000
0100
,
0010
0100
1000
0000
0101
0000
0110
0000
,
1200
0000
0010
0300
1000
0000
0101
0000
,
0110
0000
0001
0010
0100
0010
0001
1000
,
0001
0100
0010
1000
0001
0100
0010
1000
,
0001
0200
0010
0300
0001
0000
1010
0000
,
0021
0030
0100
0000
1000
0000
0011
0000
,
1020
0030
0100
0000
0011
0000
1000
0000
,
0110
0000
0001
0000
1200
0300
0010
0000
,
0201
0000
0010
0300
0001
0000
1200
0300
,
0020
0001
0030
0001
0010
0000
0200
0000
,
1000
0300
0010
0001
0100
0010
1000
0100
,
1000
0100
0010
0001
1000
0010
0100
0010
,
1000
0100
0010
0100
1000
0001
1000
0000
,
0110
0000
0021
0030
0100
0010
0001
1000
,
0100
1000
0001
0010
0100
1000
0001
0010
,
0100
1000
0001
0010
0100
1000
0001
0100
,
0010
1000
0010
0100
0001
1000
0002
0100
,
0003
0100
0001
0000
0110
0000
1100
0000
,
0201
0300
0010
1000
0001
0100
0010
1000
,
0100
0000
0020
0000
0001
0000
0030
0000
0100
0000
0000
0000
1020
0030
0100
0000
,
0001
0100
0010
1000
0010
0100
0001
0010
,
0100
0010
0001
0100
0010
1000
0001
0010
,
0100
0010
0001
0000
0110
0000
1001
0000
,
1100
0101
0110
0021
,
0130
0000
0000
0000
1002
0003
0100
0000
0010
0000
2000
0000
0100
0000
3000
0000
,
0100
0020
0001
0030
0001
0010
0200
0000
,
0000
0000
0000
0300
0000
0100
1000
0001
,
0100
0010
1000
0001
1000
0000
0100
0000
,
0010
0000
0021
0030
0100
0000
1000
0000
,
0201
0300
0010
1000
0010
0000
0201
0300
,
0020
1000
0130
1001
,
0110
0000
1000
0200
1000
0300
0010
0000
,
0002
0100
0003
0100
0001
0000
0010
0000
,
0100
0010
0001
1000
0010
0100
0001
0010
,
0001
1000
0001
0010
0100
1000
0010
0100
,
0010
1000
0010
0100
0001
0100
0010
0100
,
0002
0010
0003
0020
0100
0030
0100
1000
,
0010
0200
0001
0300
0001
0100
0010
0000
,
1001
0000
0010
0100
0002
1000
0003
1000
,
0001
0200
0010
0300
0010
1000
0001
0100
,
0010
1000
0100
0010
0001
0010
0001
1000
,
0010
0100
0010
0100
0001
1000
0010
1000
,
0100
0000
0010
0000
0100
0000
1000
0000
0000
0000
0110
0000
0000
0000
0021
0030
,
0000
0100
1000
0010
0100
0001
1000
0010
,
1000
0001
0100
0010
1000
0100
0010
0001
,
1000
0200
0010
0300
1000
0001
0100
0010
,
0100
0001
1000
0100
0010
0100
1000
0001
,
0010
0100
1000
0100
0010
0001
1000
0010
,
0100
0010
1000
0001
0010
0100
0010
0100
,
1000
0010
0100
0001
0010
0001
1000
0001
,
0010
0001
1000
0100
0010
0100
1000
0100
,
0010
0100
1000
0000
0010
0000
0201
0000
,
0010
0300
0001
0000
1000
0000
0110
0000
,
1002
0003
0010
0100
1000
0100
1000
0020
,
0100
0030
0100
0010
1000
0001
0100
0001
,
1000
0001
0010
0000
0100
0000
1200
0300
,
0020
0000
0001
0030
0100
0000
1020
0030
,
0100
0000
0001
1000
0010
0100
0001
0010
,
0100
0010
0001
1000
0010
0100
0002
0000
,
0003
0000
0010
0100
1000
0000
0021
0030
,
0200
1000
0300
1000
0100
0000
1001
0000
,
0110
0000
0001
0010
0100
1000
0001
0010
,
0100
0010
0001
1000
0010
1000
0001
0100
,
0010
2000
0100
3000
0100
0010
0001
0000
,
1200
0300
0020
0000
0001
0030
0100
1000
,
0010
0100
0001
1000
0010
1000
0001
0100
,
0010
0100
0001
1000
0100
0010
0001
0010
,
0100
1000
0010
0100
0001
0010
0100
0010
,
0001
0010
0100
1000
0020
0100
0030
0100
,
0001
1000
0001
0100
0010
1000
0001
0100
,
0010
1000
0010
0100
0001
0000
1100
0000
,
0021
0030
0100
0000
1000
0000
0001
0000
0010
0000
0100
0000
1000
0000
0010
0000
,
0100
0010
1000
0010
0100
0001
1000
0010
,
0100
1001
0110
1100
,
0101
1010
0011
1200
,
0310
0000
2001
0000
0000
0100
0000
3001
,
0000
0000
0110
0000
0000
0000
1002
0003
0000
0000
0100
0000
0001
0000
0000
0000
,
1000
0020
0100
0000
0000
0030
0200
0010
,
0300
0010
1000
0000
0001
0000
0010
0000
,
0100
0000
1000
0200
0010
0300
0010
0001
,
1000
0010
0100
0000
0001
0000
0010
0000
,
1200
0000
0010
0300
1000
0000
0201
0000
,
0310
1002
0103
0110
,
1200
0300
0010
0000
0001
0000
0010
0000
,
0200
0000
1000
0300
0010
0000
0021
0030
,
0100
0000
1000
0100
0010
0001
1000
0001
,
0010
0100
1000
0001
1000
0010
0100
0001
,
0010
0100
1000
0001
1000
0020
0100
0030
,
0100
0010
1000
0001
0100
0010
1000
0100
,
0010
0100
1000
0001
0100
0001
0010
0001
,
0100
0001
1000
0001
1000
0001
0100
0010
,
1000
0010
0100
0001
1000
0010
1000
0100
,
1000
0010
0100
0001
0100
0010
1000
0100
,
0010
0001
1000
0010
0100
0001
0100
0010
,
1000
0001
0010
0100
1000
0100
0010
0100
,
1000
0010
0100
0001
0100
0010
1000
0001
,
1000
0010
0100
0010
1000
0020
0100
0030
,
0100
0010
1000
0010
0100
0001
0100
0010
,
1000
0001
0100
0010
0100
0001
0000
0010
,
0000
0000
0100
0000
0010
0000
0200
0000
0000
0300
0000
0000
1000
0000
0010
0000
,
0100
0010
1000
0001
0100
0010
1000
0200
,
0000
0300
0010
0000
0000
0002
0010
0003
,
0000
0000
0020
0000
0100
0000
0000
0030
0000
0000
0100
0000
1000
0000
0000
0000
,
0001
1000
0010
0100
0001
0200
0310
0000
,
1001
0000
0110
0000
1200
0300
0010
0000
,
0021
0030
0100
1000
0001
0010
0100
1000
,
0010
0100
0010
1000
0001
0100
0010
1000
,
0010
0100
0001
1000
0100
1000
0001
0100
,
0010
0100
0001
0000
0020
0000
0100
0030
,
0001
0010
0100
0010
0001
0100
0010
0100
,
0001
1000
0010
0100
0001
0010
0100
0010
,
0001
1000
0001
0100
0010
0100
0001
1000
,
0010
0100
0020
1000
0030
1000
0010
0000
,
0101
0000
1000
0010
0100
0000
1100
0000
,
0201
0300
0010
0000
0100
0000
0001
0000
0010
0000
0001
0000
1000
0000
0001
0000
,
0010
0100
1000
0001
1000
0010
0100
0001
,
1000
0010
0100
0001
0010
0100
1000
0100
,
0010
0100
1000
0001
0100
0010
0100
0001
,
0010
0100
0010
0100
1000
0001
0010
0001
,
1000
0010
0100
0001
0100
0020
1000
0030
,
1000
0010
0100
0001
0010
0000
1020
0000
,
0000
0230
0000
0300
,
0001
0000
2000
0010
3000
0010
0100
0001
,
1000
0010
1000
0100
0020
0000
0001
0030
,
0100
1000
0010
0100
0010
0000
1001
0000
,
0110
0000
1000
0020
0100
0030
1000
0000
,
0201
0300
0010
0000
1000
0000
0001
0000
0100
0000
0010
0000
1000
0000
0200
0000
,
0010
0300
1000
0001
0100
0000
0010
0000
,
2000
0100
3000
0100
0010
0000
0001
0010
,
0100
0000
0000
0000
1000
0000
0000
0000
0020
0000
0000
0000
0000
0200
0000
0000
,
0000
0000
0000
0330
,
1001
0000
0000
0000
;

//--------------- dance-single - RxSteps ----------------
#NOTES:
     dance-single:
     RxSteps:
     Hard:
     10:
     0,0,0,0,0:
0000
0000
0000
0000
,
0000
0000
0000
0000
,
1000
0000
0000
0000
0010
0000
1000
0020
,
0100
0000
0000
0030
0000
0000
0000
0100
0010
0000
0000
0000
1000
0000
0001
0000
,
0010
0000
0100
0010
0001
0000
1000
0000
,
0010
0100
0001
0010
,
0200
0000
1000
0300
0020
0000
0001
0030
,
0100
0000
1000
0000
0001
0000
0100
0010
,
2000
0000
0000
0000
0000
0000
0000
0000
0000
0000
0000
0000
0000
0000
0000
0000
0000
0000
0000
0200
0000
0000
0000
0000
3000
0000
0000
0000
0000
0000
0000
0000
,
0000
0000
0000
0000
0000
0020
0000
0000
0000
0000
0000
0000
0000
0000
0000
0000
0300
0000
0000
0000
0000
0000
0000
0000
0000
0000
0000
0002
0000
0000
0000
0000
,
0000
0000
0000
0000
,
0000
0000
0000
0000
0003
0000
0000
0000
0000
0000
0000
0000
0000
0200
0000
0000
,
0330
1001
0000
0000
,
0100
0001
0010
0200
1000
0000
0010
0300
,
1000
0201
0010
0301
,
1200
0300
0010
0001
0100
0000
0010
0000
,
0200
0000
1000
0300
0000
0000
0100
0000
0010
0000
0000
0000
1200
0000
0300
0000
,
0010
0000
0001
1000
0010
0000
0021
0030
,
0200
1000
0300
1000
0200
0000
0301
0000
,
0100
0000
1000
0010
0100
0001
0010
0100
,
0010
0001
0100
0010
1000
0010
0100
0001
,
1000
0000
0100
0000
1000
0000
0200
0300
0001
0000
0100
0000
1000
0000
0200
0300
,
0001
0000
0100
0000
1000
0000
0020
0030
0001
0000
0010
0000
1000
0000
0020
0030
,
0001
0010
1000
0011
,
1010
0000
1000
0010
0100
0002
0000
0013
,
0000
0000
0100
0000
1000
0000
0200
0300
0001
0000
0100
0000
1000
0000
0100
0000
,
0010
0000
0100
0000
1000
0000
0200
0300
0001
0000
0100
0000
1000
0000
0100
0000
,
0010
0000
0100
0000
1000
0000
0010
0000
0200
0300
1000
0000
0100
0000
0001
0000
,
0020
0100
0030
0001
0000
0110
0000
1200
,
0300
0000
0010
0000
0100
0000
1000
0000
0001
0000
0200
0300
1000
0000
0100
0000
,
0001
0010
0100
0010
0100
1000
0001
0200
,
0010
0300
0010
0100
0001
1000
0010
0100
,
0010
2000
0100
3000
0001
0000
0010
0100
,
1000
0000
0020
0030
0001
0000
0010
0000
1000
0000
0001
0000
0100
0000
0010
0000
,
1000
0010
1000
0001
0010
0200
1000
0300
,
0010
0001
1000
0010
0100
0001
0010
0001
,
1000
0000
0001
0000
0010
0000
0200
0300
0001
0000
0100
0000
1000
0000
0200
0300
,
0001
0100
1000
0000
0101
0000
0110
0000
,
1200
0000
0010
0300
1000
0000
0101
0000
,
0110
0000
0001
0010
0100
0010
0001
1000
,
0001
0100
0010
1000
0001
0100
0010
1000
,
0001
0200
0010
0300
0001
0000
1010
0000
,
0021
0030
0100
0000
1000
0000
0011
0000
,
1020
0030
0100
0000
0011
0000
1000
0000
,
0110
0000
0001
0000
1200
0300
0010
0000
,
0201
0000
0010
0300
0001
0000
1200
0300
,
0020
0001
0030
0001
0010
0000
0200
0000
,
1000
0300
0010
0001
0100
0010
1000
0100
,
1000
0000
0100
0000
0010
0000
0001
0000
1000
0000
0020
0030
0001
0000
0010
0000
,
1000
0100
0010
0100
1000
0001
1000
0000
,
0110
0000
0000
0000
0021
0000
0030
0000
0100
0000
0010
0000
0001
0000
0020
0030
,
1000
0010
0001
0010
0100
1000
0001
0010
,
0100
1000
0001
0010
0100
1000
0001
0100
,
0010
0000
1000
0000
0010
0000
0200
0300
1000
0000
0100
0000
0002
0000
0010
0000
,
0003
0010
0001
0000
0110
0000
1100
0000
,
0201
0300
0010
1000
0001
0100
0010
1000
,
0100
0000
0020
0000
0001
0000
0030
0000
0100
0000
0000
0000
1020
0030
0100
0000
,
0001
0100
0010
1000
0010
0100
0001
0010
,
0100
0000
0010
0000
0001
0000
0020
0030
1000
0000
0010
0000
0001
0000
0010
0000
,
0100
0010
0001
0000
0110
0000
1001
0000
,
1100
0101
0110
0021
,
0130
0000
0000
0000
1002
0003
0100
0000
0010
0000
2000
0000
0100
0000
3000
0000
,
0100
0020
0001
0030
0001
0010
0200
0000
,
0000
0000
0000
0300
0000
0100
1000
0001
,
0100
0010
1000
0001
1000
0000
0100
0000
,
0010
0000
0021
0030
0100
0000
1000
0000
,
0201
0300
0010
1000
0010
0000
0201
0300
,
0020
1000
0130
1001
,
0110
0000
1000
0200
1000
0300
0010
0000
,
0002
0100
0003
0100
0001
0000
0010
0000
,
0100
0010
0001
1000
0010
0100
0001
0010
,
0001
0000
1000
0000
0001
0000
0010
0000
0100
0000
1000
0000
0020
0030
0001
0000
,
0010
1000
0010
0100
0001
0100
0010
0100
,
0002
0010
0003
0020
0100
0030
0100
1000
,
0010
0200
0001
0300
0001
0100
0010
0000
,
1001
0000
0010
0100
0002
1000
0003
1000
,
0001
0200
0010
0300
0010
1000
0001
0100
,
0010
1000
0100
0010
0001
0010
0001
1000
,
0010
0000
0100
0000
0010
0000
0200
0300
1000
0000
0001
0000
0010
0000
1000
0000
,
0100
0000
0010
0000
0100
0000
1000
0000
0000
0000
0110
0000
0000
0000
0021
0030
,
0000
0100
1000
0010
0100
0001
1000
0010
,
1000
0001
0100
0010
1000
0100
0010
0001
,
1000
0200
0010
0300
1000
0001
0100
0010
,
0100
0000
0001
0000
1000
0000
0200
0300
0001
0000
0100
0000
1000
0000
0001
0000
,
0010
0000
0200
0300
0001
0000
0100
0000
0010
0000
0001
0000
1000
0000
0010
0000
,
0100
0000
0010
0000
1000
0000
0001
0000
0020
0030
1000
0000
0001
0000
0100
0000
,
1000
0010
0100
0001
0010
0001
1000
0001
,
0010
0000
0001
0000
1000
0000
0200
0300
0001
0000
0100
0000
1000
0000
0200
0300
,
0001
0100
1000
0000
0010
0000
0201
0000
,
0010
0300
0001
0000
1000
0000
0110
0000
,
1002
0003
0010
0100
1000
0100
1000
0020
,
0100
0000
0030
0000
0100
0000
0010
0000
1000
0000
0020
0030
0001
0000
0010
0000
,
1000
0001
0010
0000
0100
0000
1200
0300
,
0020
0000
0001
0030
0100
0000
1020
0030
,
0100
0000
0001
1000
0010
0100
0001
0010
,
0100
0010
0001
1000
0010
0100
0002
0000
,
0003
0000
0010
0100
1000
0000
0021
0030
,
0200
1000
0300
1000
0100
0000
1001
0000
,
0110
0000
0001
0010
0100
1000
0001
0010
,
0100
0010
0001
1000
0010
1000
0001
0100
,
0010
2000
0100
3000
0100
0010
0001
0000
,
1200
0300
0020
0000
0001
0030
0100
1000
,
0010
0000
0100
0000
0001
0000
0200
0300
1000
0000
0100
0000
0001
0000
0100
0000
,
0010
0100
0001
1000
0100
0010
0001
0010
,
0100
1000
0010
0100
0001
0010
0100
0010
,
0001
0000
0010
0000
0100
0000
1000
0000
0020
0000
0100
0000
0030
0000
0200
0300
,
1000
0100
0001
0100
0010
1000
0001
0100
,
0010
1000
0010
0100
0001
0000
1100
0000
,
0021
0030
0100
0000
1000
0000
0001
0000
0010
0000
0100
0000
1000
0000
0010
0000
,
0100
0000
0020
0030
0001
0000
0010
0000
1000
0000
0020
0030
0001
0000
0010
0000
,
0100
1001
0110
1100
,
0101
1010
0011
1200
,
0310
0000
2001
0000
0000
0100
0000
3001
,
0000
0000
0110
0000
0000
0000
1002
0003
0000
0000
0100
0000
0001
0000
0000
0000
,
1000
0020
0100
0000
0000
0030
0200
0010
,
0300
0010
1000
0000
0001
0000
0010
0000
,
0100
0000
1000
0200
0010
0300
0010
0001
,
1000
0010
0100
0000
0001
0000
0010
0000
,
1200
0000
0010
0300
1000
0000
0201
0000
,
0310
1002
0103
0110
,
1200
0300
0010
0000
0001
0000
0010
0000
,
0200
0000
1000
0300
0010
0000
0021
0030
,
0100
0000
1000
0100
0010
0001
1000
0001
,
0010
0100
1000
0001
1000
0010
0100
0001
,
0010
0100
1000
0001
1000
0020
0100
0030
,
0100
0010
1000
0001
0100
0010
1000
0100
,
0010
0100
1000
0001
0100
0001
0010
0001
,
0100
0001
1000
0001
1000
0001
0100
0010
,
1000
0000
0010
0000
0100
0000
0001
0000
0020
0030
1000
0000
0001
0000
0100
0000
,
1000
0010
0100
0001
0100
0010
1000
0100
,
0010
0001
1000
0010
0100
0001
0100
0010
,
1000
0001
0010
0100
1000
0100
0010
0100
,
1000
0010
0100
0001
0100
0010
1000
0001
,
1000
0000
0200
0300
0001
0000
0100
0000
1000
0000
0020
0000
0100
0000
0030
0000
,
0100
0010
1000
0010
0100
0001
0100
0010
,
1000
0001
0100
0010
0100
0001
0000
0010
,
0000
0000
0100
0000
0010
0000
0200
0000
0000
0300
0000
0000
1000
0000
0010
0000
,
0100
0010
1000
0001
0100
0010
1000
0200
,
0000
0300
0010
0000
0000
0002
0010
0003
,
0000
0000
0020
0000
0100
0000
0000
0030
0000
0000
0100
0000
1000
0000
0000
0000
,
0001
1000
0010
0100
0001
0200
0310
0000
,
1001
0000
0110
0000
1200
0300
0010
0000
,
0021
0030
0100
1000
0001
0010
0100
1000
,
0010
0100
0010
1000
0001
0100
0010
1000
,
0010
0000
0100
0000
0001
0000
0200
0300
1000
0000
0100
0000
0001
0000
0200
0300
,
1000
0100
0001
0000
0020
0000
0100
0030
,
0001
0010
0100
0010
0001
0100
0010
0100
,
0001
1000
0010
0100
0001
0010
0100
0010
,
0001
0000
1000
0000
0001
0000
0200
0300
1000
0000
0100
0000
0001
0000
0200
0300
,
1000
0100
0020
1000
0030
1000
0010
0000
,
0101
0000
1000
0010
0100
0000
1100
0000
,
0201
0300
0010
0000
0100
0000
0001
0000
0010
0000
0001
0000
1000
0000
0001
0000
,
0020
0030
1000
0000
0001
0000
0100
0000
1000
0000
0010
0000
0100
0000
0001
0000
,
1000
0010
0100
0001
0010
0100
1000
0100
,
0010
0100
1000
0001
0100
0010
0100
0001
,
0010
0100
0010
0100
1000
0001
0010
0001
,
1000
0010
0100
0001
0100
0020
1000
0030
,
1000
0010
0100
0001
0010
0000
1020
0000
,
0000
0230
0000
0300
,
0001
0000
2000
0010
3000
0010
0100
0001
,
1000
0010
1000
0100
0020
0000
0001
0030
,
0100
1000
0010
0100
0010
0000
1001
0000
,
0110
0000
1000
0020
0100
0030
1000
0000
,
0201
0300
0010
0000
1000
0000
0001
0000
0100
0000
0010
0000
1000
0000
0200
0000
,
0010
0300
1000
0001
0100
0000
0010
0000
,
2000
0100
3000
0100
0010
0000
0001
0010
,
0100
0000
0000
0000
1000
0000
0000
0000
0020
0000
0000
0000
0000
0200
0000
0000
,
0000
0000
0000
0330
,
1001
0000
0000
0000
;
