#TITLE:Whos Laughing Now;
#SUBTITLE:;
#ARTIST:Ava Max;
#TITLETRANSLIT:;
#SUBTITLETRANSLIT:;
#ARTISTTRANSLIT:;
#GENRE:;
#CREDIT:RxSteps;
#MUSIC:Whos Laughing Now.ogg;
#BANNER:whos laughing now.png;
#BACKGROUND:whos laughing now-BG.png;
#CDTITLE:cdtitle.png;
#SAMPLESTART:42.118;
#SAMPLELENGTH:23.478;
#SELECTABLE:YES;
#OFFSET:0.273;
#BPMS:0.000=92.000;
#STOPS:;
#BGCHANGES:;
#FGCHANGES:;

//--------------- dance-single - RxSteps ----------------
#NOTES:
     dance-single:
     RxSteps:
     Beginner:
     1:
     0,0,0,0,0:
0000
0001
0000
0000
,
0000
1000
0000
0000
,
0000
0010
0000
0000
,
0000
0010
0000
0000
,
1000
0000
0001
0000
,
1000
0000
0010
0000
,
1000
0000
0001
0000
,
1000
0000
0000
0000
,
0000
0001
0000
0100
,
0000
0001
0000
1000
,
0000
1000
0000
0010
,
0000
1000
0000
0000
,
0001
0000
0010
0000
,
0100
0000
0001
0000
,
1000
0000
0010
0000
,
0010
0000
1000
0000
,
0000
1001
0000
0001
,
0000
1001
0000
1000
,
0000
0110
0000
0000
,
0000
0001
0001
0000
,
0000
0100
0000
0001
,
0000
1001
0000
1000
,
0000
1001
0000
0010
,
0000
1000
0000
0001
,
0000
0100
0000
0000
,
0000
0001
0000
0000
,
0000
1000
0000
0000
,
0000
0010
0000
0000
,
0000
0100
0000
0000
,
0000
0001
0000
0000
,
0000
0001
0000
0000
,
0000
1000
0000
0000
,
0000
0010
0000
0000
,
0000
0010
0000
0000
,
0000
1000
0000
0000
,
0000
1000
0000
0000
,
0000
0100
0000
0000
,
0000
0100
0000
0000
,
0000
1001
0000
0001
,
0000
1001
0000
1000
,
0000
1001
0000
1000
,
0000
0001
0000
0000
,
0000
0100
0000
0000
,
0000
1001
0000
0010
,
0000
1001
0000
0100
,
0000
0001
0000
0000
,
0000
0001
0000
0000
,
0000
0100
0000
0000
,
0000
0100
0000
0000
,
0000
0010
0000
0000
,
0000
0010
0000
0000
,
0000
1000
0000
0000
,
0000
0001
0000
0000
,
0000
0010
0000
0000
,
0000
0002
0000
0000
,
0000
2000
0000
0000
,
0000
3003
0000
0000
,
0000
0001
0000
0000
,
0000
1000
0000
0000
,
0000
1001
0000
0001
,
0000
1001
0000
0001
,
0000
1001
0000
1000
,
0000
0010
0000
0000
,
0000
0100
0000
0000
,
0000
0110
0000
0000
,
0000
1000
0000
0000
,
0000
0001
0000
0100
,
0000
0100
0000
0000
;

//--------------- dance-single - RxSteps ----------------
#NOTES:
     dance-single:
     RxSteps:
     Easy:
     3:
     0,0,0,0,0:
0000
0001
0000
0100
,
0001
1000
0000
0010
,
1000
0001
0000
0100
,
0001
0000
1000
0000
0001
0000
0000
1000
,
0001
0100
0001
1000
,
0100
0010
0001
1000
,
0001
0010
0001
0100
,
0001
0100
0010
1000
,
0001
0100
0001
1000
,
0100
0000
0010
0000
0001
0000
1000
0001
,
1000
0001
0000
0000
1000
0000
0010
0000
,
0100
0000
0001
0000
0100
0000
0000
0001
,
0001
1000
0010
0100
,
0010
0000
1000
0000
0001
0000
0100
0001
,
0100
0001
0100
0000
0001
0000
0010
0000
,
0100
0000
1000
0000
0000
0010
0000
1000
,
1000
2010
0010
3002
,
0103
1002
1003
0002
,
0013
0021
0031
2000
,
3001
0000
1000
0000
0010
1000
0010
1000
,
0001
1000
0001
0000
0100
0000
0102
0000
,
0103
2001
3001
1000
,
0010
1020
1030
0001
,
0100
0000
0001
0100
0001
0100
0001
0100
,
0001
1000
0000
0001
,
0100
0000
0010
0000
1000
0000
0000
0010
,
1000
0001
0100
0001
,
1000
0010
0100
0010
,
0100
0001
0010
0100
,
1000
0000
0001
0000
1000
0001
0000
0000
,
0100
0001
1000
0100
,
0010
0000
0001
0000
0001
0000
0100
0001
,
0100
0001
0000
0000
1000
0000
0010
0000
,
0100
0000
0010
0000
1000
0000
0000
0010
,
1000
0001
0010
0100
,
1000
0000
1000
0000
0001
0000
0100
0001
,
0100
0001
0100
0000
0001
0000
1000
0000
,
0010
0000
1000
0000
0000
0001
0000
1000
,
0001
1200
1300
0001
,
0100
0102
0103
0001
,
1000
2010
3010
1000
,
0001
0000
0010
0000
0001
0000
0010
0001
,
0010
0001
0010
0000
0001
0000
0100
0000
,
0001
2001
3001
1000
,
0010
1020
1030
0001
,
0010
0000
0001
0000
0010
0000
0001
0010
,
0001
0010
0001
0000
1000
0000
0001
0000
,
1000
0010
0100
0001
,
1000
0001
0100
0001
,
1000
0000
0001
1000
0001
1000
0001
1000
,
0001
0100
0001
0010
,
0001
1000
0100
1000
,
0010
0100
0001
0010
,
0100
0000
1000
0100
1000
0100
1000
0100
,
1000
0002
0000
0003
,
0200
0000
0000
0300
,
0002
0003
2000
3000
,
0020
0000
0030
0000
2000
0000
3000
0010
,
0000
2000
0000
0000
0000
0000
0000
0000
,
3000
0021
0031
1000
,
0010
2010
3010
1000
,
0001
0102
0103
0001
,
1000
0000
0100
0000
1000
0000
0100
1000
,
0100
1000
0100
0000
1000
0000
0010
0000
,
1000
1002
1003
0001
,
0100
0201
0301
1000
,
0100
0000
1000
0000
0100
0000
1000
0100
,
1000
0100
1000
0000
0000
0000
0000
0000
;

//--------------- dance-single - RxSteps ----------------
#NOTES:
     dance-single:
     RxSteps:
     Medium:
     5:
     0,0,0,0,0:
0000
0000
0001
0100
0010
0100
0002
0000
,
2000
3003
0001
1000
0100
0010
0002
0000
,
0200
0303
0001
0100
0001
0010
0200
0000
,
2000
0000
3300
0000
0001
0000
0000
1000
0001
0000
1000
0000
0000
0000
0001
0000
,
0001
0000
0100
0001
1000
0010
0100
0001
,
1000
0001
0100
0001
1000
0100
0020
0000
,
0031
0010
0001
0100
0010
1000
0001
1000
,
0010
0100
0001
1000
0010
1000
0100
1000
,
0001
1000
0010
0100
0001
1000
0100
0010
,
0100
1000
0001
1000
0001
0200
0010
0000
,
0002
0300
1003
0010
1000
0001
0100
0001
,
1000
0000
0220
0000
0000
0000
0330
1000
,
0001
0000
0100
0001
0010
0100
1000
0001
,
0020
0000
0030
0001
1000
0100
0010
0001
,
1000
0100
0010
0001
1000
0001
0100
0010
,
1000
0000
0101
0000
0000
1010
0000
1000
,
0010
0000
1000
0001
0100
0001
2000
0000
,
0200
3300
1000
0001
0010
0100
0020
0000
,
0002
0033
1000
0001
1000
0010
0200
0000
,
0002
0303
1000
1000
0001
0100
0100
0001
,
0010
0100
1000
0000
0001
0100
0002
0000
,
0200
0303
0100
0010
1000
0100
0020
0000
,
0200
0330
1000
0001
0010
0001
2000
0000
,
0002
3003
1000
1000
0010
1000
0001
1000
,
0010
0100
0002
0000
2003
0000
3020
0000
,
0200
0000
0330
0000
0100
0000
0000
0001
0100
0000
0001
0000
0000
0000
1000
0000
,
1000
0000
0001
0100
0001
0100
0010
1000
,
0001
1000
0010
1000
0001
0010
0100
0010
,
0001
0100
0001
0010
0100
1000
1000
0001
,
0100
0010
1000
0001
0100
0002
0010
0000
,
1000
0000
0103
0001
1000
0001
0010
0100
,
0010
0001
1000
0001
1000
0020
0100
0000
,
2000
0030
3001
0100
0001
1000
0010
1000
,
0001
0000
0220
0000
0000
0000
0330
0001
,
1000
0000
0010
1000
0100
0010
0001
1000
,
0200
0000
0300
1000
0001
0010
0100
1000
,
0001
0010
0100
1000
0001
1000
0010
0100
,
0001
0000
1010
0000
0000
0101
0000
0001
,
0100
0000
0001
1000
0010
1000
0002
0000
,
0020
0033
0001
1000
0100
0010
0200
0000
,
2000
3300
0001
1000
0001
0100
0020
0000
,
2000
3030
0001
0001
1000
0010
0010
1000
,
0100
0010
0001
0000
1000
0010
2000
0000
,
0020
3030
0010
0100
0001
0010
0200
0000
,
0020
0330
0001
1000
0100
1000
0002
0000
,
2000
3003
0001
0001
0100
0001
1000
0001
,
0100
0010
2000
0000
3002
0000
0203
0000
,
0320
0000
1030
0010
1000
0100
0020
0000
,
0200
0330
1000
0001
0010
0100
2000
0000
,
0002
3000
0100
0103
0001
2000
0010
0010
,
3010
0000
1000
0001
1000
0010
0200
0000
,
0002
0303
1000
0010
0100
0010
2000
3002
,
0200
0003
0301
0100
0010
1000
0002
0000
,
2000
3003
0001
0001
0100
0001
1000
1000
,
0001
0010
0100
2000
0002
3000
0000
0203
,
0002
0000
0000
0303
,
2000
0000
3000
0010
1000
0010
0000
1000
,
0001
0010
0001
0000
1010
0000
0000
0110
,
0000
2002
0000
0000
0000
0000
0000
0000
,
3003
0000
1000
0010
1000
0001
0200
0000
,
0020
0330
1000
0001
0010
0100
2000
0000
,
0020
3030
1000
0100
0010
0001
0020
0000
,
0002
0033
1000
1000
0010
1000
1000
0001
,
1000
0010
0100
0000
0001
1000
0002
0000
,
0200
0303
0001
0010
0001
0010
0200
0000
,
2000
3300
0001
1000
0010
0100
0002
0000
,
2000
3003
0001
0001
1000
0010
0010
1000
,
0100
0010
0001
0000
0000
0000
0000
0000
;

//--------------- dance-single - RxSteps ----------------
#NOTES:
     dance-single:
     RxSteps:
     Hard:
     8:
     0,0,0,0,0:
0000
0000
0000
0000
0001
0000
0100
0000
0001
0010
0100
0000
0020
0000
0000
0000
,
0032
0000
0000
0000
1003
0000
0100
0000
1000
0100
0010
0000
0200
0000
0000
0000
,
2300
0000
0000
0000
3010
0000
0100
0000
0001
1000
0010
0000
2000
0000
0000
0000
,
3200
0000
0000
0000
0310
0000
0000
0001
2000
0000
0100
0000
0000
0000
3001
0000
,
0001
0000
0000
0000
0100
0000
0010
0000
1000
0010
1000
0010
0100
0000
0001
1000
,
0010
0000
0100
0000
0001
0000
0010
0000
0001
1000
0001
1000
0100
0000
0010
0100
,
0010
0000
1000
0000
0001
0000
0100
0001
0100
0001
0100
0010
1000
0000
0001
0010
,
0100
0020
0031
0020
1030
0020
0031
0200
,
1300
0000
0200
0000
0301
0000
1000
0000
0001
1000
0010
1000
0001
0000
0100
0010
,
1000
0000
0001
0000
0100
0000
0010
0000
1000
0001
0010
0100
0010
0000
0100
0000
,
1000
0000
0100
0000
1000
0000
0010
0000
0100
0010
0100
0010
1000
0000
0001
0100
,
0010
0000
1000
0000
0011
0000
0000
1000
0010
0000
0200
0000
0000
0000
0001
0000
,
0301
1000
0001
0200
1300
0200
0301
0020
,
1030
0010
0001
1000
0001
1000
0010
0100
,
0001
0010
0100
1000
0100
1000
0010
0100
,
0002
0000
0003
1000
0001
0010
0200
0000
0300
0000
1000
0100
0010
0000
0001
0000
,
0001
0000
0000
0000
1100
0000
0101
0000
1000
0010
1000
0000
0200
0000
0000
0000
,
0020
0000
0330
0000
1001
0000
0110
0000
0001
0010
0200
0000
2000
0000
3000
0000
,
0020
0000
0330
0000
1010
0000
0101
0000
1000
0100
1000
0000
0002
0000
0000
0000
,
0020
0000
0033
0000
0001
1000
0001
0000
0001
0000
1000
0001
1000
0000
0010
0000
,
0100
0000
0001
0000
0010
0000
0000
0000
0001
0100
0001
0000
0200
0000
0000
0000
,
2000
0000
3300
0000
0110
0000
1001
0000
1000
0100
0020
0000
0002
0000
0003
0000
,
2000
0000
3030
0000
0110
0000
1001
0000
0001
0100
0001
0000
0200
0000
0000
0000
,
0020
0000
0330
0000
1000
0100
1000
0000
1000
0000
0010
0100
0010
0000
1000
0000
,
0001
0000
0010
0000
0100
0000
0010
0000
0001
0010
0100
0000
2000
0000
0000
0000
,
0020
0000
3000
0000
0130
0000
0000
0001
1000
0000
0200
0000
0000
0000
0010
0000
,
0310
0000
0000
0000
0001
0000
1000
0000
0010
0100
0001
0100
0010
0000
1000
0001
,
0010
0000
0001
0000
1000
0000
0100
0000
1000
0010
0100
0010
1000
0000
0001
0100
,
0010
0000
1000
0000
0001
0000
0010
0001
0010
0100
1000
0100
1000
0000
0001
0010
,
0001
0100
0010
1000
1000
0020
0000
0100
,
0000
0000
1030
0000
0001
0000
0100
0000
0010
1000
0010
1000
0100
0000
1000
0001
,
0100
0000
0010
0000
1000
0000
0100
0000
0010
0100
0010
0100
1000
0000
0001
0000
,
0200
0000
1300
0000
0200
0000
0301
0000
0010
0001
0010
0001
1000
0000
0001
0100
,
0001
0000
1000
0000
0110
0000
0000
0001
0020
0000
0100
0000
0000
0000
0001
0000
,
0031
1000
0001
0100
0010
1000
0100
0010
,
0002
1000
0000
0103
0001
0010
0001
0200
,
1300
0200
0301
0020
1030
0020
0031
0010
,
0200
0000
0300
1000
0100
0010
0001
0000
0000
0000
0001
0010
0100
0000
1000
0000
,
1000
0000
0000
0000
0011
0000
1010
0000
0001
0100
0001
0000
0020
0000
0000
0000
,
0200
0000
0330
0000
1001
0000
0110
0000
1000
0100
0020
0000
0002
0000
0003
0000
,
0200
0000
0330
0000
0101
0000
1010
0000
0001
0010
0001
0000
2000
0000
0000
0000
,
0200
0000
3300
0000
1000
0001
1000
0000
1000
0000
0001
1000
0001
0000
0100
0000
,
0010
0000
1000
0000
0100
0000
0000
0000
1000
0010
1000
0000
0020
0000
0000
0000
,
0002
0000
0033
0000
0110
0000
1001
0000
0001
0010
0200
0000
2000
0000
3000
0000
,
0002
0000
0303
0000
0110
0000
1001
0000
1000
0010
1000
0000
0020
0000
0000
0000
,
0200
0000
0330
0000
0001
0010
0001
0000
0001
0000
0100
0010
0100
0000
0001
0000
,
1000
0000
0100
0000
0010
0000
0100
0000
1000
0100
0010
0000
0002
0000
0013
0000
,
1010
0000
0000
0000
0110
0000
1001
0000
0001
0100
0010
0000
2000
0000
0000
0000
,
0002
0000
3000
0000
0103
0000
0010
0000
1000
0001
0200
0000
1300
0000
0200
0000
,
0301
0000
0100
0000
0001
0100
0001
0000
0001
0000
1000
0010
1000
0000
1000
0000
,
2000
0000
3000
0000
0011
0000
0110
0000
1000
0100
0010
0000
0200
0000
2300
0000
,
3020
0000
0130
0000
0011
0000
1100
0000
0001
1000
0010
0000
0200
0000
1300
0000
,
0200
0000
0301
0000
1100
0000
0102
0003
0100
0010
1000
0000
0002
0000
2003
0000
,
3200
0000
0300
0000
0010
0100
0010
0000
0010
0000
0100
0010
0100
0000
1000
0000
,
0100
0000
0010
0000
0001
0000
1000
0000
0010
0000
1000
0200
0000
0000
0310
0000
,
0001
0000
1000
0200
0000
0000
0000
0000
0000
0000
0000
0000
0000
0000
0000
0000
,
0020
0000
0300
0000
0030
0000
0001
0000
0010
0000
0001
1000
0000
0000
0001
1000
,
0001
0000
0100
0010
0000
0000
0000
0000
1000
0010
0000
0000
0000
0000
0010
0001
,
0000
0000
0010
2000
0000
0000
0001
0000
0000
0000
0010
0000
0000
0000
0001
0000
,
0000
0000
3100
0000
0101
0000
1100
0000
0001
0010
0001
0000
0200
0000
0000
0000
,
0020
0000
0330
0000
1001
0000
0110
0000
1000
0010
0200
0000
0002
0000
0003
0000
,
0020
0000
0330
0000
0011
0000
1100
0000
0001
0100
0001
0000
2000
0000
0000
0000
,
0020
0000
3030
0000
1000
0001
1000
0000
1000
0000
0001
1000
0001
0000
0010
0000
,
0100
0000
1000
0000
0010
0000
0000
0000
1000
0100
1000
0000
0200
0000
0000
0000
,
0002
0000
0303
0000
0110
0000
1001
0000
0001
0100
0020
0000
2000
0000
3000
0000
,
0002
0000
0033
0000
0110
0000
1001
0000
1000
0100
1000
0000
0200
0000
0000
0000
,
0020
0000
0330
0000
0001
0100
0001
0000
0001
0000
0010
0100
0010
0000
0001
0000
,
1000
0010
0100
0000
0000
0000
0000
0000
;
