#TITLE:When the Summer Dies;
#SUBTITLE:Meowington's Remix;
#ARTIST:Deadmau5 & Lights;
#TITLETRANSLIT:;
#SUBTITLETRANSLIT:;
#ARTISTTRANSLIT:;
#GENRE:;
#CREDIT:RxSteps;
#MUSIC:When the Summer Dies (Meowingtons Remix).ogg;
#BANNER:When the Summer Dies (Meowingtons Remix).png;
#BACKGROUND:When the Summer Dies (Meowingtons Remix)-BG.png;
#CDTITLE:cdtitle.png;
#SAMPLESTART:87.829;
#SAMPLELENGTH:22.927;
#SELECTABLE:YES;
#OFFSET:-0.024;
#BPMS:0.000=123.000;
#STOPS:;
#BGCHANGES:;
#FGCHANGES:;

//--------------- dance-single - RxSteps ----------------
#NOTES:
     dance-single:
     RxSteps:
     Beginner:
     1:
     0,0,0,0,0:
0000
0000
0000
0000
,
0100
0000
0000
0000
,
0100
0000
0000
0000
,
0001
0000
0000
0000
,
0001
0000
0000
0000
,
1000
0000
0000
0000
,
1000
0000
0000
0000
,
0010
0000
0000
0000
,
0010
0000
0000
0000
,
0100
0000
0000
0000
,
0100
0000
0000
0000
,
0001
0000
0000
0000
,
1000
0000
0000
0000
,
1000
0000
0000
0000
,
0010
0000
0000
0000
,
0001
0000
0000
0000
,
0001
0000
0000
0000
,
1000
0000
0000
0000
,
0010
0000
0000
0000
,
0010
0000
0000
0000
,
0100
0000
0000
0000
,
0001
0000
0000
0000
,
0010
0000
0000
0000
,
0100
0000
0000
0000
,
1000
0000
0000
0001
,
0000
0000
0001
0000
,
0000
0000
0010
0000
,
0000
0000
0000
0000
0000
0000
0000
1000
,
0000
0000
0000
0010
,
0000
0000
0000
0000
0000
0010
0000
0000
,
0000
0000
1000
0000
,
0000
0000
1000
0000
,
0000
0000
0001
0000
,
0000
0100
0000
0000
,
0100
0000
0000
0000
,
0010
0000
0000
0000
,
0001
0000
0000
0000
,
0010
0000
0000
0000
,
0010
0000
0000
0000
,
0100
0000
0000
0000
,
0010
0000
0000
0000
,
1000
0000
1000
0000
,
0000
0000
0001
0000
,
0000
0000
0000
0100
0000
0000
0000
0000
,
0000
0000
0000
0001
,
0000
0000
0010
0000
,
0000
0000
0010
0000
,
0000
0000
0000
0100
0000
0000
0000
0000
,
0000
0000
0000
0000
,
1001
0000
0000
0000
,
0100
0000
0000
0000
,
1000
0000
0000
0000
,
0001
0000
0000
0000
,
0110
0000
0000
0000
,
0001
0000
0000
0000
,
0010
0000
0000
0000
,
0100
0000
0000
0000
,
1001
0000
0000
0000
,
1000
0000
0000
0000
,
0100
0000
0000
0000
,
0100
0000
0000
0000
,
0010
0000
0000
0000
,
0001
0000
0000
0000
,
1000
0000
0000
0000
,
0010
0000
0000
1000
,
0000
0000
0010
0000
,
0000
0000
0000
0100
,
0000
0000
0000
0000
,
0001
0000
0000
0000
,
0100
0000
0000
0000
,
1000
0000
0000
0000
,
0010
0000
0000
0000
,
0010
0000
0000
0000
,
0001
0000
0000
0000
,
1000
0000
0000
0000
,
0010
0000
0000
0000
,
0010
0000
0000
0000
,
0100
0000
0000
0000
,
0001
0000
0000
0000
,
1000
0000
0000
0000
,
0001
0000
0000
0000
,
0010
0000
0010
0000
,
0000
0000
1000
0000
,
0000
0000
0000
0100
0000
0000
0000
0000
,
0000
0000
0000
0001
,
0000
0000
1000
0000
,
0000
0000
0010
0000
,
0000
0000
0000
0001
0000
0000
0000
0000
,
0000
0000
0000
0000
,
0110
0000
0000
0000
,
1000
0000
0000
0000
,
0010
0000
0000
0000
,
1000
0000
0000
0000
,
0100
0000
0000
0000
,
0100
0000
0000
0000
,
1000
0000
0000
0000
,
0001
0000
0000
0000
,
0010
0000
0000
0000
,
0010
0000
0000
0000
,
0001
0000
0000
0000
,
0100
0000
0000
0000
,
1000
0000
0000
0000
,
1000
0000
0000
0000
,
0010
0000
0000
0000
,
0010
0000
0000
1000
,
0000
0000
0010
0000
,
0000
0000
0010
0000
,
0000
0000
0000
0001
0000
0000
0000
0000
,
0000
0000
0000
0010
,
0000
0000
0100
0000
,
0000
0000
0100
0000
,
0000
0000
0000
1000
0000
0000
0000
0000
,
0000
0000
0000
0010
,
0000
0000
0100
0000
,
0000
0000
0001
0000
,
0000
0000
0000
0010
0000
0000
0000
0000
,
0000
0000
0000
1000
,
0000
0000
1000
0000
,
0000
0000
0001
0000
,
0000
0000
0000
0100
0000
0000
0000
0000
,
0000
0000
0000
0001
;

//--------------- dance-single - RxSteps ----------------
#NOTES:
     dance-single:
     RxSteps:
     Easy:
     3:
     0,0,0,0,0:
0000
0000
0000
0000
,
0001
0000
0010
0000
,
0010
0000
0001
0000
,
1000
0000
0010
0000
,
1000
0000
0000
0000
0000
0001
0100
0000
,
0001
0000
0100
0000
,
0010
0000
1000
0000
,
0100
0000
1000
0000
,
0001
0000
0000
0000
0000
1000
0001
0000
,
1000
0000
0010
0000
,
0010
0000
1000
0000
,
0001
0000
0010
0000
,
0010
0000
0000
0000
0000
0001
0010
0000
,
0001
0000
0001
0000
,
1000
0000
0010
0000
,
0100
0000
0100
0000
,
0010
0000
0000
0000
0000
1000
0010
0000
,
1000
0000
0100
0000
,
0100
0000
0010
0000
,
0010
0000
1000
0000
,
0001
0000
0000
0000
0000
1000
0001
0000
,
1000
0000
0010
0000
,
0010
0000
0100
0000
,
0100
0000
0001
0000
,
0001
0000
0000
0000
0000
1000
0010
0000
,
0000
1000
0010
0100
,
0001
0100
0001
1000
,
0000
0001
0100
0010
,
0010
1000
0010
1000
,
0000
0001
0010
0000
,
0001
0100
0010
1000
,
1000
0010
0100
0100
,
0000
0100
0001
0100
,
0000
0001
0001
1000
,
0100
0010
0010
0100
,
0010
0000
0001
0010
,
0100
1000
0100
0010
,
0001
1000
1000
0010
,
0010
0100
0001
0100
,
0001
0000
1000
0000
,
0010
0000
0100
0100
,
0001
0000
1000
1000
,
0010
0100
0001
0001
,
1000
0000
0000
0020
0000
0000
0000
0000
,
0000
0000
0030
0000
,
1000
0100
0010
0010
,
0100
1000
0100
0100
,
1000
0000
0000
0002
0000
0000
0000
0000
,
0000
0003
0000
0000
,
0101
0000
0000
0000
,
0110
0000
0000
0000
,
1000
0001
0010
0100
,
0010
0100
1000
0001
,
0001
1000
1000
0010
,
0100
0001
0100
0010
,
1000
0000
0000
0001
,
0001
0000
0000
1000
,
0010
0010
0100
0010
,
1000
0001
1000
0010
,
0100
0001
0010
0100
,
1000
1000
0001
0001
,
0100
0100
0010
1000
,
0001
0100
0001
1000
,
0010
0000
0000
1000
,
0100
0000
0000
0000
0000
1000
0001
0000
,
0000
1000
0100
0100
,
1000
0001
0010
0100
,
1000
0001
0100
0100
,
0010
0010
1000
1000
,
0001
0000
0100
0000
,
0100
0001
0100
0000
,
0010
0010
1000
0001
,
0100
0100
0001
0000
,
1000
0000
0100
0000
,
0010
0100
1000
0100
,
0010
0001
0100
0010
,
1000
0001
0100
0000
,
0010
0000
1000
0000
,
0010
0100
0001
0010
,
0100
0100
1000
0100
,
0100
0010
0001
0000
,
1000
0010
1000
1000
,
0001
0010
0001
0001
,
1000
0000
0000
0200
0000
0000
0000
0000
,
0300
0000
0000
0000
0000
0100
1000
0000
,
0010
0100
0001
0001
,
1000
0100
0010
0010
,
0001
0000
0000
2000
0000
0000
0000
0000
,
0000
3000
0000
0000
,
1010
0000
0000
0000
,
0110
0000
0000
0000
,
0001
1000
0100
0010
,
0100
0010
0001
1000
,
1000
0001
0001
0100
,
0010
1000
0010
0100
,
0001
0000
0000
1000
,
1000
0000
0000
0001
,
0100
0100
0010
0100
,
0001
1000
0001
0100
,
0010
1000
0100
0010
,
0001
0001
1000
1000
,
0010
0010
0100
0001
,
1000
0010
1000
0001
,
0100
0000
0000
0001
,
0010
0000
0000
0000
0000
0001
1000
0000
,
0001
0100
0001
0001
,
1000
0100
0010
0010
,
0001
0000
0000
0002
0000
0000
0000
0000
,
0000
0000
0003
0000
0000
1000
0001
0000
,
1000
0001
0010
0010
,
0100
1000
0001
0001
,
1000
0000
0000
2000
0000
0000
0000
0000
,
0000
0000
3000
0000
0000
0001
0010
0000
,
0001
1000
0100
0100
,
1000
0001
0100
0100
,
0001
0000
0000
0020
0000
0000
0000
0000
,
0000
0000
0030
0000
0000
0001
1000
0000
,
0001
0010
0100
0100
,
0010
0001
0010
0010
,
0001
0000
0000
2000
0000
0000
0000
0000
,
0000
0000
3000
0000
0000
0001
1000
0000
;

//--------------- dance-single - RxSteps ----------------
#NOTES:
     dance-single:
     RxSteps:
     Medium:
     6:
     0,0,0,0,0:
0000
0000
0000
0000
,
0001
0100
0000
0000
0001
0010
0000
0000
,
0001
1000
0000
0000
0100
1000
0000
0000
,
0010
1000
0000
0000
0010
0100
0000
0000
,
0001
0010
0000
0000
0000
0001
0010
0100
,
1000
0100
0000
0000
1000
0010
0000
0000
,
0100
0001
0000
0000
1000
0001
0000
0000
,
0001
0100
0000
0000
0010
1000
0000
0000
,
1000
0010
0000
0000
0000
1000
0100
0010
,
0001
0010
0000
0010
0001
0100
0000
0001
,
0100
0010
1000
0001
1000
0001
0000
0000
,
0100
0010
0100
0000
0001
0100
0001
0000
,
2000
0001
0000
0001
3000
0001
0100
0010
,
1000
0010
1000
0001
0100
0010
1000
0001
,
1000
0010
0100
0010
0100
0000
0000
0000
,
0002
0003
0200
0300
,
0020
1000
0000
1000
0030
1000
0100
0010
,
0001
0010
0000
0001
0010
0100
0000
0010
,
0100
1000
0001
1000
0000
0000
0000
0000
,
0010
1000
0010
0000
2000
0000
3001
0000
,
0020
0001
0000
0001
0030
0001
0010
0100
,
1000
0100
1000
0001
0100
0010
0100
0001
,
0100
0010
0100
0001
2000
0000
3000
0000
,
0010
1000
0010
0000
0200
0000
0301
0000
,
0002
1000
0000
1000
0003
1000
0020
0030
,
1000
0001
1000
0010
0100
0010
0200
0300
,
0000
0001
0200
0300
0010
1000
0020
0030
,
0000
1000
0100
0010
0001
0010
0001
0100
,
0000
0001
0100
0001
1000
0010
2000
3000
,
0000
0000
0001
1000
0001
0200
0300
0001
,
0100
0000
0001
0000
0010
0000
0001
0000
1000
0000
0001
0000
1000
0000
0000
0020
,
0000
0030
0000
1000
0100
0010
0001
0000
,
0000
0000
0001
0010
0100
1000
0100
0000
,
1000
0000
0001
0000
0001
0000
1000
0010
,
0100
0001
0100
0000
0010
1000
0010
1000
,
0001
0000
0000
0000
1000
0100
0010
0001
,
0010
0100
1000
0100
0010
0001
1000
0001
,
0000
0000
0100
0000
0100
0000
0001
1000
,
0010
0100
0001
0000
1000
0010
1000
0010
,
0100
0000
0000
0000
0000
0000
0001
0000
0010
0000
0000
0100
0000
0000
1000
0000
,
0000
0000
0100
0000
1000
0000
0100
0000
1000
0000
0000
0010
0000
0000
0100
0000
,
0010
0100
0000
0000
0001
0000
0001
0000
,
0100
0000
0010
0100
0010
0000
0010
0000
,
1000
0010
1000
0200
0000
0000
0300
0000
,
2000
0001
0000
3001
0000
1000
0002
0000
,
0103
0001
0000
0000
0010
0000
0010
0000
,
0100
0000
1000
0100
1000
0000
1000
0000
,
0001
1000
0000
0020
0000
0000
0000
0000
,
0000
0100
0030
0100
0001
0100
0010
0100
,
0010
0000
0010
1000
0100
0000
0100
1000
,
0100
0000
0000
1000
0000
0000
0001
0000
0000
0000
0100
0000
0001
0000
0100
0000
,
0020
0000
0000
0000
0030
0000
1000
0001
,
0020
0001
0000
0031
0000
0000
1000
0100
,
0010
0000
0010
0100
1000
0000
0001
0100
,
0001
0000
0000
0100
0000
0000
0010
0000
0000
0000
1000
0000
0001
0000
0100
0000
,
0020
0000
0030
0000
0000
0000
1000
0001
,
0200
0010
0300
0010
0100
0001
0010
0100
,
1000
0000
1000
0100
0010
0000
0001
0100
,
0010
0000
0000
0010
0000
0000
1000
0000
0000
0000
0001
0000
1000
0000
0010
0000
,
0200
0000
0000
0000
0300
0000
0001
0010
,
0200
1000
0000
1300
0000
0000
1000
0001
,
0100
0000
0001
1000
0001
0000
0100
0010
,
0100
0000
0000
0001
0000
0000
1000
0000
0000
0000
0001
0000
0010
0000
0200
0000
,
0000
0000
0000
0000
0300
0000
0100
1000
,
0200
1000
0000
1300
0000
0001
0200
0000
,
0300
0001
0100
0001
0010
0000
0001
0010
,
0001
0010
0100
1000
0100
1000
0020
0000
,
0030
1000
0001
0100
0001
0000
0001
1000
,
0010
1000
0010
0100
0001
1000
0002
0000
,
0003
1000
0010
0100
0020
0030
0100
0010
,
2000
3000
0001
0000
0002
0000
0003
0000
,
0000
0100
0001
0010
0002
0003
1000
0001
,
0200
0300
0020
0030
2000
0000
3000
0000
,
0200
0000
0300
0000
0010
0000
0000
0001
,
0100
0000
0010
0000
1000
0000
0001
0100
,
0001
0000
0010
0000
0100
0000
1000
0100
,
1000
0100
0020
0030
,
0002
0000
0003
0000
2000
0000
3000
0010
,
1000
0000
0010
0000
0100
0000
0001
0100
,
0001
0000
1000
0000
0100
0000
0010
0100
,
0010
0100
2000
3000
,
1000
0010
0000
0000
1000
0000
1000
0000
,
0010
0000
0100
0010
0100
0000
0100
0000
,
0001
0100
0001
0020
0000
0000
0030
0000
,
0002
1000
0000
1003
0000
0001
2000
0000
,
3010
1000
0000
0000
0100
0000
0100
0000
,
0010
0000
0001
0010
0001
0000
0001
0000
,
1000
0001
0000
0200
0000
0000
0000
0000
,
0000
0010
0300
0010
1000
0010
0100
0010
,
0100
0000
0100
0001
0010
0000
0010
0001
,
0010
0000
0000
0001
0000
0000
1000
0000
0000
0000
0010
0000
1000
0000
0010
0000
,
0200
0000
0000
0000
0300
0000
0001
1000
,
0200
1000
0000
1300
0000
0000
0001
0010
,
0100
0000
0100
0010
0001
0000
1000
0010
,
1000
0000
0000
0010
0000
0000
0100
0000
0000
0000
0001
0000
1000
0000
0010
0000
,
0200
0000
0300
0000
0000
0000
0001
1000
,
0020
0100
0030
0100
0010
1000
0100
0010
,
0001
0000
0001
0010
0100
0000
1000
0010
,
0100
0000
0000
0100
0000
0000
0001
0000
0000
0000
1000
0000
0001
0000
0100
0000
,
0020
0000
0000
0000
0030
0000
1000
0100
,
0020
0001
0000
0031
0000
0000
0001
1000
,
0010
0000
1000
0001
1000
0000
0010
0100
,
0010
0000
0000
1000
0000
0000
0001
0000
0000
0000
1000
0000
0100
0000
0020
0000
,
0000
0000
0000
0000
0030
0000
0010
0001
,
0020
0001
0000
0031
0000
0001
2000
3000
,
0001
1000
0000
0000
0001
0000
0001
0000
,
0010
0000
0100
0010
0100
0000
0100
0000
,
1000
0100
1000
0020
0000
0000
0030
0000
,
1000
0010
0000
0000
0000
0010
0100
0001
,
1000
0100
0010
0001
0010
0001
0010
0100
,
1000
0100
1000
0001
1000
0000
1000
0000
,
0020
0000
0030
0200
0000
0000
0300
0000
,
0100
0010
0000
0000
1000
0010
0200
0000
,
0301
0100
0000
0001
0010
0100
0000
0100
,
0010
0100
1000
0100
1000
0000
1000
0000
,
0002
0000
0003
0200
0000
0000
0300
0000
,
0001
1000
0000
0000
0000
1000
0001
0100
,
0010
0100
0001
0100
0010
0100
0001
1000
,
0010
0100
0010
1000
0010
0000
0010
0000
,
0200
0000
0300
0002
0000
0003
0000
0000
,
2000
0000
3000
0000
0001
0100
0010
0000
;

//--------------- dance-single - RxSteps ----------------
#NOTES:
     dance-single:
     RxSteps:
     Hard:
     7:
     0,0,0,0,0:
0000
0000
0000
0000
,
1000
0001
1000
0000
1000
0010
0100
0000
,
0100
0001
0100
0000
0001
0100
0010
0000
,
0010
0100
0010
0000
0010
1000
0100
0000
,
0001
0100
0010
0000
0000
1000
0100
0010
,
0001
1000
0001
0000
0010
0100
0010
0000
,
0001
0010
0001
0000
0001
0100
0010
0000
,
1000
0010
0100
0000
0010
1000
0010
0000
,
1000
0001
0010
0000
0000
0001
0100
0010
,
1000
0001
0000
0100
0010
1000
0000
1000
,
0100
1000
0010
0100
0001
1000
0010
0000
,
0100
0000
0000
0010
0100
0000
0000
0000
0001
0000
1000
0000
0001
0000
0000
0000
,
1000
0010
0000
0010
1000
0001
1000
0100
,
0010
0001
1000
0001
0100
0010
0100
0010
,
1000
0001
1000
0010
1000
0100
1000
0000
,
0001
0000
0000
0100
0010
0000
0000
0000
1000
0000
0010
0000
0100
0000
0000
0000
,
0001
0100
0000
0100
0001
1000
0010
0100
,
0001
1000
0010
0100
0010
0100
0001
1000
,
0010
1000
0001
0010
0001
0100
0010
0000
,
1000
0000
0000
0001
1000
0000
0000
0000
0010
0000
0100
0000
0001
0000
0000
0000
,
1000
0100
0000
0100
1000
0010
1000
0001
,
1000
0010
0100
0010
1000
0001
0010
0001
,
0100
0010
1000
0020
1030
0000
0011
0000
,
1000
0000
0000
0001
0100
0000
0000
0000
0010
0000
1000
0000
0001
0000
0000
0000
,
0100
0001
0000
0002
0000
0013
1000
0010
,
0001
0010
0001
0100
0001
1000
0020
0000
,
0030
0100
0010
0000
0100
0001
0200
0000
,
0300
0010
1000
0001
1000
0010
1000
0200
,
0300
1000
0100
1000
0010
0100
0010
1000
,
0001
1000
0100
0001
0100
0010
1000
0001
,
0010
0001
0010
0100
1000
0100
1000
0020
,
0000
0000
0130
0001
1000
0100
2000
0000
,
3000
0000
1000
0010
0100
0001
0100
0010
,
1000
0010
0002
0000
1003
0000
0001
1000
,
0100
0010
0001
0000
0001
0010
0001
0010
,
0001
0000
0000
1000
0010
0000
0000
0000
0100
0000
0010
0000
1000
0000
0001
0000
,
0100
0010
0100
0001
1000
0001
0100
0010
,
0100
0001
1000
0001
1000
0010
1000
0100
,
1000
0100
0020
0030
0100
0010
0100
0010
,
0002
0000
0000
0000
0003
0000
1000
0000
0010
0000
0000
0200
0000
0300
0002
0000
,
0003
0200
0000
0300
0001
0000
0010
0000
0001
0000
0020
0000
0030
0000
0100
0000
,
1000
0001
0100
0010
1000
0001
1000
0100
,
0001
0010
0100
1000
0110
0000
0011
0000
,
1000
0000
0000
0010
1000
0000
0000
0000
0001
0000
1000
0000
0010
0000
0100
0000
,
0001
1000
0000
1000
0001
0010
0001
0010
,
1000
0001
0100
0010
1000
0001
1000
0010
,
0100
0001
1000
0100
0001
0010
0001
0000
,
1010
0000
0000
1000
0001
0000
0000
0000
1000
0000
0001
0000
0100
0000
0000
0000
,
0001
1000
0000
1000
0001
1000
0100
0010
,
0001
0100
0001
1000
0200
0300
1000
0010
,
1000
0001
0010
0100
0010
0100
1000
0001
,
0100
0000
1010
0000
0011
0000
0001
1000
,
0010
0100
0001
0100
0010
1000
0001
0100
,
0020
0100
2030
0100
,
3002
0003
0010
0002
0100
0003
0001
1000
,
0010
0100
0001
0000
0010
0001
0100
0010
,
1000
0100
0010
0100
1000
0001
0010
1000
,
0010
1000
0001
0100
0002
0003
1000
0100
,
1000
0100
0010
0001
0010
0001
0010
0100
,
1000
0000
0101
0000
1100
0000
0001
1000
,
0100
1000
0010
0100
0001
0010
0100
0010
,
0100
0001
1000
0100
2000
3000
0001
0010
,
0100
1000
0100
0010
0100
1000
0010
0100
,
0001
0000
0110
0000
1001
0000
0001
0100
,
0001
0010
0100
0010
0001
1000
0010
1000
,
0010
0100
0001
0010
0002
0003
0100
0010
,
1000
0100
1000
0010
0100
0001
0020
0030
,
0001
1000
0010
0100
0001
1000
0010
0100
,
0001
0010
0100
1000
0001
0010
0001
0100
,
0010
1000
0001
0010
0002
0003
1000
0100
,
1000
0011
1100
1000
,
0001
0100
0010
1000
0020
0030
0100
0001
,
0020
0030
0002
0003
1000
0001
0010
0100
,
2000
0000
0001
0000
0020
3000
0000
0100
,
2000
3030
0001
0000
0010
0000
0001
0010
,
0002
0000
1000
0000
0013
0000
0001
0010
,
0200
0000
1000
0000
0310
0000
0001
0010
,
0002
0000
1000
0000
0200
0003
0000
0010
,
0302
0000
2003
0000
3010
0000
0100
0010
,
2000
0000
3002
0000
0103
0000
0001
0100
,
0010
0000
1000
0000
0010
0100
0001
1000
,
0010
1000
0100
0010
0001
0000
1010
0000
,
1000
0100
0010
0001
0110
0000
1100
0000
,
1000
0000
0000
0010
1000
0000
0000
0000
0001
0000
1000
0000
0001
0000
0100
0000
,
0010
1000
0000
1000
0001
0100
1000
0100
,
0001
1000
0010
0100
0001
1000
0001
0100
,
0010
1000
0001
0010
1000
0100
1000
0000
,
0110
0000
0000
0001
1000
0000
0000
0000
0001
0000
1000
0000
0010
0000
0000
0000
,
1000
0001
0000
0001
1000
0001
0010
0100
,
1000
0010
1000
0001
0020
0030
0001
0100
,
0001
1000
0100
0010
0100
0010
0001
1000
,
0010
0000
0101
0000
1100
0000
1000
0001
,
0100
0010
1000
0010
0100
0001
1000
0010
,
0200
0010
0302
0010
,
2003
3000
0100
2000
0010
3000
1000
0001
,
0100
0010
1000
0000
0100
1000
0010
0100
,
0001
0010
0100
0010
0001
1000
0100
0001
,
0100
0001
1000
0010
2000
3000
0001
0010
,
0001
0010
0100
1000
0100
1000
0100
0010
,
0001
0000
1010
0000
0011
0000
1000
0001
,
0010
0001
0100
0010
1000
0100
0010
0100
,
0010
1000
0001
0010
0002
0003
1000
0100
,
0010
0001
0010
0100
0010
0001
0100
0010
,
1000
0000
0110
0000
1001
0000
1000
0010
,
1000
0100
0010
0100
1000
0001
0100
0001
,
1000
0001
0010
0100
1000
0010
1000
0001
,
0010
0100
0010
0100
1000
0010
1000
0000
,
0011
0000
0000
0001
0100
0000
0000
0000
0010
0000
1000
0000
0010
0000
0000
0000
,
0100
0001
0010
0000
0001
1000
0010
0100
,
0001
0010
0100
1000
0001
0100
0001
0010
,
0100
1000
0001
0100
0010
1000
0010
0000
,
1100
0000
0000
1000
0010
0000
0000
0000
1000
0000
0001
0000
0010
0000
0000
0000
,
0001
0100
0010
0000
1000
0001
0100
0010
,
1000
0100
0010
0001
0100
0010
0100
0001
,
1000
0010
0100
0001
1000
0010
1000
0000
,
0101
0000
0000
1000
0001
0000
0000
0000
1000
0000
0010
0000
0100
0000
0000
0000
,
0001
0010
0001
0000
1000
0001
0100
0010
,
1000
0100
0010
0100
1000
0001
1000
0100
,
0010
0001
0010
0100
0001
0010
0001
0000
,
1100
0000
0000
0010
0100
0000
0000
0000
0001
0000
0100
0000
0010
0000
0000
0000
,
1000
0100
0010
0000
0001
1000
0010
0000
;
