#TITLE:Watcha Doing;
#SUBTITLE:;
#ARTIST:Dua Lipa;
#TITLETRANSLIT:;
#SUBTITLETRANSLIT:;
#ARTISTTRANSLIT:;
#GENRE:;
#CREDIT:RxSteps;
#MUSIC:Whatcha Doing.ogg;
#BANNER:whatcha doing.png;
#BACKGROUND:whatcha doing-bg.png;
#CDTITLE:cdtitle.png;
#SAMPLESTART:55.921;
#SAMPLELENGTH:20.000;
#SELECTABLE:YES;
#OFFSET:0.650;
#BPMS:0.000=105.000;
#STOPS:;
#BGCHANGES:;
#FGCHANGES:;

//--------------- dance-single - RxSteps ----------------
#NOTES:
     dance-single:
     RxSteps:
     Beginner:
     3:
     0,0,0,0,0:
0000
0000
0000
0000
,
1000
0010
0100
0001
,
2000
3000
0001
0100
,
0010
1000
0001
2000
,
0002
0000
0000
3003
,
1000
1000
0100
0010
,
0001
0100
0100
0010
,
0010
1000
0001
0100
,
0010
1000
0001
0100
,
0001
0001
1000
0010
,
1000
0001
0100
0001
,
1000
0001
0001
1000
,
0010
1000
0020
0030
,
0100
0000
0001
0000
0001
0000
0000
1000
,
0000
0000
0001
0000
1000
0001
1000
0001
,
1000
0001
0100
0001
,
1000
0010
0010
1000
,
0001
0001
0100
0100
,
0010
0000
1000
0000
0001
0100
0001
0100
,
0001
0100
0010
1000
,
0001
0100
0010
0010
,
0100
0200
0300
0001
,
0002
0000
0003
1000
,
0010
0000
1000
0000
0001
0000
0000
0200
,
0000
0000
0300
0000
,
1001
0000
1000
0010
,
0100
0100
0001
0010
,
0001
0001
0100
0010
,
1000
0100
0100
1000
,
0001
0000
0100
0001
0100
0000
0001
1000
,
0001
0100
0010
0010
,
1000
0010
1000
0000
0010
0000
0100
0000
,
0001
0010
0010
0001
,
1000
0001
0200
0000
,
0000
0300
0001
0001
,
1000
0010
0020
0000
,
0000
0030
1000
0001
,
0100
0100
0010
0010
,
1000
0000
0001
0000
0100
0001
0100
0000
,
0010
1000
0002
0000
,
0000
0003
0100
0100
,
0010
0020
0030
1000
,
2000
0000
3000
0001
,
0100
0000
0001
0000
1000
0000
0000
0020
,
0000
0000
0030
0000
,
1001
0000
0001
0100
,
0010
0010
1000
0100
,
1000
1000
0010
0100
,
0001
0010
0010
0001
,
1000
0000
0010
1000
0010
0000
1000
0001
,
1000
0010
0100
0100
,
0001
0100
0001
0000
0100
0000
0010
0000
,
2000
0000
3100
0000
0100
1000
0100
1000
,
0100
1000
0001
0100
,
0010
0000
1000
0000
0001
1000
0001
1000
,
0001
1000
0001
0010
,
0100
0000
1000
0000
0001
1000
0001
1000
,
0001
1000
0010
0100
,
0002
0000
0013
0000
0001
0010
0001
0010
,
0001
1000
0001
0100
,
0010
1000
1000
0010
,
0100
0002
0003
1000
,
2000
0000
3000
0001
,
0010
0000
0001
0000
1000
0000
0000
0200
,
0000
0300
2000
3000
,
0001
0000
0001
0000
0100
0000
0010
0100
,
0010
0100
0001
0100
,
0010
0000
0010
0000
0100
0000
0000
0002
,
0000
0000
0003
0000
,
1001
0000
0001
0010
,
0100
0100
1000
0010
,
1000
1000
0100
0010
,
0001
0100
0100
0001
,
1000
0000
0100
1000
0100
0000
1000
0001
,
1000
0100
0010
0010
,
0001
0010
0001
0000
0010
0000
0100
0000
,
1000
0000
0010
0000
0010
1000
0010
1000
,
0010
1000
0001
0010
,
0100
0000
1000
0000
0001
1000
0001
1000
,
0001
1000
0001
0100
,
0010
0000
1000
0000
0001
1000
0001
1000
,
0001
1000
0100
0010
,
0001
0000
0100
0000
0001
0100
0001
0100
,
0001
1000
0001
0100
,
0010
0000
1000
0000
0001
0100
0001
0100
,
0001
0000
0000
0000
;

//--------------- dance-single - RxSteps ----------------
#NOTES:
     dance-single:
     RxSteps:
     Easy:
     5:
     0,0,0,0,0:
0000
0000
0000
0000
,
2000
0010
3100
0002
,
0020
0003
0130
0010
,
0001
0200
0320
2030
,
0002
0000
0000
3003
,
1000
0010
1000
0001
0100
0000
0010
1000
,
0001
0000
0100
0001
0100
0000
0010
1000
,
0100
0000
1000
0010
0100
0000
0001
0100
,
0010
0000
1000
0001
2000
0000
3000
0000
,
0101
0001
1000
0110
,
1000
0000
0001
0000
0100
0010
0100
0010
,
1000
0001
0000
0010
0001
0100
0000
0010
,
1000
0010
0000
0000
0010
0000
1000
0001
,
1000
1000
0010
0100
0010
0000
0000
1100
,
0000
0000
0001
0000
0100
0010
1000
0010
,
0100
0000
0001
0100
0010
0000
0100
0010
,
0100
0000
0001
0100
0010
0000
1000
0000
,
0101
1000
0001
0110
,
1000
0000
0001
0100
0010
1000
0010
0100
,
0010
0000
0100
0000
0001
0100
0010
0000
,
1000
0010
1000
0010
0100
0000
0020
0000
,
0130
0010
0100
0020
0030
0000
1000
0001
,
1000
0010
0100
0002
0000
0003
1000
0001
,
0100
0010
1000
0002
0000
0000
0000
0200
,
0003
0010
0310
1000
,
0011
0000
1000
0001
1000
0000
0010
0000
,
0100
0001
0100
0000
0001
0000
1000
0000
,
0010
0100
0010
0000
1000
0000
0100
0000
,
0010
0001
0010
0000
0001
0000
1000
0000
,
0010
0000
0100
0010
1000
0000
0001
1000
,
0001
0000
0100
0000
0001
0000
0010
0001
,
1000
0000
0001
0100
0010
0000
1000
0000
,
0010
1000
0010
0000
0100
0010
0100
0000
,
0001
0000
0100
0010
0200
0000
0001
0000
,
0010
0000
0301
0000
1000
0010
1000
0000
,
0001
0100
0020
1000
,
0100
1030
0001
0100
,
0010
0010
1000
1000
,
0001
0000
0010
0000
0001
1000
0001
0000
,
0100
0010
0100
0000
0002
0000
0100
0000
,
0010
0103
0001
1000
,
0010
0100
0010
0200
0300
0000
0001
1000
,
0001
0100
0010
2000
0000
3000
0001
1000
,
0010
0100
0001
2000
0000
0000
0000
0020
,
3000
0100
0130
0001
,
1100
0000
0001
1000
0001
0000
0100
0000
,
0010
1000
0010
0000
1000
0000
0001
0000
,
0100
0010
0100
0000
0001
0000
0010
0000
,
0100
1000
0100
0000
1000
0000
0001
0000
,
0100
0000
0010
0100
0001
0000
1000
0001
,
1000
0000
0010
0000
1000
0000
0100
1000
,
0001
0000
1000
0010
0100
0000
0001
0000
,
0100
0001
0100
0000
0010
0100
0010
0100
,
0010
1000
0001
0010
,
0100
0000
1000
0000
0001
1000
0001
0100
,
0010
1000
0001
0010
,
0100
0000
1000
0000
0001
0100
0001
0100
,
0010
1000
0010
0100
,
0001
0000
0010
0000
0100
1000
0100
1000
,
0001
0100
0010
1000
,
0001
0000
0100
0000
0010
0000
1000
1000
,
0001
0000
0200
0000
0010
0000
0301
0001
,
1000
0000
0020
0000
0100
0000
1030
1000
,
0001
0000
0100
0000
0010
0000
0000
1001
,
0000
0001
0200
0010
,
0301
0000
0100
0001
0100
0000
0010
1000
,
0010
0000
0100
0001
1000
0000
0100
1000
,
0001
0000
0001
0000
0100
0000
0000
2002
,
0000
3003
0000
0001
,
1010
0000
0001
1000
0001
0000
0010
0000
,
0100
1000
0100
0000
1000
0000
0001
0000
,
0010
0100
0010
0000
0001
0000
0100
0000
,
0010
1000
0010
0000
1000
0000
0001
0000
,
0010
0000
0100
0010
0001
0000
1000
0001
,
1000
0000
0100
0000
1000
0000
0010
1000
,
0001
0000
1000
0100
0010
0000
0001
0000
,
0010
0001
0010
0000
0100
0010
0100
0010
,
0100
1000
0001
0100
,
0010
0000
1000
0000
0001
1000
0001
0010
,
0100
1000
0001
0100
,
0010
0000
1000
0000
0001
0010
0001
0010
,
0100
1000
0100
0010
,
0001
0000
0100
0000
0010
1000
0010
1000
,
0001
0010
0100
1000
,
0001
0000
0010
0000
0100
1000
0010
0100
,
0001
0000
0000
0000
;

//--------------- dance-single - RxSteps ----------------
#NOTES:
     dance-single:
     RxSteps:
     Medium:
     7:
     0,0,0,0,0:
0000
0000
0000
0000
,
0002
0100
0013
2000
,
0200
3000
0310
0100
,
1000
0020
0230
0302
,
2000
0000
0000
3003
,
0011
0001
0100
0010
0100
0001
0100
0010
,
1000
0000
0100
0000
0010
0000
0001
0100
0001
0100
0000
0010
0000
1000
0000
0100
,
0000
1000
0010
0100
0010
1000
0001
0010
,
0100
0000
1000
0000
0001
0000
0010
0000
0100
0000
0010
0000
0001
0000
0000
1000
,
0010
0000
0000
0001
0010
0000
0000
1000
0010
0000
0000
0100
0010
0000
0000
1000
,
0200
0000
0310
0001
0100
0010
0100
0001
,
0010
0001
1000
0100
0010
0100
1000
0001
,
0001
0000
1000
0000
0001
0000
0000
0100
0010
0000
0000
0000
1000
0000
0010
0000
,
0100
0001
1000
0001
0010
0001
0100
1010
,
0010
0000
1000
0000
0001
0000
1000
0000
0010
1000
0000
0001
0000
0010
0000
0100
,
0010
0001
1000
0010
0100
0001
0010
0100
,
0010
0000
0100
0000
1000
0000
0010
0000
0100
0000
0001
0000
1000
0000
0000
1000
,
0010
0000
0000
0001
0100
0000
0000
0001
0010
0000
0000
0001
1000
0000
0000
0010
,
0100
0000
0010
0000
1000
0000
0100
1000
0100
1000
0000
0001
0000
0100
0000
0010
,
0100
0001
0010
0100
1000
0010
0100
0010
,
1000
0100
1000
0002
0100
0000
0203
0000
,
0310
0000
1000
0000
0100
0000
0010
0002
0000
0000
0013
0000
0001
0000
1000
0000
,
0010
0000
0100
0000
0001
0000
0100
0010
0000
0000
0100
0000
0001
0000
1000
0000
,
0010
0000
0100
0000
0001
0000
1000
0100
0000
0000
2000
0000
0000
0000
0020
0000
,
3000
0000
0100
0000
0130
0000
0001
0010
,
1200
0000
0310
0000
0001
0000
1000
0010
0100
0000
0010
0000
1000
0000
0001
0000
,
0100
0000
0010
0000
1000
0000
0100
1000
0000
0000
0001
0000
0010
0000
0100
0000
,
1000
0001
0010
0100
0010
0001
0100
0010
,
0100
0000
0001
0000
0010
0000
0100
0010
0000
0000
0001
0000
1000
0000
0010
0000
,
0100
0010
0000
0000
1000
0000
0001
0100
0000
0000
0010
0000
1000
0000
1000
0000
,
0001
0000
1000
0000
0010
0000
0100
0010
0000
0000
1000
0000
0100
0000
0010
0000
,
0001
1000
0010
0100
0001
0100
0010
1000
,
0100
1000
0010
0100
0001
0010
0100
0100
,
1000
0000
0000
0000
0000
0000
0010
0000
0000
0000
0000
0000
0100
0000
0000
0000
0000
0000
0001
0000
0000
0000
0000
0000
1000
0000
0000
0000
0001
0000
0100
0000
0000
0000
0010
0000
0000
0100
0000
0000
0001
0000
0000
0000
0000
0000
1000
0000
,
0000
0000
0010
0000
1000
0000
0000
0010
1000
0010
0000
0100
0000
0001
0000
0010
,
0000
0000
0000
0000
0000
0000
0001
0000
0000
0000
0000
0000
1000
0000
0000
0000
0000
0000
0010
0000
0000
0000
0100
0000
0000
0010
0000
0000
0100
0000
0000
0001
0000
0000
0000
0000
1000
0000
0000
0000
0000
0010
0000
0000
0000
0000
0100
0000
,
0000
0000
0010
0000
1000
0000
0001
0000
0100
0000
0001
0010
0001
0010
0000
0000
,
0001
0000
0000
0100
0010
0000
0000
0001
1000
0000
0000
0100
1000
0000
0000
1000
,
0002
0000
0000
0000
0010
0000
0003
0000
0010
0001
0000
0010
0000
0100
0000
1000
,
0000
0000
0000
0000
0000
0000
0010
0000
0000
0000
0000
0000
0100
0000
0000
0000
0000
0000
0010
0000
0000
0000
0000
0000
2000
0000
0000
3000
0000
0000
0010
0000
0000
0000
1000
0000
0010
0000
0000
0000
1000
0000
0010
0000
0000
0000
0000
1000
,
0000
0000
0000
0000
0000
0000
0000
0002
0000
0000
0000
0000
0000
0000
0000
0000
0000
0000
0103
0000
0000
0000
0000
0000
0020
0000
0000
0000
0000
0000
0000
0000
0000
0000
0000
0000
0100
0000
0000
0000
0000
0000
0000
0000
0000
0000
0000
0000
,
0130
0000
0001
0000
0010
0000
0100
2000
0000
0000
3100
0000
1000
0000
0001
0000
,
0010
0000
0001
0000
1000
0000
0010
0100
0000
0000
0010
0000
1000
0000
0001
0000
,
0010
0000
0100
0000
1000
0000
0001
0010
0000
0000
0002
0000
0000
0000
0200
0000
,
0003
0000
0010
0000
0310
0000
1000
0100
,
0021
0000
0130
0000
1000
0000
0001
0100
0010
0000
0100
0000
0001
0000
1000
0000
,
0010
0000
0100
0000
0001
0000
0010
0001
0000
0000
1000
0000
0100
0000
0010
0000
,
0001
1000
0100
0010
0100
1000
0010
0100
,
0010
0000
1000
0000
0100
0000
0010
0100
0000
0000
1000
0000
0001
0000
0100
0000
,
0010
0100
0000
0000
0001
0000
1000
0010
0000
0000
0100
0000
0001
0000
0001
0000
,
1000
0000
0001
0000
0100
0000
0010
0100
0000
0000
0001
0000
0010
0000
0100
0000
,
1000
0001
0100
0010
1000
0010
0100
0001
,
0010
0001
0100
0010
1000
0100
1000
1000
,
0010
0100
0001
0010
0100
0010
0001
0100
,
0010
0000
0100
0000
0001
0000
0020
0000
0100
0000
0000
0000
0001
0000
0000
0030
,
0100
1000
0100
0010
0100
1000
0001
0010
,
0001
1000
0010
0200
0001
0000
0010
0000
,
0301
1000
0001
0100
0010
1000
0010
0100
,
0001
0010
0001
0020
0001
0000
0100
0000
,
0031
1000
0100
1000
0001
0100
0001
0010
,
0001
1000
0200
0010
1300
0000
0001
0100
,
0010
1000
0010
0100
0010
1000
0100
1000
,
0011
0000
1001
0001
0100
0010
1000
0001
,
0011
0000
1100
1000
0001
0100
0010
2000
,
0100
0000
0000
0000
3001
0000
0020
0000
0100
0000
0000
0030
0001
0000
0010
0000
,
0100
0100
0010
0001
1000
0000
1001
0000
,
1001
0000
0001
0010
0100
1000
0010
1000
,
0100
0010
0001
0100
0010
1000
0020
0200
,
0000
0000
0000
0000
0330
0000
0001
0010
,
1200
0000
0310
0000
0001
0000
1000
0010
0100
0000
0010
0000
1000
0000
0001
0000
,
0100
0000
0010
0000
1000
0000
0100
1000
0000
0000
0001
0000
0010
0000
0100
0000
,
1000
0001
0010
0100
0010
0001
0100
0010
,
0100
0000
0001
0000
0010
0000
0100
0010
0000
0000
0001
0000
1000
0000
0010
0000
,
0100
0010
0000
0000
1000
0000
0001
0100
0000
0000
0010
0000
1000
0000
1000
0000
,
0001
0000
1000
0000
0010
0000
0100
0010
0000
0000
1000
0000
0100
0000
0010
0000
,
0001
1000
0010
0100
0001
0100
0010
1000
,
0100
1000
0010
0100
0001
0010
0001
0001
,
0010
0100
0010
0001
1000
0010
0100
0010
,
1000
0100
0010
0200
0010
0000
1000
0000
,
0310
0001
1000
0100
0010
0001
0010
0100
,
1000
0010
0100
0002
0010
0000
1000
0000
,
0013
0001
1000
0010
0100
0001
0100
0010
,
1000
0001
1000
0200
0010
0000
1000
0000
,
0310
0001
0010
0001
1000
0010
1000
0100
,
1000
0001
0010
0100
0010
0001
0100
0010
,
1000
0000
0000
0000
;

//--------------- dance-single - RxSteps ----------------
#NOTES:
     dance-single:
     RxSteps:
     Hard:
     8:
     0,0,0,0,0:
0000
0000
0000
0000
,
2000
0010
3100
0002
,
0020
0003
0130
0010
,
0001
0200
1300
0200
,
0002
0000
0000
0303
,
1100
1000
0010
0200
1300
0001
0010
0100
,
0001
0000
0010
0000
0100
0000
1000
0010
1000
0010
0000
0100
0000
0001
0000
0010
,
0000
0001
0100
1000
0100
0001
0010
1000
,
0010
0000
0001
0000
1000
0000
0100
0000
0010
0000
0100
0000
1000
0000
0000
0001
,
0100
0000
0000
1000
0100
0000
0000
0001
0200
0000
0300
1000
0100
0000
0000
0001
,
0020
0000
0130
0001
0010
0100
0010
0001
,
0200
1300
0001
0010
0100
0001
1000
0010
,
0100
0000
0001
0000
1000
0000
0000
0010
0100
0000
0000
0000
0001
0000
0100
0000
,
0010
1000
0100
0001
0100
1000
0010
0101
,
0100
0000
1000
0000
0100
0000
0001
0000
0100
0001
0000
1000
0000
0100
0000
0010
,
0100
1000
0001
0100
0010
1000
0200
0301
,
1000
0000
0010
0000
0001
0000
0100
0000
0010
0000
1000
0000
0100
0000
0000
0001
,
0100
0000
0000
1000
0200
0000
0300
0001
0200
0000
0000
1300
0001
0000
0000
0100
,
0010
0000
0100
0000
0001
0000
0010
0001
0010
0001
0000
1000
0000
0010
0000
0100
,
0010
1000
0100
0010
0001
0100
1000
0100
,
0001
0010
0001
2000
0010
0000
3020
0000
,
0130
0000
0001
0000
0010
0000
0100
2000
0000
0000
3100
0000
1000
0000
0001
0000
,
0200
0000
1300
0000
0001
0000
0010
0100
0000
0000
0010
0000
1000
0000
0001
0000
,
0010
0000
1000
0000
0010
0000
0001
0010
0000
0000
0002
0000
0000
0000
0200
0000
,
0003
0000
0010
0000
0310
0000
1000
0100
,
0021
0000
0130
0000
1000
0000
0001
0100
0010
0000
0100
0000
0001
0000
0100
0000
,
1000
0000
0100
0000
0001
0000
0010
0001
0000
0000
1000
0000
0200
0000
0301
0000
,
1000
0010
0001
0100
1000
0100
0001
0100
,
0010
0000
1000
0000
0100
0000
0010
0100
0000
0000
1000
0000
0001
0000
0100
0000
,
0010
0100
0000
0000
0001
0000
1000
0010
0000
0000
0100
0000
0001
0000
0020
0000
,
1030
0000
0001
0000
0100
0000
1000
0100
0000
0000
1000
0000
0010
0000
0100
0000
,
1000
0100
0001
0010
1000
0010
0001
0100
,
0010
1000
0100
0010
0001
0100
0020
0031
,
1000
0000
0000
0000
0000
0000
0100
0000
0000
0000
0000
0000
0010
0000
0000
0000
0000
0000
1000
0000
0000
0000
0000
0000
0001
0000
0000
0000
1000
0000
0010
0000
0000
0000
0100
0000
0000
0010
0000
0000
1000
0000
0000
0000
0000
0000
0001
0000
,
0000
0000
0100
0000
0001
0000
0000
0100
0001
0100
0000
0010
0000
1000
0000
0100
,
0000
0000
0000
0000
0000
0000
1000
0000
0000
0000
0000
0000
0001
0000
0000
0000
0000
0000
0100
0000
0000
0000
0010
0000
0000
0100
0000
0000
0010
0000
0000
1000
0000
0000
0000
0000
0001
0000
0000
0000
0000
0100
0000
0000
0000
0000
0010
0000
,
0000
0000
0100
0000
0001
0000
1000
0000
0010
0000
1000
0100
1000
0100
0000
0000
,
1000
0000
0000
0010
0100
0000
0000
1000
0001
0000
0000
0010
0001
0000
0000
0001
,
2000
0000
0000
0000
0100
0000
3000
0000
0100
1000
0000
0100
0000
0010
0000
0001
,
0000
0000
0000
0000
0000
0000
0100
0000
0000
0000
0000
0000
1000
0000
0000
0000
0000
0000
0100
0000
0000
0000
0000
0000
0002
0000
0000
0003
0000
0000
0100
0000
0000
0000
0001
0000
0100
0000
0000
0000
0001
0000
0100
0000
0000
0000
0000
0001
,
0000
0000
0000
0000
0000
0000
0000
2000
0000
0000
0000
0000
0000
0000
0000
0000
0000
0000
3010
0000
0000
0000
0000
0000
0200
0000
0000
0000
0000
0000
0000
0000
0000
0000
0000
0000
0010
0000
0000
0000
0000
0000
0000
0000
0000
0000
0000
0000
,
0310
0000
1000
0000
0100
0000
0010
0002
0000
0000
0013
0000
0001
0000
1000
0000
,
0020
0000
0031
0000
1000
0000
0100
0010
0000
0000
0100
0000
0001
0000
1000
0000
,
0100
0000
0001
0000
0100
0000
1000
0100
0000
0000
2000
0000
0000
0000
0020
0000
,
3000
0000
0100
0000
0130
0000
0001
0010
,
1200
0000
0310
0000
0001
0000
1000
0010
0100
0000
0010
0000
1000
0000
0010
0000
,
0001
0000
0010
0000
1000
0000
0100
1000
0000
0000
0001
0000
0020
0000
1030
0000
,
0001
0100
1000
0010
0001
0010
1000
0010
,
0100
0000
0001
0000
0010
0000
0100
0010
0000
0000
0001
0000
1000
0000
0010
0000
,
0100
0010
0000
0000
1000
0000
0001
0100
0000
0000
0010
0000
1000
0000
0200
0000
,
0301
0000
1000
0000
0010
0000
0001
0010
0000
0000
0001
0000
0100
0000
0010
0000
,
0001
0010
1000
0100
0001
0100
1000
0010
,
0100
0001
0010
0100
1000
0010
0200
1300
,
0100
0010
1000
0100
0001
0100
1000
0010
,
0001
0000
0010
0000
1000
0000
0100
0000
1000
0100
1000
0100
1000
0100
1000
0100
,
1000
0001
0010
0100
0010
0001
0200
1300
,
0100
0000
0010
0000
0100
0000
0001
0000
0010
0001
0010
0001
0010
0001
0010
0001
,
0010
0001
1000
0010
0100
0001
0100
0010
,
1000
0000
0100
0000
0001
0000
0100
0000
1000
0100
1000
0100
1000
0100
1000
0100
,
1000
0001
0010
0001
1000
0010
1000
0100
,
1000
0001
0020
0100
0032
0000
1003
0010
,
0100
0001
0100
1000
0100
0001
0010
0001
,
1100
0000
0101
0100
1000
0100
0001
0010
,
1100
0000
0011
0010
1000
0010
0001
0100
,
0010
0000
0100
0000
0001
0000
0100
0000
0010
0100
0010
0100
0010
0000
1000
0000
,
0100
0010
0100
1000
0001
0000
1001
0000
,
1001
0000
1000
0100
0010
0001
0100
0001
,
0200
1300
0001
0010
0100
0001
0200
0020
,
0000
0000
0000
0000
0330
0000
1000
0100
,
0021
0000
0130
0000
1000
0000
0001
0100
0010
0000
0100
0000
0001
0000
0100
0000
,
1000
0000
0100
0000
0001
0000
0010
0001
0000
0000
1000
0000
0200
0000
0301
0000
,
1000
0010
0001
0100
1000
0100
0001
0100
,
0010
0000
1000
0000
0100
0000
0010
0100
0000
0000
1000
0000
0001
0000
0100
0000
,
0010
0100
0000
0000
0001
0000
1000
0010
0000
0000
0100
0000
0001
0000
0020
0000
,
1030
0000
0001
0000
0100
0000
1000
0100
0000
0000
1000
0000
0010
0000
0100
0000
,
1000
0100
0001
0010
1000
0010
0001
0100
,
0010
1000
0100
0010
0001
0100
0010
1000
,
0100
0010
0100
1000
0001
0100
1000
0100
,
0001
0000
0010
0000
0100
0000
1000
0000
0100
0010
0100
0010
0100
0010
0100
0010
,
0100
1000
0100
0010
0100
1000
0020
0031
,
0010
0000
0100
0000
0010
0000
1000
0000
0100
1000
0100
1000
0100
1000
0100
1000
,
0100
1000
0001
0100
0010
1000
0010
0100
,
0001
0000
0010
0000
1000
0000
0010
0000
0001
0010
0001
0010
0001
0010
0001
0010
,
0001
1000
0100
1000
0001
0100
0001
0010
,
0001
1000
0200
0301
1000
0010
0001
0100
,
1000
0000
0000
0000
;
