#TITLE:Wannabe (In the style of System Of A Down);
#SUBTITLE:Feat. Mac Glocky;
#ARTIST:Anthony Vincent, Spice Girls, System Of A Down;
#TITLETRANSLIT:;
#SUBTITLETRANSLIT:;
#ARTISTTRANSLIT:;
#GENRE:;
#CREDIT:RxSteps;
#MUSIC:Wannabe (In the style of System Of A Down).ogg;
#BANNER:Wannabe (in the style of System Of A Down).png;
#BACKGROUND:Wannabe (in the style of System Of A Down)-bg.png;
#CDTITLE:cdtitle.png;
#SAMPLESTART:0.077;
#SAMPLELENGTH:23.690;
#SELECTABLE:YES;
#OFFSET:1.061;
#BPMS:0.000=145.000;
#STOPS:;
#BGCHANGES:;
#FGCHANGES:;

//--------------- dance-single - RxSteps ----------------
#NOTES:
     dance-single:
     RxSteps:
     Beginner:
     3:
     0,0,0,0,0:
0000
0000
0000
0000
,
1000
0000
0001
0000
0100
0001
0100
0000
,
0001
0000
0100
0000
0001
1000
0001
0000
,
1000
0000
0010
0000
0100
0010
0100
0000
,
0001
0000
1000
0000
0001
1000
0001
0000
,
1000
0001
0100
0010
,
2000
0000
0000
3000
0001
0000
0001
0000
,
0100
0001
1000
1000
,
0001
0000
0100
0000
0100
0010
0100
0000
,
0001
1000
0010
1000
,
0001
0100
0001
0000
0200
0000
0300
0000
,
0001
1000
0010
0010
,
1000
0000
0001
0000
0100
0001
0100
0000
,
0001
1000
0010
0010
,
2000
3000
0002
0003
,
1000
0000
0100
0000
1000
0100
1000
0000
,
1000
0000
0001
0000
0100
0001
0100
0000
,
0001
1000
0001
0100
,
0020
0030
1000
1000
,
0001
0000
0100
0000
,
0001
1000
0100
0000
,
0100
0000
1000
0000
0001
0000
0000
0200
,
0000
0300
0001
1000
,
0001
1000
0100
1000
,
0001
1000
0001
0000
2000
0000
3000
0000
,
0010
0000
0000
0000
0100
0000
0000
0002
,
0000
0003
0100
0001
,
2000
0000
0000
0000
3000
0000
0010
1000
,
0010
0000
0000
0200
0000
0000
0300
0000
,
0000
0001
0000
0000
1000
0000
0001
0000
,
0100
0100
0002
0003
,
1000
0001
0100
0100
,
0010
0000
1000
0000
0010
0100
0010
0000
,
1000
0001
0100
0010
,
2000
3000
0020
0030
,
1000
0000
0001
0000
0100
0001
0100
0000
,
0001
0000
0001
0000
0100
0001
0100
0000
,
0001
1000
0010
0100
,
0002
0003
1000
0010
,
1000
0001
0100
0100
,
0001
0100
0001
0000
0200
0000
0300
0000
,
0010
0000
1000
0000
0010
0000
0000
2000
,
0000
3000
0001
0000
,
1000
0010
0100
0001
,
1000
0001
1000
0000
0020
0000
0030
0000
,
1000
0000
0001
0000
0100
0000
0000
0020
,
0000
0030
2000
3000
,
0001
0000
0100
0000
0001
0000
0000
0001
,
1000
0000
0000
0000
0000
0000
0001
0100
,
0001
0000
0000
0000
0000
0000
0000
1000
,
0010
0000
1000
0010
,
0010
1000
0001
0100
,
0010
1000
0001
0000
,
0110
0000
0000
0000
,
1001
0000
0000
0000
,
1000
0100
0010
0001
,
0010
0001
0010
0100
,
2000
0000
3000
0000
,
0020
0000
0030
0000
,
0200
0000
0300
0000
,
0002
0000
0003
0000
,
2000
0000
3000
0000
,
0002
0000
0003
0000
,
2000
0000
3000
0000
,
0010
0000
1000
0000
,
0001
1000
0010
0100
,
0001
0000
0001
0000
0000
1000
0000
0000
,
0010
1000
0002
0003
,
0200
0000
0300
0000
,
0001
0100
0001
1000
,
0010
0020
0000
0030
,
0000
0200
0000
0000
0300
0000
0000
0000
,
0002
0000
0003
0000
,
1000
0100
0010
0001
,
0001
0020
0000
0030
,
0000
0001
1000
0000
,
0010
0000
0100
0000
,
0001
0010
0100
1000
,
0100
2000
0000
3000
,
0000
0020
0000
0000
0030
0000
0000
0000
,
0200
0000
0300
0000
,
0001
1000
0001
0000
0100
0000
0100
0000
,
0010
0020
0000
0030
,
1000
0000
0001
0000
,
0100
0000
0000
0001
0100
0000
0000
0000
,
0001
1000
0001
1000
,
0001
0200
0000
0300
,
0000
0020
0000
0000
0030
0000
1000
0000
,
0010
1000
0010
0100
,
0001
0000
0100
0100
,
0000
0001
0010
0100
,
1000
0000
0010
0010
,
0000
2000
3000
0000
,
1001
0000
0000
0000
,
1000
0001
0100
0010
,
1000
1000
0100
0100
,
0000
1000
0100
0010
,
0001
0000
0110
0000
,
1000
0000
0110
0000
,
0001
0000
0110
0000
,
1000
0001
0100
0010
;

//--------------- dance-single - RxSteps ----------------
#NOTES:
     dance-single:
     RxSteps:
     Easy:
     5:
     0,0,0,0,0:
0000
0000
0000
0000
,
1000
0001
1000
0000
0001
0100
0001
0100
,
0010
1000
0010
0000
1000
0001
1000
0010
,
1000
0010
1000
0000
0001
0010
0001
0000
,
1000
0001
1000
0000
0010
0100
0010
0000
,
1000
0001
0100
0010
,
2000
0000
0000
3000
0001
1000
0002
0000
,
0103
0001
1000
1000
,
0010
1000
0010
0100
0001
0100
0001
0000
,
1000
0010
0100
0001
,
1000
0001
1000
0001
0010
0001
0010
0000
,
0001
0010
0100
0100
,
1000
0000
0010
0000
0100
0001
0100
0000
,
0001
2000
0010
3001
,
1000
0000
0000
0010
0000
0000
1000
0000
0002
0000
0000
0000
0003
0000
0000
0000
,
1000
0001
1000
0000
0001
0010
0001
1000
,
0010
1000
0000
0001
1000
0001
1000
0001
,
0100
0010
1000
0100
,
0020
0000
0030
0000
0001
0010
0001
0000
,
0001
0100
0001
0100
0002
0000
0003
0000
,
1000
0001
1000
0010
0200
0000
0000
0000
,
0310
0000
1000
0000
0001
0000
0000
0100
,
0001
0000
0000
0100
0000
0000
0001
0000
0200
0000
0000
0000
0300
0000
0000
0000
,
0001
0001
1000
0001
,
0100
0001
0100
0001
2000
0000
3000
0000
,
0010
1000
0000
0001
1000
0001
1000
0001
,
0000
1000
0010
1000
0020
0000
0100
0000
,
0130
0000
0001
0000
1000
0000
0010
1000
,
0020
0000
0000
0200
0000
0000
0330
0000
,
0000
1001
0000
0000
1000
0000
0001
0000
,
0100
0000
0000
0000
0100
0000
0000
0000
0001
0000
0000
1000
0000
0000
0010
0000
,
1000
0000
0001
0000
0100
0001
0100
0000
,
0001
0000
1000
0000
0010
0100
0010
0000
,
1000
0001
0100
0010
,
1000
0000
0000
0010
0000
0000
1000
0000
0020
0000
0000
0000
0030
0000
0000
0000
,
1000
0001
1000
0000
0010
1000
0010
0100
,
0001
0100
0001
0000
1000
0001
1000
0010
,
1000
0001
0100
0010
,
2000
0000
3000
0000
0010
1000
0010
0000
,
1000
0001
0100
0100
,
0001
1000
0001
1000
0020
0000
0030
0000
,
1000
0000
0001
0000
0010
0000
0100
1000
,
0100
0000
0000
1000
0000
0000
0100
0000
2000
0000
0000
0000
3000
0000
0000
0000
,
0001
0100
0010
1000
,
0001
0010
0001
0010
0200
0000
0300
0000
,
1000
0000
0001
0000
0100
0000
0100
0010
,
0000
0100
0000
0000
0010
0000
0000
0000
2000
0000
0000
0000
3000
0000
0000
0000
,
0001
0000
0100
0000
0010
0000
1000
0001
,
1000
0000
0010
0000
1000
0000
0001
0100
,
0001
0000
1000
0000
0100
0000
0010
0001
,
0010
0001
1000
0010
,
0010
0000
1000
0010
1000
0000
0001
1000
,
0001
0100
0001
0000
1000
0000
0010
0000
,
0110
0000
1001
0000
,
0110
0000
1001
0000
,
1000
0100
0010
0001
,
0010
0001
0010
0100
,
2000
0000
0000
3000
,
0020
0000
0000
0030
0100
0010
0100
0010
,
0200
0000
0000
0000
0000
0000
0000
0300
,
0002
0000
0100
0000
,
1003
0001
0100
0001
,
1000
0000
0002
0000
0003
0100
0001
0100
,
0001
0200
0000
0000
0000
0000
0000
0000
,
0010
0000
0301
0000
,
1000
0010
0100
0001
,
1000
0001
2000
0000
3000
0010
1000
0010
,
1000
0000
0000
0000
0001
0000
0000
0000
0100
0000
0000
0010
0000
0000
0100
0000
,
0001
0000
0000
1000
0010
0000
1000
0000
,
0001
0100
0010
1000
,
0001
0000
0002
0000
0003
1000
0001
1000
,
0000
0000
0010
0000
0000
1000
0000
0000
0010
0000
0000
0000
1000
0000
0000
0000
,
0002
0100
0200
0303
,
0001
0000
1000
0000
0001
0000
0000
1000
0000
0000
0000
0000
0010
0000
0000
0000
,
0100
0000
0020
0000
0030
1000
0010
1000
,
0010
0000
0000
0000
1000
0000
0000
0000
0001
0000
0000
0100
0000
0000
0001
0000
,
0100
0000
0000
0010
1000
0000
0000
0000
,
0001
0010
0100
1000
,
0100
0000
2000
0000
3000
0010
1000
0010
,
1000
0000
0010
0000
0000
0100
0000
0000
0010
0000
0000
0000
0100
0000
0000
0000
,
0002
0000
0000
0003
,
1000
0001
1000
0001
0100
0000
0100
0000
,
0010
0000
0020
0000
0030
1000
0010
1000
,
0010
0000
1000
0000
0000
0010
0000
0000
0100
0000
0000
0000
0001
0000
0000
0000
,
1000
0000
0000
0001
0200
0000
0300
0000
,
0001
0010
0100
0010
,
0001
0000
0020
0000
0030
0001
0010
0001
,
0010
0000
0001
0000
0000
0010
0000
0000
0001
0000
0000
0000
1000
0000
0000
0000
,
0001
1000
0010
0100
,
0002
0003
0100
0200
,
0300
0000
0001
0100
0001
0100
0001
0000
,
2000
3000
0010
0020
,
0030
2000
3000
0000
,
1001
0000
0110
0000
,
1000
0000
0001
0000
0100
0001
0100
0000
,
0001
1000
0100
0200
,
0300
0000
1000
0100
1000
0100
1000
0000
,
0001
1000
0001
0000
0100
0010
0100
0000
,
0100
0010
0100
0000
0001
1000
0001
0000
,
1000
0000
0001
0000
0010
0001
0010
0000
,
0001
0000
1000
0000
0100
1000
0100
0000
;

//--------------- dance-single - RxSteps ----------------
#NOTES:
     dance-single:
     RxSteps:
     Medium:
     8:
     0,0,0,0,0:
0000
0000
0000
0000
,
1000
0100
1000
0010
0100
0010
0100
0001
,
1000
0010
0100
0001
0100
0010
1000
0100
,
1000
0001
0100
0010
1000
0001
1000
0010
,
0100
0001
0010
0001
0010
0100
1000
0010
,
1000
0101
1010
0011
,
1000
0000
0100
0000
0010
0000
0001
0000
1000
0001
1000
0000
0002
0000
0000
0000
,
0013
0100
1000
0010
0200
0000
0001
0000
,
0310
1000
0100
0010
0100
1000
0001
0100
,
0001
0010
0100
0010
0001
1000
0002
0003
,
0100
0010
1000
0100
0010
0100
2000
0000
,
3001
0000
1000
0000
0010
0000
0200
0000
0001
0000
0000
0002
0300
0000
0000
0000
,
0013
0100
0010
0001
1000
0100
1000
0001
,
1000
0100
0020
0000
0001
0000
0130
1000
,
0010
0000
0000
0100
0000
0000
0010
0000
1000
0000
0000
0011
0000
0000
1200
0000
,
0310
0001
0010
0100
1000
0100
1000
0010
,
0100
0001
1000
0100
0010
0100
1000
0001
,
1000
0100
1000
0001
1000
0010
1000
0001
,
0010
0000
0100
0000
1000
0000
0010
0000
0100
0001
0100
0000
0010
0000
0000
0000
,
1001
0000
0000
1000
0100
0000
0000
0010
0100
0000
0000
0001
1000
0000
0000
0010
,
1000
0000
0000
0001
0100
0000
0000
0000
0001
0000
0010
0000
0100
0000
1000
0000
,
0010
0100
0001
0100
0010
1000
0100
0010
,
0001
0100
0010
0100
0001
1000
0100
0010
,
0001
1100
0110
0011
,
1000
0001
0100
0010
1000
0001
0010
0001
,
1000
0200
0000
0310
0001
0100
0010
2000
,
3000
0001
0100
0010
0100
0001
0020
0000
,
0031
1000
0010
0100
0010
0000
1000
0001
,
0100
0010
0100
0001
1000
0100
0010
0100
,
1000
0000
0002
0000
0003
0000
1000
0001
1000
0000
0010
0000
0100
0000
0002
0000
,
0100
0000
0000
0000
0103
0000
0000
0000
0001
0000
0000
1000
0000
0000
0010
0000
,
1000
0100
0010
0200
1000
0000
0320
0000
,
0031
1000
0010
0100
0001
0010
0100
0010
,
0001
1000
0001
0100
0001
1000
0010
0100
,
0001
0000
0000
0011
0000
0000
1000
0000
0010
0000
0000
0100
0000
0000
0001
0000
,
0100
0010
0100
0001
1000
0001
1000
0010
,
0100
0001
0010
0001
0010
0100
1000
0001
,
0100
0001
0010
0001
0100
0001
0010
0001
,
1000
0000
0100
0000
0010
0000
0001
0000
1000
0010
1000
0000
0001
0000
0000
0000
,
1000
0010
0000
0000
0100
0001
0000
0000
0001
0100
0000
0000
0010
1000
0000
0000
,
0001
0100
0000
0000
0010
0100
0000
0000
0001
0000
0010
0000
0001
0000
0100
0000
,
0010
1000
0100
0010
0001
0200
0300
0001
,
0010
0000
0000
0100
0000
0000
0010
0000
0100
0000
1000
0000
0020
0000
0000
0000
,
1030
0100
0010
0001
0010
0001
0100
0010
,
0100
0001
0010
0100
1000
0010
1000
0010
,
1000
0002
0003
0100
0010
1000
0100
0010
,
0000
0100
0000
0000
0010
0000
0001
0000
0100
0000
0010
0000
1000
0000
0000
0000
,
0201
0000
0000
0010
0300
0000
0001
0000
1000
0000
0010
0100
0000
0000
0001
0000
,
1000
0000
0000
0100
0010
0000
0010
0000
0100
0000
1000
0000
0001
0000
1000
0000
,
0010
0000
0000
1000
0100
0000
0000
1000
0010
0000
0000
0100
0010
0000
0100
0000
,
0001
0000
0000
0000
0110
0000
0000
1000
0100
0000
0000
0001
1000
0000
1000
0001
,
0000
0100
0001
0010
0100
0010
0100
1000
,
0001
1000
0001
0100
0010
1000
0100
0010
,
0100
1000
0001
0010
0100
1000
0100
1000
,
0001
1000
0100
0010
0001
0010
0100
0000
,
1200
0310
0001
0000
0201
0310
1000
0000
,
1020
0130
0001
0010
0001
1000
0001
0010
,
0200
2300
3020
0100
,
2030
0000
3002
0000
0103
0001
0010
0100
,
2000
0000
3000
0000
0010
0000
0100
0000
0001
0000
0000
0010
0000
0000
0100
0000
,
2000
0000
0000
0000
0001
0000
0000
0000
0100
0000
0000
0000
0020
3000
0000
0000
,
0130
0001
0100
0020
,
1000
0000
0130
0000
1000
0001
0100
0010
,
1000
0000
0010
0000
0000
0100
0000
0000
0001
0000
0000
0010
0000
0000
0000
0000
,
0100
0000
1000
0100
1000
0010
0100
0001
,
1000
0010
1000
0001
0100
0010
0100
0001
,
1000
0100
0010
0100
1000
0001
0010
0100
,
1000
0000
0001
0000
1000
0000
0001
0000
1000
0000
0000
0010
0000
0000
0100
0000
,
0002
0000
0003
2000
3020
0000
0130
0010
,
1000
0100
0010
0100
1000
0100
0010
0100
,
1000
0100
0010
0001
0100
0010
0100
0001
,
0100
0000
0010
0000
0000
1000
0000
0000
0200
0000
0000
0000
0320
0000
0000
0000
,
0032
0000
0103
0000
0010
1000
0100
0000
,
0201
0000
0310
0000
0100
0000
0000
0001
0000
0000
0000
0000
2000
0000
0000
0000
,
0010
0000
3200
0000
0000
0310
0001
0100
,
0010
0000
1000
0000
0100
0000
0010
0000
0100
0000
0000
1000
0000
0000
0002
0000
,
0200
0000
0003
0320
2000
0030
3000
0000
,
0001
0010
0001
0100
0001
0010
0001
1000
,
0200
0000
0010
0000
0000
0310
0100
1000
,
0001
0000
0100
0000
0000
0010
0000
0000
1000
0000
0000
0000
0100
0000
0000
0000
,
2000
0010
0010
3010
,
1000
0001
0100
0020
0100
0000
0130
0010
,
1000
0000
2000
0000
3000
0001
0100
0010
,
0100
0000
0001
0000
0000
0020
0000
0000
0100
0000
0000
0000
0230
0000
0000
0000
,
1000
0000
0300
0100
0010
0000
0100
1000
,
0001
0200
0010
0001
,
0320
0000
1000
0000
0030
0010
1000
0100
,
0010
0000
0100
0000
0000
1000
0000
0000
0020
0000
0000
0000
0130
0000
0000
0000
,
0001
1000
0010
0100
,
0001
0010
0001
1000
0100
0000
0200
0000
,
0300
0000
1000
0100
0010
0001
0100
0000
,
0100
0010
1000
0001
0010
0000
0020
0000
,
0030
0000
0001
0010
0100
1000
0010
0000
,
1001
0110
1001
0110
,
1000
0001
1000
0010
0100
0001
0010
0100
,
1000
0001
1000
0002
0100
0000
0103
0000
,
0001
0010
0100
0010
0001
1000
0010
0100
,
0001
0010
0100
1000
0100
0010
0001
1000
,
0001
0010
0100
1000
0100
0010
0001
0000
,
1020
0130
0001
0000
0021
0130
1000
0000
,
1000
0100
0010
0001
0100
0010
1000
0000
;

//--------------- dance-single - RxSteps ----------------
#NOTES:
     dance-single:
     RxSteps:
     Hard:
     9:
     0,0,0,0,0:
0000
0000
0000
0000
,
1000
0100
1000
0010
0100
0010
0100
0001
,
1000
0010
0100
0001
0100
0010
1000
0100
,
1000
0001
0100
0010
1000
0001
1000
0010
,
0100
0001
0010
0001
0010
0100
1000
0010
,
1000
0101
1010
0011
,
1000
0100
1000
0100
1000
0100
1000
0100
2000
0000
0000
0000
3002
0000
0000
0000
,
0013
0100
1000
0010
0200
0000
0001
0000
,
0310
1000
0100
0010
0100
1000
0001
0100
,
0001
0010
0100
0010
0001
1000
0002
0003
,
0100
0010
1000
0200
0301
0100
2000
0000
,
3001
0000
1000
0000
0010
0000
0200
0000
0001
0000
0000
0002
0300
0000
0000
0000
,
0013
0100
0010
0001
0020
1030
0010
0001
,
1000
0100
0020
0000
0001
0000
0130
1000
,
0010
0000
0000
0100
0000
0000
0010
0000
1000
0000
0000
0011
0000
0000
1200
0000
,
0310
0001
0010
0100
1000
0100
1000
0010
,
0100
0001
1000
0100
0010
0100
1000
0001
,
0020
1030
0010
0001
0020
1030
0010
0001
,
0100
0001
0100
0001
0100
0001
0100
0001
0200
0000
0000
0000
0310
0000
0000
0000
,
1001
0000
0000
1000
0100
0000
0000
0010
0100
0000
0000
0001
1000
0000
0000
0010
,
1000
0000
0000
0001
0100
0000
0000
0000
0001
0000
0010
0000
0100
0000
1000
0000
,
0010
0100
0001
0100
0010
1000
0100
0010
,
0001
0200
1300
0001
0010
1000
0100
0010
,
0001
1100
0110
0011
,
1000
0001
0100
0010
1000
0200
0301
0100
,
1000
0200
0000
0310
0001
0100
0010
2000
,
3000
0001
0200
1300
0100
0001
0020
0000
,
0031
1000
0010
0100
0010
0000
1000
0001
,
0100
0010
0100
0001
1000
0200
0301
1000
,
0010
0000
0002
0000
0003
0000
1000
0001
1000
0000
0010
0000
0100
0000
0002
0000
,
0100
0000
0000
0000
0103
0000
0000
0000
0001
0000
0000
1010
0000
0000
0101
0000
,
1000
0100
0010
0200
1000
0000
0320
0000
,
0031
1000
0010
0100
0001
0020
1030
0010
,
0001
1000
0001
0100
0001
1000
0010
0100
,
0001
0000
0000
0011
0000
0000
1000
0000
0020
0000
0000
0031
0000
0000
1000
0000
,
0100
0010
0100
0001
1000
0001
1000
0010
,
0100
0001
0010
0001
0010
0100
1000
0001
,
0100
0001
0010
0001
0100
0001
0010
0001
,
1000
0010
1000
0010
1000
0010
1000
0010
2000
0000
0000
0000
3001
0000
0000
0000
,
1000
0010
0000
0000
0100
0001
0000
0000
0001
0100
0000
0000
0010
1000
0000
0000
,
0001
0100
0000
0000
0010
0100
0000
0000
0001
0000
0010
0000
0001
0000
0100
0000
,
0010
1000
0100
0010
0001
0200
0300
0001
,
0020
0000
0000
1030
0000
0000
0001
0000
0100
0000
1000
0000
0020
0000
0000
0000
,
1030
0100
0010
0001
0010
0001
0100
0010
,
0100
0001
0010
0100
1000
0010
1000
0010
,
1000
0002
0003
0100
0010
1000
0200
0301
,
0000
1000
0000
0000
0010
0000
0001
0000
0100
0000
0010
0000
1000
0000
0000
0000
,
0201
0000
0000
0010
0300
0000
0001
0000
1100
0000
0000
0000
0201
0000
0310
0000
,
1000
0000
0000
0100
0020
0030
0001
0010
0001
0010
0001
0010
0001
0000
1000
0000
,
0010
0000
0000
1000
0100
0000
0000
1000
0020
0030
0100
0010
0100
0010
0100
0000
,
0001
0000
0000
0000
0110
0000
0000
1000
0100
0000
0000
0001
1000
0000
1000
0001
,
0000
0100
0001
0010
0100
0010
0100
1000
,
0001
1000
0001
0100
0010
1000
0100
0010
,
0100
1000
0001
0200
1300
0001
0010
1000
,
0200
0301
1000
0010
0001
0010
0100
0000
,
1200
0310
0001
0000
0201
0310
1000
0000
,
1020
0130
0001
0010
0001
1000
0001
0010
,
0200
2300
3020
0100
,
2030
0000
3002
0000
0103
0001
0010
0100
,
2000
0000
3000
0000
0010
0000
0100
0000
0001
0000
0000
0010
0000
0000
0100
0000
,
2000
0000
0000
0000
0001
0000
0000
0000
0100
0000
0000
0000
0020
3000
0000
0000
,
0130
0001
0100
0020
,
1000
0000
0130
0000
1000
0001
0100
0010
,
1000
0000
0010
0000
0000
0100
0000
0000
0001
0000
0000
0010
0000
0000
0000
0000
,
0100
0000
1000
0100
1000
0010
0100
0001
,
0020
1030
0010
0001
0020
1030
0010
0001
,
1000
0100
0010
0100
1000
0001
0200
1300
,
0001
0000
0010
0000
0100
0000
0001
0000
1000
0000
0000
0010
0000
0000
0100
0000
,
0002
0000
0003
2000
3020
0000
0130
0010
,
1000
0200
0301
0100
1000
0200
0301
0100
,
1000
0100
0010
0001
0100
0020
0031
1000
,
0100
0000
0010
0000
0000
1000
0000
0000
0200
0000
0000
0000
0320
0000
0000
0000
,
0032
0000
0103
0000
0010
1000
0100
0000
,
0201
0000
0310
0000
0100
0000
0000
0001
0000
0000
0000
0000
2000
0000
0000
0000
,
0010
0000
3200
0000
0000
0310
0001
0100
,
0010
0000
1000
0000
0100
0000
0010
0000
0100
0000
0000
1000
0000
0000
0002
0000
,
0200
0000
0003
0320
2000
0030
3000
0000
,
0001
0010
0001
0100
0001
0010
0001
1000
,
0200
0000
0010
0000
0000
0310
0100
1000
,
0001
0000
0100
0000
0000
0010
0000
0000
1000
0000
0000
0000
0100
0000
0000
0000
,
2000
0010
0010
3010
,
1000
0001
0100
0020
0100
0000
0130
0010
,
1000
0000
2000
0000
3000
0001
0100
0010
,
0100
0000
0001
0000
0000
0020
0000
0000
0100
0000
0000
0000
0230
0000
0000
0000
,
1000
0000
0300
0100
0010
0000
0100
1000
,
0001
0200
0010
0001
,
0320
0000
0001
0000
0030
0010
1000
0100
,
0010
0000
0100
0000
0000
1000
0000
0000
0020
0000
0000
0000
0031
0000
0000
0000
,
1000
0100
0001
0010
,
0001
0010
0001
1000
0100
0000
0200
0000
,
0300
0000
1000
0001
0020
1030
0001
0000
,
0100
1000
0001
1000
0100
0000
0020
0000
,
0030
0000
0001
0200
1300
0001
0010
0000
,
1001
0110
1001
0110
,
1000
0000
0001
0000
2000
3000
0100
0000
0010
0000
1000
0000
0001
0000
0010
0000
,
0100
0001
1000
0002
0100
0000
0103
0000
,
0001
0020
1030
0010
0001
0020
1030
0010
,
0001
0010
0100
1000
0100
0010
0001
1000
,
0001
0010
0100
1000
0100
0010
0001
0000
,
1020
0130
0001
0000
0021
0130
1000
0000
,
0001
0200
1300
0001
0010
1000
0100
0000
;
