#TITLE:VIRUS;
#SUBTITLE:;
#ARTIST:LeKtriQue;
#TITLETRANSLIT:;
#SUBTITLETRANSLIT:;
#ARTISTTRANSLIT:;
#GENRE:;
#CREDIT:RxSteps;
#MUSIC:VIRUS.ogg;
#BANNER:VIRUS.png;
#BACKGROUND:VIRUS-BG.png;
#CDTITLE:cdtitle.png;
#SAMPLESTART:52.433;
#SAMPLELENGTH:20.952;
#SELECTABLE:YES;
#OFFSET:1.853;
#BPMS:0.000=126.000;
#STOPS:;
#BGCHANGES:;
#FGCHANGES:;

//--------------- dance-single - RxSteps ----------------
#NOTES:
     dance-single:
     RxSteps:
     Beginner:
     2:
     0,0,0,0,0:
0000
0000
0000
0000
,
1000
0000
0000
0000
,
0000
0000
0000
0000
,
1000
0000
0000
0000
,
0010
0000
0000
0000
,
0010
0000
0000
0000
,
0001
0000
0000
0000
,
0010
0000
0000
0000
,
0010
0000
0000
0000
,
1000
0000
0000
0000
,
0100
0000
0000
0000
,
0100
0000
0000
0000
,
0001
0000
0000
0000
,
0001
0000
0000
0000
,
0001
0000
0000
0000
,
0010
0000
0010
0000
,
1000
0000
1000
0000
,
0002
0000
0000
0000
,
0003
0000
0000
0000
,
1001
0000
0000
0000
,
1000
0000
0000
0000
,
0101
0000
0000
0000
,
0001
0000
0000
0000
,
1010
0000
0000
0000
,
1000
0000
0000
0000
,
0001
0000
1000
0000
,
0001
0000
0100
0000
,
0100
0000
0000
0000
,
0010
0000
0000
0000
,
0011
0000
0000
0000
,
0001
0000
0000
0000
,
0101
0000
0000
0000
,
1000
0000
0000
0000
,
1100
0000
0000
0000
,
1000
0000
0000
0000
,
0010
0000
0000
0000
,
1000
0000
0000
0000
,
0001
0000
0000
0000
,
0001
0000
0000
0000
,
0010
0000
0000
0000
,
0010
0000
0000
0000
,
1000
0000
0000
0000
,
0001
0000
0000
0000
,
0010
0000
0000
0000
,
0100
0000
0000
0000
,
0100
0000
0000
0000
,
0100
0000
0000
0000
,
0020
0000
0000
0000
,
0030
0000
0000
0000
,
2000
0000
0000
0000
,
3000
0000
0000
0000
,
1001
0000
0000
0000
,
0100
0000
0000
0000
,
0100
0000
0000
0000
,
0001
0000
0000
0000
,
0101
0000
0000
0000
,
1000
0000
0000
0000
,
0110
0000
0000
0000
,
0001
0000
0000
0000
,
1000
0000
0000
0000
,
0010
0000
0000
0000
,
0100
0000
0000
0000
,
1000
0000
0000
0000
,
1100
0000
0000
0000
,
1000
0000
0000
0000
,
0001
0000
0000
0000
,
0010
0000
0000
0000
,
0010
0000
0000
0000
,
0010
0000
0020
0000
,
0030
0000
0000
0000
,
1000
0000
2000
0000
,
3000
0000
0001
0000
,
0001
0000
1000
0000
,
1000
0000
0010
0000
,
0200
0000
0300
0000
,
0001
0000
0000
0000
,
1000
0000
0000
0000
,
0100
0000
0000
0000
,
0100
0000
0000
0000
,
1001
0000
0000
0000
,
0010
0000
0000
0000
,
0011
0000
0000
0000
,
0010
0000
0000
0000
,
1000
0000
0000
0000
,
0001
0000
0000
0000
,
0100
0000
0000
0000
,
0010
0000
0000
0000
,
0100
0000
0000
0000
,
0100
0000
0000
0000
,
1000
0000
0000
0000
,
0010
0000
0000
0000
,
1000
0000
0000
0000
,
0001
0000
0000
0000
,
0001
0000
0000
0000
,
1000
0000
0000
0000
,
1000
0000
0000
0000
,
0010
0000
0000
0000
,
2000
0000
0000
0000
,
0000
0000
0000
0000
,
0000
0000
0000
0000
,
0000
0000
0000
0000
,
0000
0000
0000
3000
;

//--------------- dance-single - RxSteps ----------------
#NOTES:
     dance-single:
     RxSteps:
     Easy:
     4:
     0,0,0,0,0:
0000
0000
0000
0000
,
0002
0000
0000
0000
,
0000
0000
0000
0003
,
1000
0100
0010
0001
,
0010
0001
0100
0002
,
0003
1000
0010
0100
,
0010
0100
0001
0001
,
1000
0001
0010
0100
,
0010
0010
0100
2000
,
3000
0001
1000
0010
,
0100
0001
1000
1000
,
0001
0001
0001
0100
,
0100
0100
0010
2000
,
3000
0010
0100
0010
,
1000
0010
0200
0000
,
0300
0001
0010
0100
,
1000
0100
0010
0001
,
2000
0000
0000
0000
,
0020
0000
3030
0000
,
1000
1000
0001
0010
,
0001
0010
0011
0000
,
0000
1000
0010
0100
,
0010
1000
1010
0000
,
0000
0001
0010
0001
,
1000
0100
1100
0000
,
0001
0001
0100
0100
,
0010
0010
1000
1000
,
0002
0003
1000
0001
,
1000
0001
0110
0000
,
0000
1000
0100
0010
,
0001
1000
1010
0000
,
0000
0001
1000
0010
,
1000
0100
0110
0000
,
0000
0001
0001
0100
,
0100
0010
0010
1000
,
0200
0300
2000
3000
,
0002
0003
0200
0300
,
0002
0003
0020
0030
,
0200
0300
0020
0030
,
0200
0300
2000
3000
,
0002
0003
2000
3000
,
0200
0300
2000
3000
,
0001
0100
0001
0100
,
0001
0001
1000
1000
,
0010
0010
0100
0100
,
0001
1000
0001
0100
,
0010
0100
0001
1000
,
0020
0000
0000
0000
,
0000
0000
0000
0000
,
0200
0000
0000
0000
,
0000
0000
0330
0000
,
1001
0000
1000
0001
,
1000
0001
0010
0001
,
0200
0300
0001
1000
,
0100
0010
0002
0003
,
0001
0200
0300
0001
,
0100
0001
0010
0000
,
0101
0000
0001
1000
,
0010
0010
0100
0100
,
0001
0010
0100
0010
,
0001
0010
0100
0100
,
1000
0100
0010
0002
,
0000
0103
0020
0030
,
1000
1000
0001
0001
,
0100
0100
0002
2003
,
3100
0100
1000
0100
,
0010
0100
1000
0100
,
2000
3000
2000
3000
,
2000
3000
0002
0000
,
0003
0100
0020
0030
,
0200
0300
0100
0001
,
1000
0010
0010
1000
,
0100
0010
0001
0010
,
0100
1000
0001
0100
,
0020
0000
1030
1000
,
0001
1000
0010
0010
,
1000
0010
0100
0001
,
0010
0001
0001
1000
,
2000
0000
3020
0000
,
0130
0001
0010
0100
,
1000
0010
0100
0001
,
1000
0100
1000
0010
,
0100
0001
0010
0001
,
1000
0010
0010
0100
,
0100
0001
0001
1000
,
0001
0001
0100
0100
,
0010
0010
1000
0001
,
1000
1000
0010
0010
,
1000
1000
0100
1000
,
0001
0010
0100
1000
,
0100
0010
0001
0010
,
0001
1000
0010
0100
,
0001
1000
0010
0100
,
0001
1000
0100
1000
,
0001
0010
0001
0100
,
0010
1000
0100
1000
,
0010
0100
0001
0010
,
0002
0000
0000
0000
,
2000
0000
0000
0000
,
0000
0000
0000
0000
,
0000
0000
0000
0000
,
0000
0000
0000
3003
;

//--------------- dance-single - RxSteps ----------------
#NOTES:
     dance-single:
     RxSteps:
     Medium:
     7:
     0,0,0,0,0:
0000
0000
0000
0000
,
2000
0000
0000
0000
,
0000
0000
0000
3000
,
0001
1000
0100
0010
0001
0100
0001
0010
,
0001
1000
0010
0100
0010
1000
0010
0200
,
0000
0301
0100
0010
0100
0001
0100
0010
,
1000
0100
1000
0001
1000
0020
0000
0000
,
1030
0100
0010
0001
0000
0001
0010
0100
,
0000
0100
0010
0001
0000
1000
0000
1000
,
0000
0001
0100
0010
1000
0001
0100
0010
,
1000
0001
0010
0001
1000
0100
1000
0000
,
0011
1100
0110
1001
,
0101
0000
0000
0000
0001
0000
1000
0000
0010
0000
0000
0100
0000
0001
0000
0000
,
0001
0100
0010
0100
0001
1000
0010
0100
,
0001
1000
0100
0010
0001
0010
0002
0000
,
1003
0010
1000
0100
1000
0001
1000
0010
,
0100
0001
0010
0001
0100
0020
0000
0030
,
1000
0010
1000
0010
0100
0001
0100
0002
,
2000
0003
0010
3001
,
0110
0000
1000
0001
0020
0000
0100
0000
,
0001
0130
2002
3003
,
1100
0000
1000
0001
0200
0000
0010
0000
,
0001
0310
0022
0033
,
1010
0000
0001
1000
0100
0010
0001
0010
,
0001
1000
0100
0000
0202
0000
0303
0000
,
1020
1030
0021
0130
,
0012
1003
2010
3100
,
0001
0100
0001
1000
0200
0000
0010
0000
,
1000
0310
0202
0300
,
1003
0110
1001
0021
,
0100
0031
2200
0300
,
3001
0110
1001
1200
,
0010
1300
0202
0300
,
1003
0000
0001
2000
0010
0000
3010
2000
,
0100
0000
3100
0020
0001
0000
0031
0000
,
1000
0001
0010
0000
0010
0001
0100
0000
,
0010
0100
0001
0000
1000
0100
0010
0000
,
0010
0100
1000
0000
0001
0020
0100
0000
,
0031
0020
0100
0000
0130
1000
0010
0000
,
1000
0100
0010
0000
0001
0010
0100
0000
,
1000
0001
1000
0000
0010
0100
0010
0000
,
0010
1000
0010
0000
1000
0100
1000
0000
,
0001
0100
0001
0000
1000
0010
1000
0000
,
0001
0010
0001
1000
0100
1000
0001
1000
,
0001
0100
0010
0100
0001
1000
0001
1000
,
0100
1000
0001
0100
0001
1000
0010
1000
,
0001
0010
0001
1000
0001
1000
0100
1000
,
0001
0010
0100
1000
0001
0010
0100
1000
,
0100
0010
0001
1000
0001
0100
0010
1000
,
0002
0000
0000
0000
,
0020
0003
0230
2300
,
3020
0230
0301
0001
,
0001
0001
2000
0000
,
3010
1000
1000
1000
,
1000
0000
0000
0000
0010
0000
0000
0000
0200
0020
0000
0000
0330
0000
0000
0000
,
1000
0011
2010
3020
,
0130
1020
0100
1030
,
0101
1200
0010
1000
,
0010
2300
3002
0023
,
0100
0000
0031
0010
0100
0010
0100
1000
,
0100
0010
0001
1000
0200
0000
0010
0000
,
1300
0000
0001
0010
0100
0010
0200
0000
,
1000
0310
0001
0010
0002
0000
0003
0000
,
1100
0000
1000
0100
0010
0001
0010
0100
,
0010
0001
0100
0010
2000
0000
3200
0000
,
0320
0000
0031
0010
0001
0000
0001
0000
,
0100
0010
0100
0001
0100
0010
0100
0001
,
2000
3200
2300
3020
,
0230
0302
0023
0100
,
0031
2000
3020
0230
,
0302
0023
0230
0310
,
0010
0000
0001
0100
0001
0010
0100
1000
,
0100
0010
0100
1000
0100
0010
0100
1000
,
0100
0010
0001
0100
0010
1000
0001
0100
,
0020
0000
1000
2030
,
3001
0110
1001
1100
,
0101
0110
1001
0021
,
0130
0010
0001
1000
0010
0000
0010
0000
,
1000
0100
1000
0000
0202
0000
0300
0000
,
2003
0000
3010
0100
0010
0000
0010
0000
,
1000
0000
1000
0000
0001
0100
0010
0000
,
1000
0100
0010
0100
1000
0100
0010
0100
,
2000
3002
0010
0103
,
1100
0000
1000
0001
0010
0100
0010
0001
,
0010
0100
0010
0001
0010
0200
0000
0300
,
1000
0100
0010
0000
0010
0100
1000
0000
,
0001
0010
0200
0000
1300
0000
0101
0000
,
0001
0010
0100
0000
0100
0010
0001
0000
,
1000
0001
1000
0000
0010
0000
1100
0000
,
1000
0001
0010
0000
0010
0001
1000
0000
,
0010
1000
0100
0000
1000
0000
0011
0000
,
0001
0010
0100
1000
0100
0010
0001
0010
,
0100
1000
0010
0100
0001
1000
0010
0100
,
0002
2003
3002
0023
,
0100
0001
0230
1000
,
0010
2300
3020
0230
,
0302
0023
0031
1000
,
0010
0100
0010
0100
0010
0100
0001
0010
,
0002
0000
0000
0000
0000
2000
0000
0000
,
0000
0000
0000
0000
,
0003
0000
0000
0000
3000
0000
0001
0000
0020
0000
0000
0200
0000
0000
0000
0000
,
0000
0000
0000
0330
;

//--------------- dance-single - RxSteps ----------------
#NOTES:
     dance-single:
     RxSteps:
     Hard:
     8:
     0,0,0,0,0:
0000
0000
0000
0000
,
0002
0000
0000
0000
,
0000
0000
0000
0003
,
1000
0010
0100
0010
1000
0010
0100
0001
,
0010
0100
0010
0001
0010
0100
1000
0100
,
0001
0100
1000
0100
0001
0100
1000
0100
,
1000
0001
0010
0001
0020
0100
0031
0000
,
1100
0110
0011
1001
,
1010
0000
0011
0000
1100
0000
0201
0310
,
0001
1000
0010
0100
0001
0100
0010
1000
,
0001
0100
0010
0100
0001
2000
3010
0001
,
1200
0310
0001
0010
0100
1000
0100
1000
,
0010
0000
0100
0000
0001
0000
0010
0000
0001
0000
1000
0001
0000
1000
0000
0000
,
0100
0010
0100
1000
0100
0001
0100
1000
,
0100
0000
0010
0000
0001
0000
0100
0000
0001
0000
1000
0001
0000
1000
0000
0001
,
1000
0001
0100
0010
1000
0001
0100
0010
,
1000
0000
0001
0000
1000
0000
0010
0000
0100
0000
0001
1000
0000
0001
0000
0000
,
0100
0010
0100
0010
1000
0100
1000
0100
,
1000
0100
1000
0100
1000
0100
1000
0200
1000
0000
0000
0000
0310
0000
0000
0000
,
2001
0000
3010
1000
0001
0010
0001
1000
,
0001
0000
0100
0000
0001
0000
0010
0000
0000
2020
0000
0000
3030
0000
0000
0000
,
0102
0103
0001
0001
1000
0100
1000
0001
,
1000
0000
0010
0000
1000
0000
0100
0000
0000
0202
0000
0000
0303
0000
0000
0000
,
2010
3000
0010
0100
0001
0100
1000
0100
,
0001
0000
0100
0000
1000
0000
0100
0000
0002
0200
0000
0000
0000
0303
0000
0000
,
1100
0000
0001
0100
1100
0000
0011
0000
,
1010
0000
0001
0020
0100
0000
0031
1000
,
0100
0000
0000
0000
1001
0000
0000
0100
0010
0000
0000
0001
1000
0000
0000
0100
,
0010
0000
0000
0001
1000
0000
0000
0000
0000
0022
0000
0000
0030
0000
0000
0000
,
1003
0000
0000
0000
1100
0000
0000
0001
0100
0000
0000
1000
0100
0000
0000
0001
,
0100
0000
0000
0100
0010
0000
0000
0000
0000
2200
0000
0000
0300
0000
0000
0000
,
3010
0000
0201
0310
1000
0100
0010
0001
,
0100
0000
0010
0000
1000
0000
0001
0000
0000
2020
0000
0000
3000
0000
0000
0000
,
0130
0000
0001
0100
1000
0100
0001
0100
,
1000
2001
3010
0100
,
0001
0010
0100
0000
0100
0010
0001
0000
,
0001
1000
0100
0000
0100
1000
0010
0000
,
0010
0100
0001
0000
0001
0100
0010
0000
,
0100
0010
1000
0000
0011
0000
0110
0000
,
1000
0100
0010
0000
0010
0100
1000
0000
,
1000
0001
0010
0000
0010
0001
0100
0000
,
0100
0010
1000
0000
1000
0010
0100
0000
,
0010
0100
0002
0000
0103
2000
3010
0002
,
0203
0010
0302
0010
,
1003
0001
0100
0002
1003
0200
0001
0320
,
1000
0130
0001
0010
0001
0010
0100
1000
,
0100
1000
0101
0000
1100
0000
0011
0000
,
1000
0100
0010
0001
1000
0100
0010
0001
,
1000
0001
0100
0010
1000
0010
0100
0001
,
0100
0001
0100
0001
0100
0001
0100
0001
0100
0001
0100
0001
0100
0001
0100
0002
,
0200
0300
0023
0230
,
2300
0000
3001
0001
0200
0000
0010
0000
,
0010
0000
0302
0000
0013
0100
1000
0200
,
0010
0000
1300
0200
0010
0000
0310
0100
,
1000
0000
0001
0000
0100
0000
0000
0000
0001
0100
0000
0001
0000
0100
0001
0000
,
2000
0000
3010
1000
0001
0100
0010
0100
,
0001
0100
0010
0100
0001
0020
0230
0000
,
1300
0000
0011
0001
0010
0001
1000
0100
,
0020
0001
0130
2001
,
3010
0000
1000
0100
0010
0100
1000
0010
,
0100
0001
0010
0001
1010
0000
0012
0000
,
0103
0000
0010
0100
0001
0010
0001
0020
,
0100
0000
0000
0000
0031
0000
1000
0000
0010
1000
0000
0010
0000
1000
0010
0000
,
2000
0000
0000
0000
3100
0000
0010
0000
0001
0000
0000
0010
0001
0000
0000
1000
,
0100
0000
0000
1000
0010
0000
0000
0100
0020
0000
0000
0000
2030
0000
0000
0000
,
3100
0011
0011
1001
,
1000
0010
0000
0000
0010
0100
0000
0000
0100
0001
0000
0000
0001
1000
0000
0000
,
0200
0310
0102
0203
,
0302
0000
0000
0000
0103
0000
0000
0000
0010
1000
0010
1000
0010
1000
0000
0010
,
0200
0302
0023
0031
,
1100
0000
1000
0100
0010
0100
0010
0000
,
1002
0000
0013
0000
0001
0100
0010
1000
,
0001
0100
0001
0010
0001
1000
0010
1000
,
0100
1000
0100
0010
0001
1000
0010
0100
,
0001
0010
0001
0010
0001
0010
0001
0010
0002
0000
0000
0000
0203
0000
0000
0000
,
0310
0000
0000
0000
1000
0001
0000
0000
0110
0000
0000
0000
0011
0000
0000
0000
,
0110
1200
0310
0002
,
0203
0310
0002
0013
0100
1000
0100
0001
,
0100
0000
1000
0000
0010
0000
0100
0000
0000
0202
0000
0000
0303
0000
0000
0000
,
2100
0000
3100
1000
0010
0100
0010
1000
,
0010
0100
0010
1000
0001
0010
0001
0000
,
1010
0010
0100
0001
0010
1000
0010
0001
,
0010
1000
0010
0000
0011
0000
0110
0000
,
0001
0100
0010
0100
0001
0100
0010
1000
,
0100
0010
0100
1000
0100
0010
0001
0010
,
1000
0010
0001
0010
1000
0010
0001
0010
,
0001
1000
0100
1000
0200
0010
1300
0000
,
0011
0110
1100
1001
,
0101
1100
0011
1020
,
0130
0001
0100
0010
1000
0010
0100
0001
,
1000
0010
0100
0010
1000
0002
0100
1003
,
0021
0130
1000
0100
0010
0001
0010
0001
,
0100
0010
1000
0100
1000
0001
0100
0001
,
0010
0100
0010
0001
0010
1000
0010
0001
,
0010
0100
1000
0010
1000
0001
1000
0001
,
1000
0100
0020
0100
0031
1000
0020
0100
,
1030
0010
2000
0100
3001
0010
0100
1000
,
0010
0100
0010
0100
0001
0010
0001
0010
,
0001
0010
0001
0010
0001
0010
0001
0010
0001
0000
2000
0000
0000
0000
0000
0000
,
0020
0000
0000
0000
,
3000
0000
0000
0000
0030
0000
0100
0000
0002
0000
0000
0020
0000
0000
0000
0000
,
0000
0000
0000
0033
;
