#TITLE:V.A.N;
#SUBTITLE:;
#ARTIST:Bad Omens and Poppy;
#TITLETRANSLIT:;
#SUBTITLETRANSLIT:;
#ARTISTTRANSLIT:;
#GENRE:;
#CREDIT:RxSteps;
#MUSIC:V.A.N.ogg;
#BANNER:V.A.N.png;
#BACKGROUND:V.A.N-bg.png;
#CDTITLE:cdtitle.png;
#SAMPLESTART:77.340;
#SAMPLELENGTH:28.098;
#SELECTABLE:YES;
#OFFSET:-0.072;
#BPMS:0.000=102.500;
#STOPS:;
#BGCHANGES:;
#FGCHANGES:;

//--------------- dance-single - RxSteps ----------------
#NOTES:
     dance-single:
     RxSteps:
     Beginner:
     4:
     0,0,0,0,0:
0000
0000
1000
0010
,
0000
0010
0100
0000
0001
0000
1000
0000
,
0010
1000
0000
0000
0010
0000
0100
0000
,
0000
0100
0010
0000
1000
0000
0001
0000
,
1000
0010
0000
0000
1000
0000
0001
0000
,
0000
1000
0001
0000
0100
0000
0001
0000
,
1000
0000
1000
0001
,
0000
0010
0001
0000
1000
0000
0010
0000
,
0100
0000
0000
0000
,
0001
0100
0001
1000
,
0001
0010
0001
0100
,
0010
1000
0001
0100
,
0010
0100
0010
0000
2000
0000
0000
0000
,
3001
0000
1000
0010
1000
0000
0001
0000
,
0100
0010
1000
0010
,
0100
0000
0001
1000
0001
0000
0100
0000
,
0010
0000
0000
0000
1000
0000
0000
0000
0001
0000
0000
0000
0000
0100
0000
0000
,
0010
0100
0001
1000
,
0100
0000
0000
0000
1000
0000
0000
0020
0000
0000
0000
0000
0030
0000
0000
0000
,
0100
0001
1000
0010
,
0100
0000
0000
0000
0010
0000
0000
2000
0000
0000
0000
0000
3000
0000
0000
0000
,
0001
1000
0010
0100
,
0010
0000
0000
0000
1000
0000
0000
0200
0000
0000
0000
0000
0300
0000
0000
0000
,
1000
0001
0100
0001
,
0010
0000
0000
0000
0001
0000
0000
2000
0000
0000
0000
0000
3000
0000
0000
0000
,
1000
0000
0001
0100
0001
0000
1000
0000
,
0010
0000
1000
0001
1000
0000
0010
0000
,
0100
0000
0010
0100
0010
0000
1000
0000
,
0001
0000
0100
0001
0100
0000
0001
0000
,
1000
0000
0100
1000
0100
0000
1000
0000
,
0010
0000
0100
0001
0100
0000
0001
0000
,
1000
0000
0001
1000
0001
0000
0100
0000
,
0001
0000
1000
0001
1000
0000
0020
0000
,
1030
0001
1000
0010
,
0100
0000
0000
0000
0001
0000
0000
0200
0000
0000
0000
0000
0300
0000
0000
0000
,
0001
1000
0010
0100
,
0010
0000
0000
0000
1000
0000
0000
0002
0000
0000
0000
0000
0003
0000
0000
0000
,
0100
0010
1000
0100
,
1000
0000
0000
0000
0100
0000
0000
2000
0000
0000
0000
0000
3000
0000
0000
0000
,
0001
0100
0010
1000
,
0001
0000
0000
0000
0100
0000
0000
0020
0000
0000
0000
0000
0030
0000
0000
0000
,
2000
0000
3002
0000
0003
1000
0010
0000
,
0100
0001
1000
0001
,
0020
0000
0032
0000
0003
1000
0001
0000
,
0100
0010
1000
0001
,
0200
0000
0320
0000
0030
1000
0010
0000
,
1000
0001
0100
0010
,
2000
0000
3020
0000
0030
1000
0001
0000
,
1000
0200
0310
0000
,
1001
0000
0000
0000
0000
1000
0000
0001
0000
1000
0000
0001
0000
0000
1000
0000
,
0000
0010
0000
0000
0000
0100
0000
0001
0000
0100
0000
0000
0000
0010
0000
0000
,
1000
0000
0000
0000
0000
0001
0000
0100
0000
0001
0000
0100
0000
0000
0010
0000
,
0000
1000
0000
0000
0000
0010
0000
1000
0000
0010
0000
0000
0000
0100
0000
0000
,
0002
0003
1000
0000
1000
0000
0010
1000
,
0010
1000
0010
1000
0010
1000
0001
0000
,
2000
0002
0000
3003
,
1000
0001
1000
0001
1000
0001
1000
0001
,
0100
0000
0000
0000
0001
0000
0000
0000
0100
0000
0000
0001
0000
0100
0000
0001
,
0000
0100
0000
0000
0000
0010
0000
0100
0000
0010
0000
0000
1000
0000
0010
0000
,
0000
1000
0000
0000
0000
0000
0001
0000
0000
0000
0100
0000
0010
0000
0100
0000
,
0020
0000
0000
0030
,
1000
1000
0001
0010
,
0001
0001
0100
0001
,
1000
0010
1000
0000
0001
0000
0100
0000
,
0010
1000
0010
0100
,
0001
0010
0001
1000
,
0010
1000
0001
1000
,
0001
0100
0001
0000
1000
0000
0001
0000
,
0100
0010
1000
0001
,
1000
0010
1000
0010
1000
0000
0001
0000
,
1000
0100
1000
0010
,
1000
0001
1000
0000
0010
0000
0010
0000
,
0100
0100
0001
0001
,
1000
0000
0010
0000
0100
0010
0100
0000
,
0001
0100
0001
0000
1000
0001
1000
0000
,
0001
1000
0001
0000
0100
0010
0100
0000
,
0010
1000
0010
0000
0100
0010
0100
0000
,
0001
1000
0001
1000
0001
0000
0001
0000
,
0000
0100
0010
0000
1000
0000
1000
0010
,
0100
0001
0100
0001
2000
0000
3020
0000
,
0030
0100
0010
0000
1000
0000
0001
0000
,
0010
0001
0020
0230
,
0300
1000
0100
0000
1000
0000
0001
0000
,
0100
0010
2000
3010
,
0000
0010
1000
0000
0020
0000
0200
0000
,
0330
0000
0000
0000
0001
0000
1000
0010
,
1000
0000
0001
0000
0100
0000
0001
1000
,
0001
0000
0100
0000
0010
0000
1000
0100
,
1000
0000
0001
0000
0100
0000
0001
0010
,
0001
0000
1000
0000
0010
0000
0100
0010
,
0100
0000
0001
0000
1000
0000
0100
1000
,
0100
0000
0010
0000
0001
0000
1000
0001
,
1000
0000
0010
0000
1000
0000
0001
0100
,
0001
0000
0110
0000
,
0000
0001
1000
0000
0001
0000
0100
0000
,
0010
1000
1100
0000
,
0000
1000
0001
0000
0100
0000
0001
0000
,
0010
0001
1001
0000
,
0000
0001
0100
0000
0001
0000
0100
0000
,
0001
1000
0110
0000
,
0000
1000
0001
0000
0010
0000
0001
0000
,
1000
0000
0010
0200
0002
0000
0000
0000
,
0000
0000
0000
0000
,
0000
0000
0303
0000
;

//--------------- dance-single - RxSteps ----------------
#NOTES:
     dance-single:
     RxSteps:
     Easy:
     6:
     0,0,0,0,0:
0000
0000
1000
0010
,
0000
0010
0100
0000
0001
0000
0010
0000
,
0001
1000
0000
0000
0010
0000
0100
0000
,
0000
0100
0001
0000
0010
0000
0100
0000
,
1000
0100
0000
0000
1000
0000
0001
0000
,
0000
1000
0100
0000
0010
0000
0001
0000
,
1000
0010
0100
0010
1000
0000
0001
0000
,
0000
0010
0100
0000
1000
0000
0020
0000
,
0200
0000
0000
0330
,
0001
0100
0010
1000
0001
0100
0010
1000
,
0001
0100
0001
1000
0010
1000
0001
0010
,
0100
1000
0001
0100
0010
0100
0001
1000
,
0001
0000
0100
0001
0000
1000
0001
0000
2000
0000
0000
0000
3002
0000
0000
0000
,
0203
0000
0301
1000
0010
0100
0010
1000
,
0002
0000
1003
0001
0100
0010
0100
0001
,
0200
0000
0301
0100
0010
1000
0001
0100
,
0010
0000
1000
0000
0100
0000
0010
0000
0001
0000
0000
0000
0000
0200
0000
0000
,
0310
0100
0001
1000
,
0100
0000
0000
0000
1000
0000
0100
2000
0000
0000
0000
0000
3010
0000
0000
1000
,
0010
0100
0001
0010
,
0001
0000
0000
0000
1000
0000
0001
2000
0000
0000
0000
0000
3001
0000
0000
0000
,
0100
0010
1000
0001
1000
0001
0100
0010
,
1000
0000
0001
0000
0100
0000
0001
0200
0000
0000
0000
0000
0300
0000
0000
0000
,
0100
0010
1000
0100
1000
0001
0010
0001
,
0010
0000
0001
0000
1000
0000
0010
2000
0000
0000
0000
0000
3000
0000
0000
0000
,
1000
0000
0001
0100
0001
1000
0010
0100
,
0010
0000
1000
0001
0100
0001
1000
0001
,
0100
0000
0100
0010
1000
0100
1000
0001
,
0100
0000
0001
1000
0010
0100
0001
1000
,
0010
0000
0100
0001
1000
0010
1000
0100
,
1000
0000
1000
0001
0010
0100
1000
0100
,
0010
0000
0001
1000
0001
0100
0010
1000
,
0001
0000
0100
0010
1000
0001
2000
3000
,
0010
0100
0001
0100
0010
1000
0010
0100
,
0001
0000
0010
0000
0001
0000
1000
0002
0000
0000
0000
0000
0103
0000
0000
0000
,
0001
1000
0001
1000
0001
1000
0100
0010
,
0001
0000
0100
0000
0010
0000
0100
0020
0000
0000
0000
0000
0030
0000
0000
0000
,
0100
0001
0010
0001
1000
0001
0100
0001
,
1000
0000
0010
0000
0100
0000
0010
0200
0000
0000
0000
0000
0300
0000
0000
0000
,
0001
1000
0010
0100
0001
0100
0010
1000
,
0001
0000
0010
0000
0100
0000
1000
0200
0000
0000
0000
0000
0300
0000
0000
0000
,
2000
0000
3002
0000
0003
1000
0010
0000
,
0100
0000
0001
0100
0001
1000
0010
1000
,
0200
0000
2300
0000
3000
1000
0001
0000
,
0100
0000
0010
1000
0100
1000
0001
0100
,
0002
0000
2003
0000
3000
0010
0100
0000
,
0001
0000
0100
0001
0100
0010
1000
0001
,
2000
0000
3020
0000
0030
0100
0001
0000
,
1000
0200
0310
0000
,
1001
0000
0000
0000
0000
1000
0000
0001
0000
0100
0000
0001
0000
0000
1000
0000
,
0000
0010
0000
0000
0000
0100
0000
0001
0000
0100
0000
0000
0000
0010
0000
0000
,
1000
0000
0000
0000
0000
0001
0000
0010
0000
0001
0000
0010
0000
0000
0100
0000
,
0000
1000
0000
0000
0000
0100
0000
1000
0000
0010
0000
0000
0000
0100
0000
0000
,
0002
0003
1000
0010
0100
0001
0010
0001
,
1000
0001
1000
0001
0100
0001
1000
0010
,
2000
0002
0000
3003
,
1000
0010
0100
0010
1000
0010
0100
0001
,
1000
0000
0000
0000
0001
0000
0000
0000
0100
0000
0000
0001
0000
1000
0000
0001
,
0000
0100
0000
0000
0000
0010
0000
0100
0000
0001
0000
0000
1000
0000
0010
0000
,
0000
1000
0000
0000
0000
0000
0001
0000
0010
0000
0100
0000
1000
0000
0100
0000
,
1000
0001
0100
0010
1000
0001
0100
0010
,
0100
0010
1000
0001
0200
0000
0320
0000
,
2030
3002
0023
0031
,
1000
0010
2000
0000
3002
0000
0203
0000
,
0320
2030
3020
0230
,
0302
0023
0032
0203
,
0320
2030
3200
1300
,
0001
0100
0020
0000
2030
0000
3002
0000
,
0203
0320
2030
3002
,
1003
0100
0010
0001
0020
0000
0031
0000
,
1000
0010
0100
0000
0001
1000
0010
0000
,
1000
0001
1000
0000
0010
0000
0010
0000
,
0100
0100
0001
0001
,
1000
0000
0010
0000
0100
0010
1000
0000
,
0001
0010
0100
0000
1000
0100
0010
0000
,
0001
1000
0001
0000
0100
0010
0100
0000
,
0001
1000
0100
0000
0100
1000
0010
0000
,
0100
0010
0100
0010
2000
0000
3002
0000
,
0003
0100
0010
0000
1000
0000
1000
0010
,
0100
0001
0100
0001
2000
0000
3020
0000
,
0030
0100
0010
0000
1000
0000
0001
0100
,
0010
0100
0001
1000
0020
0000
0230
0000
,
0300
0001
1000
0000
0010
0000
1000
0001
,
0100
0001
0010
0001
2000
0000
3020
0000
,
0030
0010
1000
0000
0020
0000
0200
0000
,
0000
0000
0330
0000
0001
0000
1000
0010
,
1000
0001
0100
0010
0100
0000
0001
1000
,
0010
1000
0001
1000
0010
0000
0010
0100
,
0001
0010
0001
1000
0010
0000
1000
0001
,
0100
0010
1000
0001
0100
0000
0010
1000
,
0001
0100
0001
0010
0001
0000
0001
1000
,
0100
0010
0001
0010
0100
0000
1000
0001
,
1000
0010
0100
0001
1000
0000
0010
0100
,
0001
1000
0001
0000
0220
0000
0330
0000
,
0001
1000
0010
1000
0001
0010
0001
0010
,
0100
1000
0001
0000
0022
0000
0033
0000
,
0000
0001
0100
0010
0100
0010
1000
0001
,
0100
0010
1000
0000
2020
0000
3030
0000
,
0000
0001
0100
0010
1000
0001
1000
0010
,
0100
0001
0100
0000
0220
0000
0330
0000
,
0000
1000
0001
0100
0010
0100
0010
1000
,
0001
1000
0100
0020
0002
0000
0000
0000
,
0000
0000
0000
0000
,
0000
0000
0033
0000
;

//--------------- dance-single - RxSteps ----------------
#NOTES:
     dance-single:
     RxSteps:
     Medium:
     8:
     0,0,0,0,0:
0000
0000
1000
0010
,
0000
0010
0100
0000
0001
0000
0010
0000
,
0001
1000
0000
0000
0010
0000
0100
0000
,
0000
0100
0001
0000
0010
0000
0100
0000
,
1000
0100
0000
0000
1000
0000
0001
0000
,
0000
1000
0100
0000
0010
0000
0001
0000
,
1000
0010
0100
0010
1000
0000
0001
0000
,
0000
0010
0100
0000
1000
0000
0020
0000
,
0200
0000
0000
0330
,
0001
0000
0100
0000
0001
0100
0001
0000
1000
0000
0010
0000
0100
0010
0100
0000
,
0001
0000
0100
0000
0010
0100
0010
0000
1000
0000
0100
0000
0010
0001
0010
0000
,
0100
0000
1000
0000
0001
0100
0001
0000
0010
0000
0001
0000
1000
0100
1000
0000
,
0001
0000
0100
0010
0000
1000
0001
0000
1000
0100
1000
0100
1000
0100
1000
0100
,
1000
0000
0000
0001
0010
0001
0000
0000
0100
0000
0010
0000
1000
0000
0010
1000
,
0010
0000
0100
0000
0001
0100
0001
0000
1000
0000
0001
0000
1000
0010
1000
0000
,
0001
0000
0000
1000
0001
1000
0000
0010
0000
0100
0000
0000
0001
1000
0001
1000
,
0000
0010
0000
0000
0100
0001
0100
0001
0000
1000
0000
0000
0000
0001
1000
0001
,
1000
0010
0100
0001
1000
0100
1000
0010
,
0100
0000
0001
0000
0010
0000
0001
0200
0000
0000
0000
0000
0310
0000
0000
0000
,
1000
0001
0100
0010
1000
0100
1000
0001
,
0010
0000
0001
0000
1000
0000
0100
0020
0000
0000
0000
0000
0031
0000
0000
0000
,
0100
0010
1000
0100
1000
0001
0100
0010
,
1000
0000
0100
0000
0010
0000
0001
0020
0000
0000
0000
0000
0001
0000
0000
0000
,
0130
1000
0001
0100
0001
0010
0100
1000
,
0010
0000
0100
0000
0001
0000
0010
0200
0000
0000
0000
0000
0300
0000
0000
0000
,
0100
0010
0100
0000
0001
0000
0010
0001
0010
0000
0001
1000
0001
0000
0100
0000
,
0010
1000
0010
0000
0100
0000
0001
1000
0001
0000
0010
0100
0010
0000
0001
0000
,
1000
0100
1000
0000
0010
0000
0100
0010
0100
0000
0001
0010
0001
0000
1000
0000
,
0100
1000
0100
0000
0010
0000
0001
0100
0001
0000
1000
0010
1000
0000
0001
0000
,
0100
0010
0100
0000
0001
0000
1000
0010
1000
0000
0100
0010
0100
0000
1000
0000
,
0001
1000
0001
0000
0100
0000
0010
0100
0010
0000
1000
0001
1000
0000
0100
0000
,
0010
0001
0010
0000
0100
0000
1000
0100
1000
0000
0100
0010
0100
0000
1000
0000
,
0010
0100
0010
0000
1000
0000
0001
0100
0001
0000
1000
0001
2000
0000
3000
0000
,
0010
0100
0001
0100
0010
1000
0010
0100
,
0001
0000
0010
0000
0100
0000
1000
0020
0000
0000
0000
0000
0130
0000
0000
0000
,
0001
0010
0100
0010
0001
1000
0100
0010
,
0001
0000
0100
0000
0010
0000
1000
0200
0000
0000
0000
0000
0310
0000
0000
0000
,
0100
1000
0010
0100
0010
1000
0100
0010
,
0100
0000
1000
0000
0100
0000
0010
0200
0000
0000
0000
0000
1000
0000
0000
0000
,
0310
0001
0100
0010
1000
0100
1000
0010
,
0100
0000
0010
0000
1000
0000
0100
0020
0000
0000
0000
0000
0030
0000
0000
0000
,
0001
0100
0001
0010
0100
1000
0010
0100
,
0001
0010
0100
0010
0001
1000
0100
0010
,
0001
1000
0001
0100
0010
1000
0010
0100
,
0010
1000
0100
0010
0100
1000
0001
0010
,
0100
1000
0010
0100
0010
1000
0100
0010
,
0001
0010
0001
0010
0100
0010
0001
0100
,
0010
1000
0001
0100
0010
0100
0001
0100
,
0010
1000
0100
0000
0020
0000
0030
0000
,
0201
0000
0300
0000
0010
1000
0000
0001
0000
0100
0000
0010
1000
0000
0100
0000
,
0000
0010
0000
0000
0001
0010
0000
0100
0000
1000
0000
0000
0010
0100
0000
0000
,
1100
0000
0000
0000
0001
0100
0000
0010
0000
1000
0000
0100
0010
0000
0100
0000
,
0000
1000
0000
0000
0001
0100
0000
0010
0000
1000
0000
0000
0010
0100
0000
0000
,
0002
0003
1000
0010
0100
0001
0010
0100
,
1000
0010
1000
0100
1000
0001
1000
0010
,
2000
0000
0000
0000
3001
0000
0100
0000
0001
0000
1000
0010
2000
0000
0000
0000
,
3001
0100
0001
0010
0001
0100
0001
1000
,
0001
0000
0000
0000
0001
1000
0000
0000
0001
0100
0000
0001
0000
0010
0000
0001
,
0000
0010
0000
0100
0010
0100
0000
0001
0000
1000
0000
0000
0001
0000
0100
0000
,
0010
1000
0010
0000
0100
0000
0001
0000
0010
0000
0100
0000
1000
0000
0100
0000
,
1000
0000
0001
0010
0001
0010
0001
0010
0001
0000
0010
0000
0100
0000
1000
0000
,
0200
0010
1300
0001
0200
0000
0320
0000
,
2030
3002
0023
0130
,
1000
0010
1000
0010
2000
0000
0000
0000
3002
0000
0000
0000
0203
0000
0000
0000
,
0320
2030
3020
0230
,
0302
0013
1002
0203
,
0320
2030
3200
1300
,
0010
0100
0010
0100
0010
0000
0000
0000
1100
0000
0000
0010
0001
0000
0000
1000
,
0001
0000
0000
0001
0100
0000
0000
0100
0010
0000
0000
1000
0020
0000
0030
0000
,
1000
0100
0010
0001
1000
0010
0100
0010
,
1000
0010
0100
0001
0010
0100
1000
0100
,
1000
0100
1000
0100
1000
0000
0000
0000
0011
0000
0000
1000
0010
0000
0000
0100
,
0001
0000
0000
0010
0100
0000
0000
1000
0100
0000
0000
0010
0100
0000
0000
0001
,
0100
0000
0000
0010
1000
0000
0000
0000
1010
0000
0000
1000
0001
0000
0000
0010
,
0100
0000
0000
1000
0100
0000
0000
0100
1000
0000
0000
0010
0200
0000
0300
0000
,
0001
1000
0001
1000
0001
0000
0000
0000
0110
0000
0000
1000
0001
0000
0000
0010
,
0001
0000
0000
0010
0100
0000
0000
1000
0100
0000
0000
0010
0100
0000
0000
0100
,
1000
0100
0010
0001
0100
0010
0100
0010
,
1000
0001
0100
0010
1000
0100
1000
0010
,
0100
0001
0010
0001
0010
0100
0010
0001
,
1000
0010
0100
0001
1000
0001
1000
0100
,
0010
0100
1000
0001
0100
0010
0100
0001
,
1000
0010
0100
0010
1000
0001
1000
0001
,
0100
0001
0010
0001
0010
0100
0010
0001
,
0100
0010
1000
0001
0020
0000
0200
0000
,
0000
0000
0000
0000
0330
0000
0000
0000
0001
0100
0001
0000
1000
0000
0100
1000
,
0100
0000
1000
0001
1000
0000
0010
0000
0100
0001
0100
0000
0010
0000
1000
0001
,
1000
0000
0100
0010
0100
0000
1000
0000
0001
0010
0001
0000
0100
0000
0010
0100
,
0010
0000
1000
0100
1000
0000
0001
0000
0010
0001
0010
0000
0100
0000
1000
0010
,
1000
0000
0001
0100
0001
0000
1000
0000
0010
0100
0010
0000
1000
0000
0001
0100
,
0001
0000
0010
0100
0010
0000
0001
0000
1000
0001
1000
0000
0010
0000
0100
0010
,
0100
0000
0001
1000
0001
0000
0010
0000
0100
1000
0100
0000
0010
0000
0001
0010
,
0001
0000
0010
0100
0010
0000
0001
0000
0100
0010
0100
0000
0001
0000
1000
0010
,
1000
0000
0001
1000
0001
0000
0100
0000
0110
0000
0000
0000
1001
0000
1000
0000
,
0010
0100
0001
1000
0001
0010
0100
0010
,
0100
1000
0010
0100
0011
0000
1010
1000
,
0001
0100
0010
1000
0100
0010
0100
1000
,
0010
0100
0001
0000
1010
0000
0021
0130
,
1000
0010
0100
0010
1000
0001
1000
0100
,
0010
0100
0010
0001
1010
0000
0101
1000
,
0010
0100
0001
1000
0010
0100
0010
1000
,
0001
0000
1000
0010
1000
0010
1000
0020
2000
0000
0000
0000
0000
0000
0000
0000
,
0000
0000
0000
0000
,
0000
0000
3030
0000
;

//--------------- dance-single - RxSteps ----------------
#NOTES:
     dance-single:
     RxSteps:
     Hard:
     10:
     0,0,0,0,0:
0000
0000
1000
0010
,
0000
0010
0100
0000
0001
0000
0010
0000
,
0001
1000
0000
0000
0010
0000
0100
0000
,
0000
0100
0001
0000
0010
0000
0100
0000
,
1000
0100
0000
0000
1000
0000
0001
0000
,
0000
1000
0100
0000
0010
0000
0001
0000
,
1000
0010
0100
0010
1000
0000
0001
0000
,
0000
0010
0100
0000
1000
0000
0020
0000
,
0200
0000
0000
0330
,
0001
0010
0100
1000
0001
1000
0010
0100
0010
1000
0100
0010
0001
0010
0100
0010
,
0001
1000
0100
0010
0100
1000
0001
0100
0010
1000
0010
0100
0001
1000
0001
0010
,
0100
0010
0001
0010
0100
1000
0010
1000
0001
0100
0001
1000
0010
1000
0100
0010
,
0002
0000
0003
0000
0000
0000
0100
0000
0000
0010
0000
0000
0000
0000
0000
1000
0000
0000
0001
0000
0000
0000
0000
0000
1000
0000
0000
0010
0000
0000
0100
0000
0000
0001
0000
0000
1000
0000
0000
0010
0000
0000
0100
0000
0000
0001
0000
0000
,
0100
0000
0000
0001
0010
0100
0000
1000
0100
0010
0000
0001
1000
0100
0010
0001
,
0000
1000
0000
0010
0100
0010
0100
0001
1000
0000
0001
0000
1000
0010
0100
0001
,
0010
0000
0000
0001
0100
0010
1000
0100
0000
0010
0000
0001
1000
0100
0010
0001
,
0000
1000
0000
0010
0100
0010
1000
0001
0000
0100
0000
0000
0000
0001
0100
0010
,
1000
0001
0010
0100
1000
0001
0010
0100
1000
0100
0010
0100
1000
0100
0010
0001
,
1000
0010
0100
0001
0010
0001
1000
0200
0000
0000
0000
0000
0310
0000
0000
0001
,
1000
0010
0100
0001
1000
0010
0100
0001
1000
0100
0010
0001
0010
0100
0010
0001
,
1000
0010
0100
0001
1000
0001
0200
0010
0000
0000
0000
0000
0310
0000
0000
1000
,
0010
0100
0001
1000
0100
0010
0100
1000
0010
0100
0001
0010
0100
1000
0010
0100
,
0010
1000
0010
0100
0010
1000
0100
0020
0000
0000
0000
0000
0001
0000
0000
0000
,
0130
1000
0100
0010
0001
0100
0010
0100
0001
1000
0010
0100
0010
0100
0001
1000
,
0100
0010
0001
0010
0100
1000
0010
0200
0000
0000
0000
0000
0300
0000
0000
0000
,
0100
0010
0100
0000
0001
0000
0010
0001
0010
0000
0001
1000
0001
0000
0100
0000
,
0010
1000
0010
0000
0100
0000
0001
1000
0001
0000
0010
0100
0010
0000
0001
0000
,
1000
0100
1000
0000
0010
0000
0100
0010
0100
0000
0001
0010
0001
0000
1000
0000
,
0100
1000
0100
0000
0010
0000
0001
0100
0001
0000
1000
0010
1000
0000
0001
0000
,
0100
0010
0100
0000
0001
0000
1000
0010
1000
0000
0100
0010
0100
0000
1000
0000
,
0001
1000
0001
0000
0100
0000
0010
0100
0010
0000
1000
0001
1000
0000
0100
0000
,
0010
0001
0010
0000
0100
0000
1000
0100
1000
0000
0100
0010
0100
0000
1000
0000
,
0010
0100
0010
0000
1000
0000
0001
0100
0001
0000
1000
0001
1000
0010
0100
0001
,
1000
0001
0100
0010
1000
0001
0100
0010
1000
0010
0100
0010
1000
0010
0100
0001
,
1000
0100
0010
0001
0100
0001
1000
0020
0000
0000
0000
0000
0130
0000
0000
0001
,
1000
0100
0010
0001
1000
0100
0010
0001
1000
0010
0100
0001
0100
0010
0100
0001
,
1000
0100
0010
0001
1000
0001
0020
0100
0000
0000
0000
0000
0130
0000
0000
1000
,
0100
0010
0001
1000
0010
0100
0010
1000
0100
0010
0001
0100
0010
1000
0100
0010
,
0100
1000
0100
0010
0100
1000
0010
0200
0000
0000
0000
0000
0001
0000
0000
0000
,
0310
1000
0010
0100
0001
0010
0100
0010
0001
1000
0100
0010
0100
0010
0001
1000
,
0010
0100
0001
0100
0010
1000
0100
0020
0000
0000
0000
0000
0030
0000
0000
0000
,
0001
0100
0001
0010
0100
1000
0010
0100
,
0001
0020
1030
0010
0001
1000
0100
0010
,
0001
1000
0001
0100
0010
1000
0200
0301
,
0100
1000
0020
0031
0010
1000
0100
0010
,
0100
1000
0010
0100
0010
1000
0200
0301
,
1000
0010
0001
0010
0100
0010
0001
0100
,
0010
1000
0001
0100
0020
0031
1000
0100
,
0010
1000
0100
0000
0020
0000
0030
0000
,
0201
0000
0300
0000
0010
1000
0000
0001
0000
0100
0000
0010
1000
0000
0100
0000
,
0000
0010
0000
0000
0001
0010
0000
0100
0000
1000
0000
0000
0010
0100
0000
0000
,
1100
0000
0000
0000
0001
0100
0000
0010
0000
1000
0000
0100
0010
0000
0100
0000
,
0000
1000
0000
0000
0001
0100
0000
0010
0000
1000
0000
0000
0010
0100
0000
0000
,
0002
0000
0003
0000
1000
0100
0010
0001
0010
0100
1000
0100
0010
0001
0010
0100
,
0010
0100
1000
0100
1000
0001
1000
0001
0100
0001
0100
0001
1000
0010
1000
0010
,
2000
0000
3000
0000
0001
0100
0010
1000
0001
0100
0010
1000
0200
0000
0000
0000
,
0310
0001
0100
0010
1000
0001
1000
0010
0100
0001
1000
0010
0100
0001
1000
0010
,
0200
0000
0300
0000
0010
1000
0001
0100
0001
1000
0000
0001
0000
0010
0001
1000
,
0000
0010
0000
0100
0010
1000
0000
0001
0000
1000
0000
0010
1000
0010
0100
0001
,
0010
0001
0010
0100
0010
0001
0100
0010
1000
0010
0100
0010
0100
0001
1000
0100
,
1000
0100
0010
0001
1000
0100
0010
0001
1000
0010
0100
0001
0010
0100
1000
0000
,
0010
0200
0302
0023
1000
0030
0020
0000
,
0032
0203
0320
1030
,
0001
1000
0010
0100
0001
1000
0010
0000
0200
0000
0000
0000
0002
0000
0300
0000
,
0203
0000
1000
0300
0200
0000
0302
0000
,
0023
0130
1002
0203
,
0320
2030
3200
1300
,
0010
0100
0001
1000
0010
0000
0000
0000
1100
0000
0001
0010
0100
0000
1000
0010
,
0100
0000
0010
0100
0001
0000
1000
0100
0010
0000
0001
0100
0020
0000
0030
0000
,
1000
0001
0100
0010
1000
0001
0010
0100
1000
0000
0100
0000
0010
0000
0100
0000
,
1000
0010
0100
0001
0020
1030
0001
0100
,
0010
0100
1000
0100
0010
0000
0000
0000
0011
0000
1000
0100
0010
0000
0100
0010
,
0001
0000
1000
0010
0100
0000
0001
1000
0100
0000
1000
0010
0100
0000
0010
0100
,
0001
0000
0100
0010
1000
0000
0000
0000
2010
3000
0100
0010
0001
0000
1000
0010
,
0100
0000
0001
1000
0100
0000
1000
0100
0010
0000
0001
0010
0100
0000
1000
0010
,
0100
0001
1000
0010
0100
0000
0000
0000
1001
0000
0001
0010
0100
0000
0010
0100
,
1000
0000
0001
0100
0010
0000
1000
0001
0010
0000
0001
0100
0010
0000
0100
0010
,
1000
0100
0010
0001
0100
0001
0100
0010
,
1000
0001
0100
0010
1000
0100
1000
0010
,
0100
0001
0010
0001
0010
0100
0010
0001
,
1000
0010
0100
0001
1000
0001
1000
0100
,
0010
0100
1000
0001
0200
1300
0100
0001
,
1000
0010
0100
0010
1000
0001
1000
0001
,
0100
0001
0010
0001
0200
1300
0100
0001
,
0100
0010
1000
0001
0020
0000
0200
0000
,
0000
0000
0000
0000
0330
0000
0000
0000
0001
0100
0010
0000
1000
0000
0100
1000
,
0100
0000
1000
0001
1000
0000
0010
0000
0100
0001
0100
0000
0010
0000
1000
0001
,
1000
0000
0100
0010
0100
0000
1000
0000
0001
0010
0001
0000
0100
0000
0010
0100
,
0010
0000
1000
0100
1000
0000
0001
0000
0010
0001
0010
0000
0100
0000
1000
0010
,
1000
0000
0001
0100
0001
0000
1000
0000
0010
0100
0010
0000
1000
0000
0001
0100
,
0001
0000
0010
0100
0010
0000
0001
0000
1000
0001
1000
0000
0010
0000
0100
0010
,
0100
0000
0001
1000
0001
0000
0010
0000
0100
1000
0100
0000
0010
0000
0001
0010
,
0001
0000
0010
0100
0010
0000
0001
0000
0100
0010
0100
0000
0001
0000
1000
0010
,
1000
0000
0001
1000
0001
0000
0100
0000
0110
0000
0000
0000
1001
0000
1000
0000
,
0010
0100
0001
1000
0001
0020
1030
0001
,
0100
1000
0010
0100
0011
0000
1010
1000
,
0001
0100
0010
1000
0200
0301
0100
1000
,
0010
0100
0001
0010
1010
0000
0021
0130
,
1000
0010
0200
1300
0001
0010
1000
0200
,
0301
1000
0010
0001
1010
0000
0101
1000
,
0010
0100
0001
1000
0020
0031
0010
1000
,
0001
0000
1000
0100
1000
0100
0010
0002
2000
0000
0000
0000
0000
0000
0000
0000
,
0000
0000
0000
0000
,
0000
0000
3003
0000
;
